Loading...
Error
 

Скачать торрент Oceans: Our Blue Planet / Океаны: Наша Голубая Планета( Mark Brownlow, Rachel Butler)[2018,Документальный, природа, фауна,HDR BDRip 1440p][Eng]

 
Автор Сообщение

brother225

post 14-Фев-19 13:02

pic
Oceans: Our Blue Planet / Океаны: Наша Голубая Планета

Год выпуска: 2018
Страна: Великобритания, BBC
Жанр: Документальный, природа, фауна
Продолжительность: 00:41:53
Перевод: отсутсвует
Субтитры: отсутствуют
рассказчик: Kate Winslet
Режиссёр: Mark Brownlow, Rachel Butler
Описание: Отправляйтесь в глобальную Одиссею, чтобы открыть для себя самую большую и наименее исследованную среду обитания на земле. Новая океаническая наука и техника позволила нам углубиться в неизведанное дальше, чем мы когда-либо считали возможным.
Качество: HDR BDRip 1440p
Формат: MKV
Видео кодек: x265
Аудио кодек: AC3
Видео: HEVC 2560х1440 (16:9), 23,976 fps ,10.9 mb/s, 0.123 bpp 10bit
Аудио: AC3, 6 ch, 48 KHz, 640 Kb/s
MediaInfo
Complete name : H:\мои раздачи\Oceans.Our.Blue.Planet.2018.DOCU.mkv
Format : Matroska
Format version : Version 4
File size : 3.37 GiB
Duration : 41 min 52 s
Overall bit rate : 11.5 Mb/s
Encoded date : UTC 2019-02-14 09:50:55
Writing application : mkvmerge v31.0.0 ('Dolores In A Shoestand') 64-bit
Writing library : libebml v1.3.6 + libmatroska v1.4.9

Video
ID : 1
Format : HEVC
Format/Info : High Efficiency Video Coding
Format profile : Main [email protected]@High
Codec ID : V_MPEGH/ISO/HEVC
Duration : 41 min 52 s
Bit rate : 10.9 Mb/s
Width : 2 560 pixels
Height : 1 440 pixels
Display aspect ratio : 16:9
Frame rate mode : Constant
Frame rate : 23.976 (24000/1001) FPS
Color space : YUV
Chroma subsampling : 4:2:0 (Type 2)
Bit depth : 10 bits
Bits/(Pixel*Frame) : 0.123
Stream size : 3.18 GiB (94%)
Writing library : x265 3.0_Au+4-dcbec33bfb0f:[Windows][MSVC 1920][64 bit] 10bit
Default : Yes
Forced : No
Color range : Limited
Color primaries : BT.2020
Transfer characteristics : PQ
Matrix coefficients : BT.2020 non-constant
Maximum Content Light Level : 1054 cd/m2
Maximum Frame-Average Light : 403 cd/m2

Audio
ID : 2
Format : AC-3
Format/Info : Audio Coding 3
Commercial name : Dolby Digital
Codec ID : A_AC3
Duration : 41 min 52 s
Bit rate mode : Constant
Bit rate : 640 kb/s
Channel(s) : 6 channels
Channel layout : L R C LFE Ls Rs
Sampling rate : 48.0 kHz
Frame rate : 31.250 FPS (1536 SPF)
Bit depth : 16 bits
Compression mode : Lossy
Stream size : 192 MiB (6%)
Service kind : Complete Main
Default : Yes
Forced : No
Скриншоты
Oceans.Our.Blue.Planet.2018.DOCU.mkv.torrent
Трекер: Зарегистрирован

magnet ссылка

 


Скачать .torrent

17 KB

Статус: проверено (by ilyash_rekviem в 14-Фев-19 13:09)
Зарегистрирован: 14-Фев-19 13:02
Скачан: 48 раз
Размер: 3.37 GB | 
Поблагодарили:
Скачать Oceans: Our Blue Planet / Океаны: Наша Голубая Планета( Mark Brownlow, Rachel Butler)[2018,Документальный, природа, фауна,HDR BDRip 1440p][Eng] торрент
 


Похожие раздачи

Текущее время: 23-Авг 14:42

Часовой пояс: GMT + 3



Вы не можете начинать темы
Вы не можете отвечать на сообщения
Вы не можете редактировать свои сообщения
Вы не можете удалять свои сообщения
Вы не можете голосовать в опросах
Вы не можете прикреплять файлы к сообщениям
Вы не можете скачивать файлы