Loading...
Error
 

Скачать торрент VA - 80's All In One Vol.01-07 [2004-2011, Pop, Disco, Rock, DVDRip-AVC]

 
Автор Сообщение

Skywalker007

post 16-Мар-19 19:32

pic
VA - 80's All In One Vol.01-07

Год выпуска: 2004-2011
Страна: Чехия
Жанр: Pop, Disco, Rock
Продолжительность: 02:34:45 + 02:26:01 + 02:30:01 + 02:36:14 + 02:47:53 + 02:33:14 + 02:32:05
Описание: Коллекция музыкальных клипов.
Трэклисты дисков Volume 01-03
Various Artists - 80's All In One, Volume 01

01. Pia Zadora / Jermaine Jackson - When The Rain Begins To Fall
02. Mike Oldfield - Moonlight Shadow
03. Alphaville - Big In Japan
04. Kylie Minogue - I Should Be So Lucky
05. A-HA - Take On Me
06. Kim Wilde - You Came
07. Modern Talking - You're My Heart You're My Soul
08. Bananarama - Venus
09. Bad Boys Blue - A World Without You (Michelle)
10. Spagna - Call Me
11. Divine - You Think You're A Man
12. Sandra - Maria Magdalena
13. Opus - Live Is Life
14. C.C.Catch - Soul Survivor
15. Jason Donovan - Too Many Broken Hearts
16. Olivia N. John / John Travolta - You're The One That I Want (Grease)
17. Real Life - Send Me An Angel
18. Animotion - I Engineer
19. Bonnie Tyler - Islands
20. Nik Kershaw - The Riddle
21. Samantha Fox - Touch Me
22. Milli Vanilli - Girl You Know Is True
23. Frankie Goes To Hollywood - Relax
24. Laura Branigan - Self Control
25. Tight Fit - The Lion Sleeps Tonight
26. Madonna - La Isla Bonita
27. Fine Young Cannibals - She Drive Me Crazy
28. Raggio De Luna - Comanchero
29. Eurythmics - Sweet Dreams
30. Blue System - Sorry Little Sarah
31. Desireless - Voyage Voyage
32. Limahl - Never Ending Story
33. Rick Astley - Together Forever
34. Vanessa Paradis - Joele Taxi
35. Lionel Richie - Hello
36. Elo - Confusion
37. Belinda Carlisle - Leave A Light On
38. Fancy - Bolero
39. Cyndi Lauper - Girls Just Want To Have Fun
40. Erasure - Sometimes
41. Falco - Jeanny

Various Artists - 80's All In One, Volume 02

01. Kylie Minogue - Got To Be A Certain
02. Modern Talking - Cherry, Cherry Lady
03. C.C.Catch - Heaven And Hell
04. Falco - Vienna Calling
05. Tina Turner - We Don't Need Another Hero
06. Bronski Beat - Smalltown Boy
07. Sandra - Little Girl
08. Bad Boys Blue - You're A Woman
09. Divine - Walk Like A Man
10. Samantha Fox - I Only Wanna Be With You
11. Milli Vanilli - Blame It On The Rain
12. Kim Wilde - Cambodia
13. Culture Club - Karma Chameleon
14. Dollar - Oh L'amour
15. Spagna - Every Girl And Boy
16. Midge Ure - If A Was
17. Eurythmics - Love Is A Stranger
18. Gazebo - Lunatic
19. George Michael - Faith
20. Gianna Nannini - Bello E Impossibile
21. Michael Cretu - Samurai
22. Baltimora - Tarzan Boy
23. Dusty Springfield - In Private
24. Erasure - Blue Savannah
25. Sinitta - Toy Boy
26. Rick Astley - Never Gonna Give You Up
27. Mel And Kim - Respectable
28. Genesis - Land Of Confusion
29. Sonia - You'll Never Stop Me Loving You
30. New Order - True Faith
31. Billy Ocean - Loverboy
32. Fancy - Bolero
33. Shakin Stevens - A Rockin Good Way
34. Jason Donovan - Every Day
35. Billy Idol - Sweet Sixteen
36. Stars On 45 - Star Sisters Megamix
37. Off - Electrica Salsa
38. Silent Circle - Love Is Just A Word
39. Human League - Human
40. Queen - Who Wants To Live Forever

Various Artists - 80's All In One, Volume 03

01. Billy Ocean - When The Going Gets Tough, The Tough Get Going
02. Liza Minnelli - Losing My Mind
03. Bon Jovi - Livin' On A Prayer
04. Irene Cara - What A Feeling
05. A-HA - You Are The One
06. Jennifer Rush - If You're Ever Gonna Lose My Love
07. Eddie Murphy - Party All The Time
08. Eighth Wonder - I'm Not Scared
09. Philip Oakey And Giorgio Moroder - Together In Electric Dreams
10. Erasure - Sometimes
11. Madonna - Who’s That Girl
12. Howard Jones - What Is Love
13. Mr. Mister - Kyrie
14. Kylie Minogue / Jason Donovan - Especially For You
15. Starship - Nothing's Gonna Stop Us Now
16. Berlin - Take My Breath Away
17. Pet Shop Boys - Allways Of My Mind
18. Rockwell - Somebody's Watching Me
19. Nik Kershaw - Wouldn't It Be Good
20. Martika - Toy Soldiers
21. Don Henley - The Boys Of Summer
22. Depeche Mode - Shake The Disease
23. Patrick Swayze & Wendy Fraser - She's Like The Wind
24. Bryan Adams - Heaven
25. Europe - Superstitious
26. Eric Carmen - Hungry Eyes
27. Ray Parker Jr. - Ghostbusters
28. Def Leppard - Animal
29. Whitney Houston - I Wanna Dance With Somebody
30. Lionel Richie - Say You Say Me
31. Roxette - Listen To Your Heart
32. New Kids On The Block - You Got It (The Right Stuff)
33. Michael Jackson - Smooth Criminal
34. Kim Wilde - You Keep Me Hangin On
35. Queen - Breakthru
36. USA For Africa - We Are The World
Трэклисты дисков Volume 04-05
Various Artists - 80's All In One, Volume 04

01. BILLY OCEAN - Get Outta My Dreams, Get Into My Car (1988)
02. CAMOUFLAGE - The Great Commandment (1988)
03. DEF LEPPARD - Love Bites (1988)
04. DEPECHE MODE - Strange Love'88 (US Version) [1988]
05. EDDIE MONEY & RONNIE SPECTOR - Take Me Home Tonight (1986)
06. EUROPE - Cherokee (1987)
07. FALCO - Coming Home (Jeanny Part 2) [1986]
08. GARY MOORE - Friday On My Mind (1987)
09. GEORGE MICHAEL - Monkey (1988)
10. HAROLD FALTERMEYER - Axel F (1985)
11. HEART - Alone (1987)
12. HOWARD JONES - Everlasting Love (1989)
13. JAN HAMMER - Crocketts Theme (1987)
14. JANE WIEDLIN - Rush Hour (1988)
15. JENNIFER RUSH - Heart Over Mind (1987)
16. JOHNNY HATES JAZZ - Shattered Dreams (1987)
17. KENNY LOGGINS - Danger Zone (1986)
18. KISS - Crazy Crazy Nights (1987)
19. KOREANA - Hand In Hand (1988)
20. MADONNA - Open Your Heart (1986)
21. MICHAEL JACKSON - The Way You Make Me Feel (long version) [1987]
22. MICHAEL SEMBELLO - Maniac (1983)
23. MODERN TALKING - Geronimo's Cadillac (1988)
24. PAT BENATAR - Love Is A Battlefield (1983)
25. PET SHOP BOYS & DUSTY SPRINGFIELD - What Have I Done To Deserve This (1987)
26. PETER SCHILLING - The Different Story (World Of Lust And Crime) [1989]
27. PSEUDO ECHO - Funky Town (1986)
28. QUEEN - The Invisible Man (1989)
29. RICK ASTLEY - Together Forever (1988)
30. RICHARD MARX - Angelia (1989)
31. RYAN PARIS - Dolce Vita (1983)
32. SANDRA - We'll Be Together (1988)
33. SCORPIONS - Believe In Love (1988)
34. SCOTCH - Mirage (1986)
35. STARSHIP - We Built This City (1985)
36. TINA TURNER - What's Love Got To Do With It (1984)
37. WANG CHUNG - Dance Hall Days (1984)

Various Artists - 80's All In One, Volume 05

01. BRYAN ADAMS - Somebody (1984)
02. OFRA HAZA - Im Nin' Alu (1988)
03. JOE COCKER & JENNIFER WARNES - Up Where We Belong (1982)
04. AFTER THE FIRE - Der Kommissar (1982)
05. ERASURE - Blue Savannah (1989
06. PHILIP OAKEY & GIORGIO MORODER - Good-Bye Bad Times (1985)
07. THE CURE - Close To Me (1985)
08. ROBIN BECK - First Time (1988)
09. EUROPE - Open Your Heart (1984)
10. AL BANO & ROMINA POWER - Ci Sara (1984)
11. ROD STEWART - Tonight I'm Yours (1981)
12. ZZ TOP - Rough Boy (1985)
13. DOLLAR - It's Nature's Way (No Problem) (1988)
14. FANCY - Lady of Ice (1987)
15. THOMPSON TWINS - Doctor! Doctor! (1984)
16. WHITESNAKE - Here I Go Again (1987)
17. BLUE SYSTEM - My Bed is Too Big (1988)
18. KIM WILDE - It's Here (1989)
19. PICNIC AT THE WHITEHOUSE - We need Protection (1985)
20. SAVAGE - Only You (1984)
21. SYDNEY YOUNGBLOOD - Sit And Wait (1989)
22. CYNDI LAUPER - True Colors (1986)
23. LABAN - Love in Siberia (1986)
24. PAULA ABDUL - Opposites Attract (1989)
25. FALCO - The Sound Of Musik (1986)
26. HUMAN LEAGUE - Don't You Want Me (1981)
27. CLIFF RICHARD - Some People (1987)
28. BAD HABIT - More Than A Feeling (1989)
29. DEN HARROW - Bad Boy (1985)
30. ROXETTE - Chances (1988)
31. PHIL COLLINS - A Groovy Kind of Love (1988)
32. DONNA SUMMER - I Don't Wanna To Get Hurt (1989)
33. DON JOHNSON - Heartbeat (1986)
34. BOY MEETS GIRL - Waiting For A Star To Fall (1988)
35. RICHARD MARX - Endless Summer Nights (1987)
36. RIGHEIRA - Vamos a la playa (1983)
37. BONNIE BIANCO A PIERRE COSSO - Stay (1987)
38. JOHN PARR - St. Elmo's Fire (Man in Motion) (1985)
39. KIM CARNES-Crazy In The Night (1985)
40. PET SHOP BOYS - Suburbia (1986)
41. SANDRA - Don't Cry (The Breakup Of The World) (1986)
42. PRETTY POISON - Catch Me, I'm falling (1987)
43. MC MIKER G & DEEJAY SVEN - Holiday Rap (1986)
Трэклисты дисков Volume 06-07
Various Artists - 80's All In One, Volume 06

01. KYLIE MINOGUE - Je Ne Sais Pas Pourquoi
02. HOWARD JONES - New Song
03. MIAMI SOUND MACHINE - Dr.Beat
04. NIK KERSHAW - I Won't Let The Sun Go Down On Me
05. KIM WILDE - Never Trust A Stranger
06. WAX - Bridge To Your Heart
07. CHER - If I Could Turn Back Time
08. RED BOX - For America
09. SANDRA - Everlasting Love
10. CHRIS DE BURGH - Missing You
11. MANDY SMITH - Boys And Girls
12. COMMUNARDS - Don't Leave Me This Way
13. BANANARAMA - I Want You Back
14. JASON DONOVAN - Another Night
15. PAUL SIMON - You Can Call Me Al
16. SINITTA - Love On A Mountain Top
17. FERGAL SHARKEY - A Good Heart
18. MADONNA - Like A Virgin
19. HOLLY JOHNSON - Americanos
20. BELINDA CARLISLE - Heaven Is A Place On Earth
21. A-HA - The Sun Always Shines On Tv
22. C.C.CATCH - House of Mystic Lights
23. ABC - The Look Of Love
24. FALCO - Rock Me Amadeus
25. GREASE - Summer Nigts
26. BRUCE SPRINGSTEEN - My Hometown
27. EURYTHMICS - There Must Be An Angel
28. BAD BOYS BLUE - Pretty Young Girl
29. TINA TURNER - What You Get Is What You See
30. PHIL COLLINS - Easy Lover
31. BONNIE TYLER - If You Were A Woman
32. MODERN TALKING - Atlantis Is Calling
33. BUCKS FIZZ - The Land Of Make Believe
34. DEBUT DE SOIRE - La Vie La Nuit
35. PET SHOP BOYS - Domino Dancing
36. ASHFORD AND SIMPSON - Solid
37. HOLLY JOHNSON - LOve Train
38. BRYAN FERRY - Slave To Love
39. QUEEN - I Want To Break Free
40. THOMPSON TWINS - Hold Me Now
41. ENYA - Orinoco Flow

Various Artists - 80's All In One, Volume 07

01. THOMPSON TWINS - Doctor Doctor
02. E.L.O. - So Serious
03. MODERN TALKING - Brother Louie
04. KYLIE MINOGUE - The Locomotion
05. RICK ASTLEY - Take Me To Your Heart
06. BANANARAMA - Love In The First Degree
07. DIVINE - Shake It Up
08. YAZOO - Don't Go
09. LONDON BOYS - Harlem Desire
10. C.C.CATCH - Heartbreak Hotel
11. DEBUT DE SOIREE - Nuit De Folie
12. HAZELL DEAN - Who's Leaving Who
13. STATUS QUO - In The Army Now
14. ROBIN BECK - First Time
15. NEW ORDER - Blue Monday
16. GEORGE HARRISON - Got My Mind Set On You
17. POINTER SISTERS - Jump For My Love
18. WHAM - Club Tropicana
19. CUTTING CREW - (I Just) Died in Your Arms
20. DIANA ROSS - Chain Reaction
21. BLUE SYSTEM - Under My Skin
22. SANDRA - Hi Hi Hi
23. MURRAY HEAD - One Night In Bangkok
24. ROSE LAURENS - Africa
25. DEAD OR ALIVE - You Spin Round (Like A Record)
26. KIM WILDE - You Keep Me Hanging On
27. BAD BOYS BLUE - Come Back And Stay
28. BOBBY McFERRIN - Don't Worry Be Happy
29. ERYTHMICS - Here Comes The Rain Again
30. PET SHOP BOYS - Heart
31. PROPAGANDA - Dr. Mabuse
32. THE HOOTERS - All You Zombies
33. EDELWEISS - Bring Me Edelweis
34. SABRINA - Boys
35. MIDNIGHT OIL - Beds Are Burning
36. LIZA MINELLI - Losing My Mine
37. THE TWINS - Love System
38. WHITNEY HOUSTON - I Wanna Dance With Somebody
39. DAVID BOWIE - China Girl
40. OFRA HAZZA - Im Nin Alu
41. MILLI VANILLI - Girl I'm Gonna Miss You

Качество: DVDRip-AVC (сохранены оригинальные чаптеры как на DVD)
Формат: MKV
Видео кодек: AVC
Аудио кодек: AC3
Видео 01-03: PAL 4:3 (704x528), 25.000 fps, MPEG-4 AVC, 3580 Кбит/с, 0.385 bit/pixel
Видео 06-07: PAL 4:3 (704x528), 25.000 fps, MPEG-4 AVC, 3580 Кбит/с, 0.385 bit/pixel
Видео 04-05: PAL 4:3 (704x528), 25.000 fps, MPEG-4 AVC, 3280 Кбит/с, 0.353 bit/pixel
Аудио: English (AC3, 48KHz, 6 ch, 448 Кбит/с)
Скриншоты
Media Info 01
Формат : Matroska
Версия формата : Version 4 / Version 2
Размер файла : 4,35 Гбайт
Продолжительность : 2 ч. 34 м.
Общий поток : 4028 Кбит/сек
Название фильма : Various Artists - 80's All In One - Volume 01
Дата кодирования : UTC 2019-02-27 03:59:54
Программа кодирования : mkvmerge v7.6.0 ('Garden of Dreams') 64bit built on Feb 8 2015 13:04:34
Библиотека кодирования : libebml v1.3.1 + libmatroska v1.4.2

Видео
Идентификатор : 1
Формат : AVC
Формат/Информация : Advanced Video Codec
Профиль формата : [email protected]
Параметр CABAC формата : Да
Параметр ReFrames формата : 2 кадра
Идентификатор кодека : V_MPEG4/ISO/AVC
Продолжительность : 2 ч. 34 м.
Битрейт : 3580 Кбит/сек
Ширина : 704 пикселя
Высота : 528 пикселей
Соотношение сторон : 4:3
Режим частоты кадров : Постоянный
Частота кадров : 25,000 кадров/сек
Стандарт вещания : PAL
Цветовое пространство : YUV
Субдискретизация насыщенности : 4:2:0
Битовая глубина : 8 бит
Тип развёртки : MBAFF
Метод сохранения типа развёртки : Чередующиеся поля
Порядок развёртки : Верхнее поле первое
Бит/(Пиксели*Кадры) : 0.385
Размер потока : 3,87 Гбайт (89%)
Библиотека кодирования : x264 core 155 r2893
Настройки программы : cabac=1 / ref=2 / deblock=1:0:0 / analyse=0x1:0x131 / me=umh / subme=9 / psy=1 / psy_rd=1.00:0.10 / mixed_ref=0 / me_range=48 / chroma_me=1 / trellis=1 / 8x8dct=0 / cqm=0 / deadzone=21,11 / fast_pskip=1 / chroma_qp_offset=-3 / threads=12 / lookahead_threads=1 / sliced_threads=0 / nr=0 / decimate=1 / interlaced=tff / bluray_compat=0 / constrained_intra=0 / bframes=0 / weightp=0 / keyint=250 / keyint_min=25 / scenecut=0 / intra_refresh=0 / rc_lookahead=0 / rc=2pass / mbtree=0 / bitrate=3580 / ratetol=1.0 / qcomp=0.60 / qpmin=10 / qpmax=69 / qpstep=4 / cplxblur=20.0 / qblur=0.5 / vbv_maxrate=5480 / vbv_bufsize=14000 / nal_hrd=none / filler=0 / ip_ratio=1.40 / aq=0
Default : Да
Forced : Нет
Цветовой диапазон : Limited

Аудио
Идентификатор : 2
Формат : AC-3
Формат/Информация : Audio Coding 3
Расширение режима : CM (complete main)
Параметр Endianness формата : Big
Идентификатор кодека : A_AC3
Продолжительность : 2 ч. 34 м.
Вид битрейта : Постоянный
Битрейт : 448 Кбит/сек
Каналы : 6 каналов
Расположение каналов : Front: L C R, Side: L R, LFE
Частота : 48,0 КГц
Частота кадров : 31,250 кадров/сек (1536 spf)
Метод сжатия : С потерями
Задержка видео : -40 мс.
Размер потока : 496 Мбайт (11%)
Язык : English
Default : Да
Forced : Нет

Меню
00:00:00.000 : :01. Pia Zadora / Jermaine Jackson - When The Rain Begins To Fall
00:05:50.200 : :02. Mike Oldfield - Moonlight Shadow
00:09:12.160 : :03. Alphaville - Big In Japan
00:12:51.400 : :04. Kylie Minogue - I Should Be So Lucky
00:16:07.320 : :05. A-HA - Take On Me
00:19:44.880 : :06. Kim Wilde - You Came
00:23:05.760 : :07. Modern Talking - You're My Heart You're My Soul
00:26:16.200 : :08. Bananarama - Venus
00:29:48.120 : :09. Bad Boys Blue - A World Without You (Michelle)
00:32:59.960 : :10. Spagna - Call Me
00:37:02.600 : :11. Divine - You Think You're A Man
00:40:34.480 : :12. Sandra - Maria Magdalena
00:44:27.280 : :13. Opus - Live Is Life
00:48:30.160 : :14. C.C.Catch - Soul Survivor
00:51:38.320 : :15. Jason Donovan - Too Many Broken Hearts
00:54:43.360 : :16. Olivia N. John / John Travolta - You're The One That I Want (Grease)
00:57:54.280 : :17. Real Life - Send Me An Angel
01:03:08.560 : :18. Animotion - I Engineer
01:07:05.240 : :19. Bonnie Tyler - Islands
01:11:17.520 : :20. Nik Kershaw - The Riddle
01:15:00.480 : :21. Samantha Fox - Touch Me
01:18:32.040 : :22. Milli Vanilli - Girl You Know Is True
01:22:26.920 : :23. Frankie Goes To Hollywood - Relax
01:25:51.840 : :24. Laura Branigan - Self Control
01:30:29.600 : :25. Tight Fit - The Lion Sleeps Tonight
01:33:30.400 : :26. Madonna - La Isla Bonita
01:37:17.360 : :27. Fine Young Cannibals - She Drive Me Crazy
01:40:49.360 : :28. Raggio De Luna - Comanchero
01:44:16.080 : :29. Eurythmics - Sweet Dreams
01:47:30.040 : :30. Blue System - Sorry Little Sarah
01:50:53.680 : :31. Desireless - Voyage Voyage
01:54:56.360 : :32. Limahl - Never Ending Story
01:58:17.400 : :33. Rick Astley - Together Forever
02:01:35.040 : :34. Vanessa Paradis - Joele Taxi
02:05:16.440 : :35. Lionel Richie - Hello
02:10:37.000 : :36. Elo - Confusion
02:13:59.560 : :37. Belinda Carlisle - Leave A Light On
02:18:00.960 : :38. Fancy - Bolero
02:21:13.720 : :39. Cyndi Lauper - Girls Just Want To Have Fun
02:25:24.040 : :40. Erasure - Sometimes
02:28:54.320 : :41. Falco - Jeanny
Media Info 02
Формат : Matroska
Версия формата : Version 4 / Version 2
Размер файла : 4,11 Гбайт
Продолжительность : 2 ч. 26 м.
Общий поток : 4030 Кбит/сек
Название фильма : Various Artists - 80's All In One - Volume 02
Дата кодирования : UTC 2019-02-23 17:06:00
Программа кодирования : mkvmerge v7.6.0 ('Garden of Dreams') 64bit built on Feb 8 2015 13:04:34
Библиотека кодирования : libebml v1.3.1 + libmatroska v1.4.2

Видео
Идентификатор : 1
Формат : AVC
Формат/Информация : Advanced Video Codec
Профиль формата : [email protected]
Параметр CABAC формата : Да
Параметр ReFrames формата : 2 кадра
Идентификатор кодека : V_MPEG4/ISO/AVC
Продолжительность : 2 ч. 26 м.
Битрейт : 3580 Кбит/сек
Ширина : 704 пикселя
Высота : 528 пикселей
Соотношение сторон : 4:3
Режим частоты кадров : Постоянный
Частота кадров : 25,000 кадров/сек
Стандарт вещания : PAL
Цветовое пространство : YUV
Субдискретизация насыщенности : 4:2:0
Битовая глубина : 8 бит
Тип развёртки : MBAFF
Метод сохранения типа развёртки : Чередующиеся поля
Порядок развёртки : Верхнее поле первое
Бит/(Пиксели*Кадры) : 0.385
Размер потока : 3,65 Гбайт (89%)
Библиотека кодирования : x264 core 155 r2893
Настройки программы : cabac=1 / ref=2 / deblock=1:0:0 / analyse=0x1:0x131 / me=umh / subme=9 / psy=1 / psy_rd=1.00:0.10 / mixed_ref=0 / me_range=48 / chroma_me=1 / trellis=1 / 8x8dct=0 / cqm=0 / deadzone=21,11 / fast_pskip=1 / chroma_qp_offset=-3 / threads=12 / lookahead_threads=1 / sliced_threads=0 / nr=0 / decimate=1 / interlaced=tff / bluray_compat=0 / constrained_intra=0 / bframes=0 / weightp=0 / keyint=250 / keyint_min=25 / scenecut=0 / intra_refresh=0 / rc_lookahead=0 / rc=2pass / mbtree=0 / bitrate=3580 / ratetol=1.0 / qcomp=0.60 / qpmin=10 / qpmax=69 / qpstep=4 / cplxblur=20.0 / qblur=0.5 / vbv_maxrate=5480 / vbv_bufsize=14000 / nal_hrd=none / filler=0 / ip_ratio=1.40 / aq=0
Default : Да
Forced : Нет
Цветовой диапазон : Limited

Аудио
Идентификатор : 2
Формат : AC-3
Формат/Информация : Audio Coding 3
Расширение режима : CM (complete main)
Параметр Endianness формата : Big
Идентификатор кодека : A_AC3
Продолжительность : 2 ч. 26 м.
Вид битрейта : Постоянный
Битрейт : 448 Кбит/сек
Каналы : 6 каналов
Расположение каналов : Front: L C R, Side: L R, LFE
Частота : 48,0 КГц
Частота кадров : 31,250 кадров/сек (1536 spf)
Метод сжатия : С потерями
Задержка видео : -40 мс.
Размер потока : 468 Мбайт (11%)
Язык : English
Default : Да
Forced : Нет

Меню
00:00:00.000 : en:01. Kylie Minogue - Got To Be A Certain
00:03:10.040 : en:02. Modern Talking - Cherry, Cherry Lady
00:06:20.040 : en:03. C.C.Catch - Heaven And Hell
00:09:36.560 : en:04. Falco - Vienna Calling
00:13:27.680 : en:05. Tina Turner - We Don't Need Another Hero
00:17:35.040 : en:06. Bronski Beat - Smalltown Boy
00:22:22.360 : en:07. Sandra - Little Girl
00:25:22.240 : en:08. Bad Boys Blue - You're A Woman
00:29:06.880 : en:09. Divine - Walk Like A Man
00:32:42.320 : en:10. Samantha Fox - I Only Wanna Be With You
00:35:25.160 : en:11. Milli Vanilli - Blame It On The Rain
00:39:06.880 : en:12. Kim Wilde - Cambodia
00:42:54.200 : en:13. Culture Club - Karma Chameleon
00:46:41.840 : en:14. Dollar - Oh L'amour
00:49:35.680 : en:15. Spagna - Every Girl And Boy
00:53:12.600 : en:16. Midge Ure - If A Was
00:57:42.600 : en:17. Eurythmics - Love Is A Stranger
01:01:14.400 : en:18. Gazebo - Lunatic
01:04:48.960 : en:19. George Michael - Faith
01:07:25.000 : en:20. Gianna Nannini - Bello E Impossibile
01:11:23.640 : en:21. Michael Cretu - Samurai
01:15:20.800 : en:22. Baltimora - Tarzan Boy
01:18:57.200 : en:23. Dusty Springfield - In Private
01:23:05.920 : en:24. Erasure - Blue Savannah
01:27:22.080 : en:25. Sinitta - Toy Boy
01:30:40.680 : en:26. Rick Astley - Never Gonna Give You Up
01:34:05.400 : en:27. Mel And Kim - Respectable
01:37:18.800 : en:28. Genesis - Land Of Confusion
01:41:56.600 : en:29. Sonia - You'll Never Stop Me Loving You
01:45:13.160 : en:30. New Order - True Faith
01:49:16.560 : en:31. Billy Ocean - Loverboy
01:53:09.840 : en:32. Fancy - Bolero
01:56:22.440 : en:33. Shakin Stevens - A Rockin Good Way
01:59:08.200 : en:34. Jason Donovan - Every Day
02:02:29.120 : en:35. Billy Idol - Sweet Sixteen
02:06:28.200 : en:36. Stars On 45 - Star Sisters Megamix
02:10:29.200 : en:37. Off - Electrica Salsa
02:15:16.560 : en:38. Silent Circle - Love Is Just A Word
02:18:27.120 : en:39. Human League - Human
02:22:07.280 : en:40. Queen - Who Wants To Live Forever
Media Info 03
Формат : Matroska
Версия формата : Version 4 / Version 2
Размер файла : 4,22 Гбайт
Продолжительность : 2 ч. 30 м.
Общий поток : 4029 Кбит/сек
Название фильма : Various Artists - 80's All In One - Volume 03
Дата кодирования : UTC 2019-02-22 04:23:01
Программа кодирования : mkvmerge v7.6.0 ('Garden of Dreams') 64bit built on Feb 8 2015 13:04:34
Библиотека кодирования : libebml v1.3.1 + libmatroska v1.4.2

Видео
Идентификатор : 1
Формат : AVC
Формат/Информация : Advanced Video Codec
Профиль формата : [email protected]
Параметр CABAC формата : Да
Параметр ReFrames формата : 2 кадра
Идентификатор кодека : V_MPEG4/ISO/AVC
Продолжительность : 2 ч. 30 м.
Битрейт : 3580 Кбит/сек
Ширина : 704 пикселя
Высота : 528 пикселей
Соотношение сторон : 4:3
Режим частоты кадров : Постоянный
Частота кадров : 25,000 кадров/сек
Стандарт вещания : PAL
Цветовое пространство : YUV
Субдискретизация насыщенности : 4:2:0
Битовая глубина : 8 бит
Тип развёртки : MBAFF
Метод сохранения типа развёртки : Чередующиеся поля
Порядок развёртки : Верхнее поле первое
Бит/(Пиксели*Кадры) : 0.385
Размер потока : 3,75 Гбайт (89%)
Библиотека кодирования : x264 core 155 r2893
Настройки программы : cabac=1 / ref=2 / deblock=1:0:0 / analyse=0x1:0x131 / me=umh / subme=9 / psy=1 / psy_rd=1.00:0.10 / mixed_ref=0 / me_range=48 / chroma_me=1 / trellis=1 / 8x8dct=0 / cqm=0 / deadzone=21,11 / fast_pskip=1 / chroma_qp_offset=-3 / threads=12 / lookahead_threads=1 / sliced_threads=0 / nr=0 / decimate=1 / interlaced=tff / bluray_compat=0 / constrained_intra=0 / bframes=0 / weightp=0 / keyint=250 / keyint_min=25 / scenecut=0 / intra_refresh=0 / rc_lookahead=0 / rc=2pass / mbtree=0 / bitrate=3580 / ratetol=1.0 / qcomp=0.60 / qpmin=10 / qpmax=69 / qpstep=4 / cplxblur=20.0 / qblur=0.5 / vbv_maxrate=5480 / vbv_bufsize=14000 / nal_hrd=none / filler=0 / ip_ratio=1.40 / aq=0
Default : Да
Forced : Нет
Цветовой диапазон : Limited

Аудио
Идентификатор : 2
Формат : AC-3
Формат/Информация : Audio Coding 3
Расширение режима : CM (complete main)
Параметр Endianness формата : Big
Идентификатор кодека : A_AC3
Продолжительность : 2 ч. 30 м.
Вид битрейта : Постоянный
Битрейт : 448 Кбит/сек
Каналы : 6 каналов
Расположение каналов : Front: L C R, Side: L R, LFE
Частота : 48,0 КГц
Частота кадров : 31,250 кадров/сек (1536 spf)
Метод сжатия : С потерями
Задержка видео : -40 мс.
Размер потока : 481 Мбайт (11%)
Язык : English
Default : Да
Forced : Нет

Меню
00:00:00.000 : :01. Billy Ocean - When The Going Gets Tough, The Tough Get Going
00:04:06.360 : :02. Liza Minnelli - Losing My Mind
00:08:14.280 : :03. Bon Jovi - Livin' On A Prayer
00:11:59.840 : :04. Irene Cara - What A Feeling
00:15:12.360 : :05. A-HA - You Are The One
00:18:52.760 : :06. Jennifer Rush - If You're Ever Gonna Lose My Love
00:22:26.680 : :07. Eddie Murphy - Party All The Time
00:26:29.960 : :08. Eighth Wonder - I'm Not Scared
00:30:11.400 : :09. Philip Oakey And Giorgio Moroder - Together In Electric Dreams
00:33:51.400 : :10. Erasure - Sometimes
00:37:21.840 : :11. Madonna - Who’s That Girl
00:40:58.080 : :12. Howard Jones - What Is Love
00:44:25.920 : :13. Mr. Mister - Kyrie
00:48:30.520 : :14. Kylie Minogue / Jason Donovan - Especially For You
00:51:49.720 : :15. Starship - Nothing's Gonna Stop Us Now
00:56:03.320 : :16. Berlin - Take My Breath Away
01:00:07.760 : :17. Pet Shop Boys - Allways Of My Mind
01:04:07.960 : :18. Rockwell - Somebody's Watching Me
01:07:37.680 : :19. Nik Kershaw - Wouldn't It Be Good
01:11:18.280 : :20. Martika - Toy Soldiers
01:15:59.120 : :21. Don Henley - The Boys Of Summer
01:20:30.040 : :22. Depeche Mode - Shake The Disease
01:25:05.120 : :23. Patrick Swayze & Wendy Fraser - She's Like The Wind
01:28:50.760 : :24. Bryan Adams - Heaven
01:32:44.680 : :25. Europe - Superstitious
01:36:59.200 : :26. Eric Carmen - Hungry Eyes
01:40:35.840 : :27. Ray Parker Jr. - Ghostbusters
01:44:34.480 : :28. Def Leppard - Animal
01:48:34.320 : :29. Whitney Houston - I Wanna Dance With Somebody
01:53:12.640 : :30. Lionel Richie - Say You Say Me
01:57:09.520 : :31. Roxette - Listen To Your Heart
02:02:06.520 : :32. New Kids On The Block - You Got It (The Right Stuff)
02:06:05.520 : :33. Michael Jackson - Smooth Criminal
02:14:44.480 : :34. Kim Wilde - You Keep Me Hangin On
02:18:40.440 : :35. Queen - Breakthru
02:22:47.160 : :36. USA For Africa - We Are The World
Media Info 04
Формат : Matroska
Версия формата : Version 4 / Version 2
Размер файла : 4,07 Гбайт
Продолжительность : 2 ч. 36 м.
Общий поток : 3727 Кбит/сек
Название фильма : Various Artists - 80's All In One - Volume 04
Дата кодирования : UTC 2019-02-22 12:05:00
Программа кодирования : mkvmerge v7.6.0 ('Garden of Dreams') 64bit built on Feb 8 2015 13:04:34
Библиотека кодирования : libebml v1.3.1 + libmatroska v1.4.2

Видео
Идентификатор : 1
Формат : AVC
Формат/Информация : Advanced Video Codec
Профиль формата : [email protected]
Параметр CABAC формата : Да
Параметр ReFrames формата : 2 кадра
Идентификатор кодека : V_MPEG4/ISO/AVC
Продолжительность : 2 ч. 36 м.
Битрейт : 3280 Кбит/сек
Ширина : 704 пикселя
Высота : 528 пикселей
Соотношение сторон : 4:3
Режим частоты кадров : Постоянный
Частота кадров : 25,000 кадров/сек
Стандарт вещания : PAL
Цветовое пространство : YUV
Субдискретизация насыщенности : 4:2:0
Битовая глубина : 8 бит
Тип развёртки : MBAFF
Метод сохранения типа развёртки : Чередующиеся поля
Порядок развёртки : Верхнее поле первое
Бит/(Пиксели*Кадры) : 0.353
Размер потока : 3,58 Гбайт (88%)
Библиотека кодирования : x264 core 155 r2893
Настройки программы : cabac=1 / ref=2 / deblock=1:0:0 / analyse=0x1:0x131 / me=umh / subme=9 / psy=1 / psy_rd=1.00:0.10 / mixed_ref=0 / me_range=48 / chroma_me=1 / trellis=1 / 8x8dct=0 / cqm=0 / deadzone=21,11 / fast_pskip=1 / chroma_qp_offset=-3 / threads=12 / lookahead_threads=1 / sliced_threads=0 / nr=0 / decimate=1 / interlaced=tff / bluray_compat=0 / constrained_intra=0 / bframes=0 / weightp=0 / keyint=250 / keyint_min=25 / scenecut=0 / intra_refresh=0 / rc_lookahead=0 / rc=2pass / mbtree=0 / bitrate=3280 / ratetol=1.0 / qcomp=0.60 / qpmin=10 / qpmax=69 / qpstep=4 / cplxblur=20.0 / qblur=0.5 / vbv_maxrate=5480 / vbv_bufsize=14000 / nal_hrd=none / filler=0 / ip_ratio=1.40 / aq=0
Default : Да
Forced : Нет
Цветовой диапазон : Limited

Аудио
Идентификатор : 2
Формат : AC-3
Формат/Информация : Audio Coding 3
Расширение режима : CM (complete main)
Параметр Endianness формата : Big
Идентификатор кодека : A_AC3
Продолжительность : 2 ч. 36 м.
Вид битрейта : Постоянный
Битрейт : 448 Кбит/сек
Каналы : 6 каналов
Расположение каналов : Front: L C R, Side: L R, LFE
Частота : 48,0 КГц
Частота кадров : 31,250 кадров/сек (1536 spf)
Метод сжатия : С потерями
Задержка видео : -40 мс.
Размер потока : 501 Мбайт (12%)
Язык : English
Default : Да
Forced : Нет

Меню
00:00:00.000 : en:01. BILLY OCEAN - Get Outta My Dreams, Get Into My Car (1988)
00:04:33.680 : en:02. CAMOUFLAGE - The Great Commandment (1988)
00:07:38.480 : en:03. DEF LEPPARD - Love Bites (1988)
00:13:04.160 : en:04. DEPECHE MODE - Strange Love'88 (US Version) [1988]
00:17:51.400 : en:05. EDDIE MONEY & RONNIE SPECTOR - Take Me Home Tonight (1986)
00:21:22.600 : en:06. EUROPE - Cherokee (1987)
00:25:43.400 : en:07. FALCO - Coming Home (Jeanny Part 2) [1986]
00:30:49.400 : en:08. GARY MOORE - Friday On My Mind (1987)
00:34:54.600 : en:09. GEORGE MICHAEL - Monkey (1988)
00:39:38.600 : en:10. HAROLD FALTERMEYER - Axel F (1985)
00:42:34.480 : en:11. HEART - Alone (1987)
00:46:11.280 : en:12. HOWARD JONES - Everlasting Love (1989)
00:50:19.880 : en:13. JAN HAMMER - Crocketts Theme (1987)
00:53:44.320 : en:14. JANE WIEDLIN - Rush Hour (1988)
00:57:43.600 : en:15. JENNIFER RUSH - Heart Over Mind (1987)
01:01:48.080 : en:16. JOHNNY HATES JAZZ - Shattered Dreams (1987)
01:05:09.800 : en:17. KENNY LOGGINS - Danger Zone (1986)
01:09:03.840 : en:18. KISS - Crazy Crazy Nights (1987)
01:12:50.840 : en:19. KOREANA - Hand In Hand (1988)
01:17:02.000 : en:20. MADONNA - Open Your Heart (1986)
01:21:22.920 : en:21. MICHAEL JACKSON - The Way You Make Me Feel (Long Version) [1987]
01:30:47.680 : en:22. MICHAEL SEMBELLO - Maniac (1983)
01:34:59.160 : en:23. MODERN TALKING - Geronimo's Cadillac (1988)
01:38:12.160 : en:24. PAT BENATAR - Love Is A Battlefield (1983)
01:43:27.720 : en:25. PET SHOP BOYS & DUSTY SPRINGFIELD - What Have I Done To Deserve This (1987)
01:47:40.160 : en:26. PETER SCHILLING - The Different Story (World Of Lust And Crime) [1989]
01:51:28.120 : en:27. PSEUDO ECHO - Funky Town (1986)
01:56:17.800 : en:28. QUEEN - The Invisible Man (1989)
02:00:40.600 : en:29. RICK ASTLEY - Together Forever (1988)
02:04:03.360 : en:30. RICHARD MARX - Angelia (1989)
02:08:56.040 : en:31. RYAN PARIS - Dolce Vita (1983)
02:12:47.920 : en:32. SANDRA - We'll Be Together (1988)
02:16:32.640 : en:33. SCORPIONS - Believe In Love (1988)
02:20:18.400 : en:34. SCOTCH - Mirage (1986)
02:23:45.920 : en:35. STARSHIP - We Built This City (1985)
02:28:41.280 : en:36. TINA TURNER - What's Love Got To Do With It (1984)
02:32:25.040 : en:37. WANG CHUNG - Dance Hall Days (1984)
Media Info 05
Формат : Matroska
Версия формата : Version 4 / Version 2
Размер файла : 4,40 Гбайт
Продолжительность : 2 ч. 47 м.
Общий поток : 3756 Кбит/сек
Название фильма : Various Artists - 80's All In One - Volume 05
Дата кодирования : UTC 2019-02-20 18:09:24
Программа кодирования : mkvmerge v7.6.0 ('Garden of Dreams') 64bit built on Feb 8 2015 13:04:34
Библиотека кодирования : libebml v1.3.1 + libmatroska v1.4.2

Видео
Идентификатор : 1
Формат : AVC
Формат/Информация : Advanced Video Codec
Профиль формата : [email protected]
Параметр CABAC формата : Да
Параметр ReFrames формата : 2 кадра
Идентификатор кодека : V_MPEG4/ISO/AVC
Продолжительность : 2 ч. 47 м.
Битрейт : 3280 Кбит/сек
Ширина : 704 пикселя
Высота : 528 пикселей
Соотношение сторон : 4:3
Режим частоты кадров : Постоянный
Частота кадров : 25,000 кадров/сек
Стандарт вещания : PAL
Цветовое пространство : YUV
Субдискретизация насыщенности : 4:2:0
Битовая глубина : 8 бит
Тип развёртки : MBAFF
Метод сохранения типа развёртки : Чередующиеся поля
Порядок развёртки : Верхнее поле первое
Бит/(Пиксели*Кадры) : 0.353
Размер потока : 3,88 Гбайт (88%)
Библиотека кодирования : x264 core 155 r2893
Настройки программы : cabac=1 / ref=2 / deblock=1:0:0 / analyse=0x1:0x131 / me=umh / subme=9 / psy=1 / psy_rd=1.00:0.10 / mixed_ref=0 / me_range=48 / chroma_me=1 / trellis=1 / 8x8dct=0 / cqm=0 / deadzone=21,11 / fast_pskip=1 / chroma_qp_offset=-3 / threads=12 / lookahead_threads=1 / sliced_threads=0 / nr=0 / decimate=1 / interlaced=tff / bluray_compat=0 / constrained_intra=0 / bframes=0 / weightp=0 / keyint=250 / keyint_min=25 / scenecut=0 / intra_refresh=0 / rc_lookahead=0 / rc=2pass / mbtree=0 / bitrate=3280 / ratetol=1.0 / qcomp=0.60 / qpmin=10 / qpmax=69 / qpstep=4 / cplxblur=20.0 / qblur=0.5 / vbv_maxrate=5480 / vbv_bufsize=14000 / nal_hrd=none / filler=0 / ip_ratio=1.40 / aq=0
Default : Нет
Forced : Нет
Цветовой диапазон : Limited

Аудио
Идентификатор : 2
Формат : AC-3
Формат/Информация : Audio Coding 3
Расширение режима : CM (complete main)
Параметр Endianness формата : Big
Идентификатор кодека : A_AC3
Продолжительность : 2 ч. 47 м.
Вид битрейта : Постоянный
Битрейт : 448 Кбит/сек
Каналы : 6 каналов
Расположение каналов : Front: L C R, Side: L R, LFE
Частота : 48,0 КГц
Частота кадров : 31,250 кадров/сек (1536 spf)
Метод сжатия : С потерями
Задержка видео : 24 мс.
Размер потока : 538 Мбайт (12%)
Язык : English
Default : Да
Forced : Нет

Меню
00:00:00.000 : en:01. BRYAN ADAMS - Somebody (1984)
00:04:42.040 : en:02. OFRA HAZA - Im Nin' Alu (1988)
00:08:06.240 : en:03. JOE COCKER & JENNIFER WARNES - Up Where We Belong (1982)
00:12:07.280 : en:04. AFTER THE FIRE - Der Kommissar (1982)
00:16:12.600 : en:05. ERASURE - Blue Savannah (1989)
00:20:35.440 : en:06. PHILIP OAKEY & GIORGIO MORODER - Good-Bye Bad Times (1985)
00:24:06.320 : en:07. THE CURE - Close To Me (1985)
00:27:44.560 : en:08. ROBIN BECK - First Time (1988)
00:30:59.000 : en:09. EUROPE - Open Your Heart (1984)
00:34:59.880 : en:10. AL BANO & ROMINA POWER - Ci Sara (1984)
00:38:26.680 : en:11. ROD STEWART - Tonight I'm Yours (1981)
00:42:16.800 : en:12. ZZ TOP - Rough Boy (1985)
00:46:04.400 : en:13. DOLLAR - It's Nature's Way (No Problem) (1988)
00:49:38.280 : en:14. FANCY - Lady of Ice (1987)
00:52:39.600 : en:15. THOMPSON TWINS - Doctor! Doctor! (1984)
00:57:04.160 : en:16. WHITESNAKE - Here I Go Again (1987)
01:01:32.440 : en:17. BLUE SYSTEM - My Bed Is Too Big (1988)
01:04:47.200 : en:18. KIM WILDE - It's Here (1989)
01:08:03.080 : en:19. PICNIC AT THE WHITEHOUSE - We Need Protection (1985)
01:12:04.200 : en:20. SAVAGE - Only You (1984)
01:15:43.600 : en:21. SYDNEY YOUNGBLOOD - Sit And Wait (1989)
01:19:37.840 : en:22. CYNDI LAUPER - True Colors (1986)
01:23:44.040 : en:23. LABAN - Love In Siberia (1986)
01:27:45.720 : en:24. PAULA ABDUL - Opposites Attract (1989)
01:31:26.680 : en:25. FALCO - The Sound Of Musik (1986)
01:35:38.760 : en:26. HUMAN LEAGUE - Don't You Want Me (1981)
01:39:01.400 : en:27. CLIFF RICHARD - Some People (1987)
01:42:45.440 : en:28. BAD HABIT - More Than A Feeling (1989)
01:47:14.320 : en:29. DEN HARROW - Bad Boy (1985)
01:51:37.800 : en:30. ROXETTE - Chances (1988)
01:55:42.400 : en:31. PHIL COLLINS - A Groovy Kind of Love (1988)
01:59:31.280 : en:32. DONNA SUMMER - I Don't Wanna To Get Hurt (1989)
02:03:08.720 : en:33. DON JOHNSON - Heartbeat (1986)
02:07:05.320 : en:34. BOY MEETS GIRL - Waiting For A Star To Fall (1988)
02:11:27.920 : en:35. RICHARD MARX - Endless Summer Nights (1987)
02:15:54.720 : en:36. RIGHEIRA - Vamos a la playa (1983)
02:19:39.960 : en:37. BONNIE BIANCO A PIERRE COSSO - Stay (1987)
02:23:30.120 : en:38. JOHN PARR - St. Elmo's Fire (Man In Motion) (1985)
02:27:48.040 : en:39. KIM CARNES - Crazy In The Night (1985)
02:31:03.240 : en:40. PET SHOP BOYS - Suburbia (1986)
02:36:05.520 : en:41. SANDRA - Don't Cry (The Breakup Of The World) (1986)
02:39:16.120 : en:42. PRETTY POISON - Catch Me, I'm Falling (1987)
02:43:33.400 : en:43. MC MIKER G & DEEJAY SVEN - Holiday Rap (1986)
Media Info 06
Формат : Matroska
Версия формата : Version 4 / Version 2
Размер файла : 4,30 Гбайт
Продолжительность : 2 ч. 33 м.
Общий поток : 4019 Кбит/сек
Название фильма : Various Artists - 80's All In One - Volume 06
Дата кодирования : UTC 2019-02-19 04:49:55
Программа кодирования : mkvmerge v7.6.0 ('Garden of Dreams') 64bit built on Feb 8 2015 13:04:34
Библиотека кодирования : libebml v1.3.1 + libmatroska v1.4.2

Видео
Идентификатор : 1
Формат : AVC
Формат/Информация : Advanced Video Codec
Профиль формата : [email protected]
Параметр CABAC формата : Да
Параметр ReFrames формата : 2 кадра
Идентификатор кодека : V_MPEG4/ISO/AVC
Продолжительность : 2 ч. 33 м.
Битрейт : 3580 Кбит/сек
Ширина : 704 пикселя
Высота : 528 пикселей
Соотношение сторон : 4:3
Режим частоты кадров : Постоянный
Частота кадров : 25,000 кадров/сек
Стандарт вещания : PAL
Цветовое пространство : YUV
Субдискретизация насыщенности : 4:2:0
Битовая глубина : 8 бит
Тип развёртки : MBAFF
Метод сохранения типа развёртки : Чередующиеся поля
Порядок развёртки : Нижнее поле первое
Бит/(Пиксели*Кадры) : 0.385
Размер потока : 3,82 Гбайт (89%)
Библиотека кодирования : x264 core 155 r2893
Настройки программы : cabac=1 / ref=2 / deblock=1:0:0 / analyse=0x1:0x131 / me=umh / subme=9 / psy=1 / psy_rd=1.00:0.10 / mixed_ref=0 / me_range=48 / chroma_me=1 / trellis=1 / 8x8dct=0 / cqm=0 / deadzone=21,11 / fast_pskip=1 / chroma_qp_offset=-3 / threads=12 / lookahead_threads=1 / sliced_threads=0 / nr=0 / decimate=1 / interlaced=bff / bluray_compat=0 / constrained_intra=0 / bframes=0 / weightp=0 / keyint=250 / keyint_min=25 / scenecut=0 / intra_refresh=0 / rc_lookahead=0 / rc=2pass / mbtree=0 / bitrate=3580 / ratetol=1.0 / qcomp=0.60 / qpmin=10 / qpmax=69 / qpstep=4 / cplxblur=20.0 / qblur=0.5 / vbv_maxrate=5480 / vbv_bufsize=14000 / nal_hrd=none / filler=0 / ip_ratio=1.40 / aq=0
Default : Да
Forced : Нет
Цветовой диапазон : Limited

Аудио
Идентификатор : 2
Формат : AC-3
Формат/Информация : Audio Coding 3
Расширение режима : CM (complete main)
Параметр Endianness формата : Big
Идентификатор кодека : A_AC3
Продолжительность : 2 ч. 33 м.
Вид битрейта : Постоянный
Битрейт : 448 Кбит/сек
Каналы : 6 каналов
Расположение каналов : Front: L C R, Side: L R, LFE
Частота : 48,0 КГц
Частота кадров : 31,250 кадров/сек (1536 spf)
Метод сжатия : С потерями
Задержка видео : -40 мс.
Размер потока : 491 Мбайт (11%)
Язык : Russian
Default : Да
Forced : Нет

Меню
00:00:00.000 : :01. KYLIE MINOGUE - Je Ne Sais Pas Pourquoi
00:04:03.320 : :02. HOWARD JONES - New Song
00:07:35.680 : :03. MIAMI SOUND MACHINE - Dr. Beat
00:11:20.800 : :04. NIK KERSHAW - I Won't Let The Sun Go Down On Me
00:14:23.880 : :05. KIM WILDE - Never Trust A Stranger
00:18:04.720 : :06. WAX - Bridge To Your Heart
00:22:07.720 : :07. CHER - If I Could Turn Back Time
00:26:03.520 : :08. RED BOX - For America
00:29:26.720 : :09. SANDRA - Everlasting Love
00:32:44.880 : :10. CHRIS DE BURGH - Missing You
00:36:22.920 : :11. MANDY SMITH - Boys And Girls
00:39:49.040 : :12. COMMUNARDS - Don't Leave Me This Way
00:44:07.120 : :13. BANANARAMA - I Want You Back
00:47:42.080 : :14. JASON DONOVAN - Another Night
00:50:49.280 : :15. PAUL SIMON - You Can Call Me Al
00:55:18.280 : :16. SINITTA - Love On A Mountain Top
00:58:33.440 : :17. FERGAL SHARKEY - A Good Heart
01:03:02.080 : :18. MADONNA - Like A Virgin
01:06:30.440 : :19. HOLLY JOHNSON - Americanos
01:09:59.760 : :20. BELINDA CARLISLE - Heaven Is A Place On Earth
01:13:56.440 : :21. A-HA - The Sun Always Shines On Tv
01:18:27.400 : :22. C.C.CATCH - House of Mystic Lights
01:21:29.920 : :23. ABC - The Look Of Love
01:24:55.240 : :24. FALCO - Rock Me Amadeus
01:28:08.760 : :25. GREASE - Summer Nigts
01:31:22.920 : :26. BRUCE SPRINGSTEEN - My Hometown
01:36:22.240 : :27. EURYTHMICS - There Must Be An Angel
01:40:42.680 : :28. BAD BOYS BLUE - Pretty Young Girl
01:43:39.200 : :29. TINA TURNER - What You Get Is What You See
01:47:27.240 : :30. PHIL COLLINS - Easy Lover
01:51:49.720 : :31. BONNIE TYLER - If You Were A Woman
01:55:31.320 : :32. MODERN TALKING - Atlantis Is Calling
01:58:22.040 : :33. BUCKS FIZZ - The Land Of Make Believe
02:01:34.600 : :34. DEBUT DE SOIRE - La Vie La Nuit
02:05:11.520 : :35. PET SHOP BOYS - Domino Dancing
02:09:22.400 : :36. ASHFORD AND SIMPSON - Solid
02:13:03.240 : :37. HOLLY JOHNSON - Love Train
02:16:51.560 : :38. BRYAN FERRY - Slave To Love
02:21:00.520 : :39. QUEEN - I Want To Break Free
02:24:57.000 : :40. THOMPSON TWINS - Hold Me Now
02:29:29.680 : :41. ENYA - Orinoco Flow
Media Info 07
Формат : Matroska
Версия формата : Version 4 / Version 2
Размер файла : 4,26 Гбайт
Продолжительность : 2 ч. 32 м.
Общий поток : 4013 Кбит/сек
Название фильма : Various Artists - 80's All In One - Volume 07
Дата кодирования : UTC 2019-02-18 05:21:05
Программа кодирования : mkvmerge v7.6.0 ('Garden of Dreams') 64bit built on Feb 8 2015 13:04:34
Библиотека кодирования : libebml v1.3.1 + libmatroska v1.4.2

Видео
Идентификатор : 1
Формат : AVC
Формат/Информация : Advanced Video Codec
Профиль формата : [email protected]
Параметр CABAC формата : Да
Параметр ReFrames формата : 2 кадра
Идентификатор кодека : V_MPEG4/ISO/AVC
Продолжительность : 2 ч. 32 м.
Битрейт : 3580 Кбит/сек
Ширина : 704 пикселя
Высота : 528 пикселей
Соотношение сторон : 4:3
Режим частоты кадров : Постоянный
Частота кадров : 25,000 кадров/сек
Стандарт вещания : PAL
Цветовое пространство : YUV
Субдискретизация насыщенности : 4:2:0
Битовая глубина : 8 бит
Тип развёртки : MBAFF
Метод сохранения типа развёртки : Чередующиеся поля
Порядок развёртки : Верхнее поле первое
Бит/(Пиксели*Кадры) : 0.385
Размер потока : 3,79 Гбайт (89%)
Библиотека кодирования : x264 core 155 r2893
Настройки программы : cabac=1 / ref=2 / deblock=1:0:0 / analyse=0x1:0x131 / me=umh / subme=9 / psy=1 / psy_rd=1.00:0.10 / mixed_ref=0 / me_range=48 / chroma_me=1 / trellis=1 / 8x8dct=0 / cqm=0 / deadzone=21,11 / fast_pskip=1 / chroma_qp_offset=-3 / threads=12 / lookahead_threads=1 / sliced_threads=0 / nr=0 / decimate=1 / interlaced=tff / bluray_compat=0 / constrained_intra=0 / bframes=0 / weightp=0 / keyint=250 / keyint_min=25 / scenecut=0 / intra_refresh=0 / rc_lookahead=0 / rc=2pass / mbtree=0 / bitrate=3580 / ratetol=1.0 / qcomp=0.60 / qpmin=10 / qpmax=69 / qpstep=4 / cplxblur=20.0 / qblur=0.5 / vbv_maxrate=5480 / vbv_bufsize=14000 / nal_hrd=none / filler=0 / ip_ratio=1.40 / aq=0
Default : Да
Forced : Нет
Цветовой диапазон : Limited

Аудио
Идентификатор : 2
Формат : AC-3
Формат/Информация : Audio Coding 3
Расширение режима : CM (complete main)
Параметр Endianness формата : Big
Идентификатор кодека : A_AC3
Продолжительность : 2 ч. 32 м.
Вид битрейта : Постоянный
Битрейт : 448 Кбит/сек
Каналы : 6 каналов
Расположение каналов : Front: L C R, Side: L R, LFE
Частота : 48,0 КГц
Частота кадров : 31,250 кадров/сек (1536 spf)
Метод сжатия : С потерями
Задержка видео : -40 мс.
Размер потока : 487 Мбайт (11%)
Язык : English
Default : Да
Forced : Нет

Меню
00:00:00.000 : :01. THOMPSON TWINS - Doctor Doctor
00:04:11.400 : :02. E.L.O. - So Serious
00:06:54.320 : :03. MODERN TALKING - Brother Louie
00:10:25.640 : :04. KYLIE MINOGUE - The Locomotion
00:13:30.160 : :05. RICK ASTLEY - Take Me To Your Heart
00:16:52.040 : :06. BANANARAMA - Love In The First Degree
00:20:11.760 : :07. DIVINE - Shake It Up
00:23:16.680 : :08. YAZOO - Don't Go
00:26:00.560 : :09. LONDON BOYS - Harlem Desire
00:29:38.600 : :10. C.C.CATCH - Heartbreak Hotel
00:33:08.920 : :11. DEBUT DE SOIREE - Nuit De Folie
00:37:02.400 : :12. HAZELL DEAN - Who's Leaving Who
00:40:38.160 : :13. STATUS QUO - In The Army Now
00:44:25.200 : :14. ROBIN BECK - First Time
00:47:37.760 : :15. NEW ORDER - Blue Monday
00:51:38.360 : :16. GEORGE HARRISON - Got My Mind Set On You
00:55:25.440 : :17. POINTER SISTERS - Jump For My Love
00:59:20.640 : :18. WHAM - Club Tropicana
01:02:49.120 : :19. CUTTING CREW - (I Just) Died in Your Arms
01:07:09.920 : :20. DIANA ROSS - Chain Reaction
01:10:51.560 : :21. BLUE SYSTEM - Under My Skin
01:14:20.080 : :22. SANDRA - Hi Hi Hi
01:17:45.480 : :23. MURRAY HEAD - One Night In Bangkok
01:21:36.640 : :24. ROSE LAURENS - Africa
01:24:55.640 : :25. DEAD OR ALIVE - You Spin Round (Like A Record)
01:28:01.760 : :26. KIM WILDE - You Keep Me Hanging On
01:32:01.440 : :27. BAD BOYS BLUE - Come Back And Stay
01:36:06.040 : :28. BOBBY McFERRIN - Don't Worry Be Happy
01:39:52.120 : :29. ERYTHMICS - Here Comes The Rain Again
01:44:27.280 : :30. PET SHOP BOYS - Heart
01:48:43.360 : :31. PROPAGANDA - Dr. Mabuse
01:52:43.200 : :32. THE HOOTERS - All You Zombies
01:56:58.480 : :33. EDELWEISS - Bring Me Edelweis
02:00:38.880 : :34. SABRINA - Boys
02:04:14.120 : :35. MIDNIGHT OIL - Beds Are Burning
02:08:27.560 : :36. LIZA MINELLI - Losing My Mine
02:12:29.240 : :37. THE TWINS - Love System
02:15:48.800 : :38. WHITNEY HOUSTON - I Wanna Dance With Somebody
02:20:29.040 : :39. DAVID BOWIE - China Girl
02:24:16.040 : :40. OFRA HAZZA - Im Nin Alu
02:27:39.840 : :41. MILLI VANILLI - Girl I'm Gonna Miss You
Various.Artists.80s.All.In.One.Vol.1-7.AVC.DVDRip.torrent
 СЕРЕБРЯНАЯ РАЗДАЧА! СКАЧАННОЕ ЗАСЧИТЫВАЕТСЯ ТОЛЬКО НАПОЛОВИНУ! 
Вечный
Трекер: Зарегистрирован

magnet ссылка

 


Скачать .torrent

149 KB

Статус: проверено (by Cherepah в 16-Мар-19 20:25)
Зарегистрирован: 16-Мар-19 19:32
Скачан: 34 раза
Размер: 29.72 GB | 
Поблагодарили:
Скачать VA - 80's All In One Vol.01-07 [2004-2011, Pop, Disco, Rock, DVDRip-AVC] торрент
 


Похожие раздачи

andreypplk

post 16-Мар-19 21:03 (спустя 1 час 30 минут)

Классный сборник может и найдётся то чего у меня нету а у меня более 1500 клипов только они все отдельными файлами

Текущее время: 25-Май 04:48

Часовой пояс: GMT + 3



Вы не можете начинать темы
Вы не можете отвечать на сообщения
Вы не можете редактировать свои сообщения
Вы не можете удалять свои сообщения
Вы не можете голосовать в опросах
Вы не можете прикреплять файлы к сообщениям
Вы не можете скачивать файлы