Loading...
Error
 

Скачать торрент (Heavy Metal) VA - A Tribute to Judas Priest (Metal Hammer) - 2019 [FLAC, image +.cue, lossless]

 
Автор Сообщение

trygg

post 17-Мар-19 13:15


VA - A Tribute to Judas Priest (Metal Hammer)


pic
Год издания: 2019
Страна: International pic
Жанр: Heavy Metal
Продолжительность: 00:39:40
Лейбл издания: Metal Hammer
Страна-выпуска диска: EU pic
Номер по каталогу: n/a
Формат: FLAC
Битрейт аудио: Lossless
Тип рипа: image +.cue
Наличие сканов в содержимом раздачи: да

pic
Трэклист
pic
01. Arch Enemy - Breaking the Law (2:20)
02. Sabaton - All Guns Blazing (4:00)
03. Powerwolf - Night Crawler (5:44)
04. Katatonia - Night Comes Down (4:13)
05. Huntress - Running Wild (2:37)
06. Blind Guardian - Beyond the Realms of Death (7:04)
07. Kreator - Grinder (3:59)
08. Death - Painkiller (6:04)
09. Primal Fear - Metal Gods (3:39)

pic
Лог создания рипа

Код:

Exact Audio Copy V1.3 from 2. September 2016

EAC extraction logfile from 14. March 2019, 16:18

Various Artists / A Tribute to Judas Priest

Used drive  : HP      DVD Writer 1170d   Adapter: 1  ID: 1

Read mode               : Secure
Utilize accurate stream : Yes
Defeat audio cache      : Yes
Make use of C2 pointers : No

Read offset correction                      : 6
Overread into Lead-In and Lead-Out          : No
Fill up missing offset samples with silence : Yes
Delete leading and trailing silent blocks   : No
Null samples used in CRC calculations       : Yes
Used interface                              : Native Win32 interface for Win NT & 2000

Used output format              : User Defined Encoder
Selected bitrate                : 1024 kBit/s
Quality                         : High
Add ID3 tag                     : No
Command line compressor         : C:\Program Files (x86)\Exact Audio Copy\Flac\flac.exe
Additional command line options : -V -8 -T "Date=%year%" -T "Genre=%genre%" %source%

TOC of the extracted CD

     Track |   Start  |  Length  | Start sector | End sector
    ---------------------------------------------------------
        1  |  0:00.00 |  2:20.13 |         0    |    10512
        2  |  2:20.13 |  4:00.16 |     10513    |    28528
        3  |  6:20.29 |  5:44.08 |     28529    |    54336
        4  | 12:04.37 |  4:12.49 |     54337    |    73285
        5  | 16:17.11 |  2:37.29 |     73286    |    85089
        6  | 18:54.40 |  7:03.53 |     85090    |   116867
        7  | 25:58.18 |  3:58.55 |    116868    |   134772
        8  | 29:56.73 |  6:04.03 |    134773    |   162075
        9  | 36:01.01 |  3:38.39 |    162076    |   178464

Range status and errors

Selected range

     Filename C:\EAC\Various Artists - A Tribute to Judas Priest.wav

     Peak level 100.0 %
     Extraction speed 6.6 X
     Range quality 100.0 %
     Test CRC 87555923
     Copy CRC 87555923
     Copy OK

No errors occurred

AccurateRip summary

Track  1  not present in database
Track  2  not present in database
Track  3  not present in database
Track  4  not present in database
Track  5  not present in database
Track  6  not present in database
Track  7  not present in database
Track  8  not present in database
Track  9  not present in database

None of the tracks are present in the AccurateRip database

End of status report
Индексная карта (non-compilant .cue)

Код:

REM DATE 2019
REM DISCID 7A094B09
REM COMMENT "ExactAudioCopy v1.3"
PERFORMER "Various Artists"
TITLE "A Tribute to Judas Priest"
FILE "Various Artists - A Tribute to Judas Priest.flac" WAVE
  TRACK 01 AUDIO
    TITLE "Breaking the Law"
    PERFORMER "Arch Enemy"
    INDEX 01 00:00:00
  TRACK 02 AUDIO
    TITLE "All Guns Blazing"
    PERFORMER "Sabaton"
    INDEX 00 02:18:13
    INDEX 01 02:20:13
  TRACK 03 AUDIO
    TITLE "Night Crawler"
    PERFORMER "Powerwolf"
    INDEX 00 06:18:29
    INDEX 01 06:20:29
  TRACK 04 AUDIO
    TITLE "Night Comes Down"
    PERFORMER "Katatonia"
    INDEX 00 12:02:37
    INDEX 01 12:04:37
  TRACK 05 AUDIO
    TITLE "Running Wild"
    PERFORMER "Huntress"
    INDEX 00 16:15:11
    INDEX 01 16:17:11
  TRACK 06 AUDIO
    TITLE "Beyond the Realms of Death"
    PERFORMER "Blind Guardian"
    INDEX 00 18:52:40
    INDEX 01 18:54:40
  TRACK 07 AUDIO
    TITLE "Grinder"
    PERFORMER "Kreator"
    INDEX 00 25:56:18
    INDEX 01 25:58:18
  TRACK 08 AUDIO
    TITLE "Painkiller"
    PERFORMER "Death"
    INDEX 00 29:54:73
    INDEX 01 29:56:73
  TRACK 09 AUDIO
    TITLE "Metal Gods"
    PERFORMER "Primal Fear"
    INDEX 00 35:59:01
    INDEX 01 36:01:01


pic
pic
VA - A Tribute to Judas Priest (Metal Hammer) (2019) Lossless.torrent
Трекер: Зарегистрирован

magnet ссылка

 


Скачать .torrent

14 KB

Статус: проверено (by Cherepah в 17-Мар-19 13:20)
Зарегистрирован: 17-Мар-19 13:15
Скачан: 26 раз
Размер: 298 MB | 
Поблагодарили:
Скачать (Heavy Metal) VA - A Tribute to Judas Priest (Metal Hammer) - 2019 [FLAC, image +.cue, lossless] торрент
 


Похожие раздачи

Текущее время: 25-Май 04:17

Часовой пояс: GMT + 3



Вы не можете начинать темы
Вы не можете отвечать на сообщения
Вы не можете редактировать свои сообщения
Вы не можете удалять свои сообщения
Вы не можете голосовать в опросах
Вы не можете прикреплять файлы к сообщениям
Вы не можете скачивать файлы