Loading...
Error
 

Скачать торрент Dance Hits 90`s - Retro Dance Party [2010-2013, Dance, Eurodance, Techno, Pop, DVDRip-AVC]

 
Автор Сообщение

Skywalker007

post 17-Мар-19 14:34

pic
Dance Hits 90`s - Retro Dance Party

Год выпуска: 2010-2013
Страна: Россия, Private Collection
Жанр: Dance, Eurodance, Techno, Pop
Продолжительность: 02:50:21 + 02:46:07 + 02:50:22 + 02:49:46 + 02:44:34 + 02:47:17 + 02:50:15 + 02:47:14 + 02:43:22
Описание: Коллекция музыкальных клипов.
Трэклисты дисков Volume 01-03
Disc One:

01. Anticappella feat. MC Fixx It - Move Your body
02. Centory - Point Of No Return
03. MC Sar & The Real McCoy - Automatic Lover
04. B.G. The Prince Of Rap - The Colour Of My Dreams
05. Fun Factory - Take Your Chance
06. Magic Affair - In The Middle Of THe Night
07. Pharao - I Show You Secrets
08. Cappella - U And Me
09. 2 Unlimited - Real Things
10. Dr Alban - It`s My Life
11. E-Type - Set The World On Fire
12. Snap - Rythm Is A Dancer
13. U96 - Love Religion
14. Imperio - Quo Vadis
15. La Bouche - Be My Lover
16. Masterboy - Feel The Heat Of The Night
17. Mr. President - Up & Away
18. Activate - Save Me
19. 2 Brothers On The 4th Floor - Dreams
20. Corona - Rhythm Of The Night
21. Captain Jack - Captain Jack
22. Captain Hollywood Project - Axel F
23. Technotronic - Move It to the Rhythm
24. Culture Beat - Crying In The Rain
25. C & C Music Factory - Here We Go
26. Haddaway - Life
27. DJ Bobo - Love Is All Around
28. Jam And Spoon feat Plavka - Right In The Night
29. Maxx - No More
30. Scooter - Weekend!
31. Sash - Adelante!
32. East 17 - It`s Alright
33. Pet Shop Boys - Paninaro
34. Ice Mc feat. Alexia - Take Away The Colour
35. Loft - Love Is Magic
36. Twenty 4 Seven - We Are The World
37. Reel 2 Real - Can You Feel It
38. KLF - What Time Is Love
39. Blank & Jones - Catch
40. CB MIlton - I`ts A Loving Thing
41. Mo-Do - Super Gut
42. Scatman John - Scatman
43. E-Rotic - Megamix
44. Ace Of Base - Beautiful Life
45. Solid Base - I like it

Disc Two:

01. Ice MC - Think About The Way
02. Culture Beat - Mr. Vain
03. E-Type - This Is The Way
04. Haddaway - What Is Love
05. Centory - The Spirit
06. Cappella - Move It Up
07. Captain Jack - Little Boy
08. Dr Alban - Feel The Rhythm
09. Imperio - Atlantis
10. Captain Hollywood Project - Impossible
11. 2 Unlimited - Let The Beat Control Your Body
12. Maxx - Get A Way
13. B.G. The Prince Of Rap - Can`t Love You
14. MC Sar & The Real McCoy - Run Away
15. Snap - The Power
16. Masterboy - I Got To Give It Up
17. Scooter - How Much Is The Fish
18. U96 - Das Boot
19. Magic Affair - Fly Away
20. C & C Music Factory - Gonna Make You Sweat
21. Technotronic - Hey Yoh, Here We Go
22. East 17 - Let It Rain
23. KLF - Last Train To Trancentral
24. 2 Brothers On The 4th Floor - Fly
25. DJ Bobo - Take Control
26. Fun Factory - Pain
27. General Base - Base Of Love
28. La Bouche - S.O.S.
29. Loft - Summer Summer Summer
30. Basic Element - The Promise Man
31. Mr. President - I` ll Follow The Sun
32. Aqua - Barbie Girl
33. Army Of Lovers - Israelism
34. Sash - Ecuador
35. Solid Base - You Never Know
36. Lil Suzy - When I Fall In Love
37. Corona - Try Me Out
38. Pandora - Trust Me
39. Mo-Do - Eins, Zwei, Polizei
40. Pharao - There Is A Star
41. La Strada - Zapisane W Niebie
42. Capital Sound - Higher Love
43. The Soundlovers - Run Away
44. Scatman John - Scatmans World
45. Zhi-Vago - Dreamer

Disc Three:

01. N-Trance - Electronic Pleasure
02. Cappella - U Got 2 Let The Music
03. E-Type - I Just Wanna Be With You
04. Centory - Take It To The Limit
05. Full Speed - Star
06. Culture Beat - Got To Get It
07. Magic Affair - Omen III
08. 2 Brothers On The 4th Floor - Fairytales
09. La Cream - You
10. Captain Jack - Dream A Dream
11. Dr Alban - No Coke
12. Snap - Ooops Up
13. C & C Music Factory - Things That Make You Go Hmmmmm
14. Technotronic - Get Up
15. Heath Hunter The Pleasure Company - Revolution In Paradise
16. Haddaway - Rock My Heart
17. DJ Bobo - Freedom
18. S.A.Y. Feat. Pete D. Moore - Music Takes You Higher
19. Mc Sar & Real McCoy - Another Night
20. Bass Bumpers - Good Fun
21. 2 Unlimited - No Limit
22. La Bouche - You Won`t Forget Me
23. Masterboy - Everybody Needs Somebody
24. Sound Lovers - Walking
25. Corona - The Power Of Love
26. Jam And Spoon Feat. Plavka - Fine Me Odyssey To Anyoona
27. KLF - 3 A.M Eternal
28. Ice MC - Scream
29. Captain Hollywood - Only With You
30. Army Of Lovers - Sexual Revolution
31. Loft - Don`t Stop Me Now
32. Decadance - Save My Soul
33. Mr. President - Gonna Get Along
34. Twenty 4 Seven - Take Me Away
35. Reel 2 Real ft Mad Stuntman - I Like To Move It
36. Imperio - Cyberdream
37. Intermission - Piece Of My Heart
38. Ace Of Base - Never Gonna Say I`m Sorry
39. East 17 - Thunder
40. Pharao - Temple Of Love
41. Scooter - Nessaja !
42. Rednex - Cotton Eye Joe
43. Brooklyn Bounce - Canda
44. Sash - Mysterious Times
45. Vengaboys - We Like To Party
Трэклисты дисков Volume 04-06
Disc Four:

01. Antiloop - In My Mind
02. N-Trance - Turn Up The Power
03. Magic Affair - Give Me All Your Love
04. Bass Bumpers - Good Fun
05. MC Erik & Barbara - U Can`t Stop
06. Rednex - The Way I Mate
07. E-Type - Here I Go Again
08. DJ Bobo - Let The Dream Come True
09. Haddaway - Fly Away
10. MC Sar & The Real McCoy - Love And Devotion
11. Cappella - Move On Baby
12. MC Hammer - U Can`t Touch This
13. Technotronic feat. D.O.N.S. - Pump Up The Jam
14. Masterboy - Show Me Colours
15. Me & My - Dub I Dub
16. Scooter - Move Your Ass!
17. Leila K - Electric
18. Taboo - I Dream Of You Tonight
19. Mo-Do - Gema Tanzen
20. 2 Brothers On The 4th Floor - The Sun Will Be Shining
21. Snap - Eternity
22. Captain Jack - Drill Instructor
23. Captain Hollywood Project - The Way Love Is
24. Midi Maxi & Efti - Ragga Steady
25. Zoo Inc. - Lay Down
26. Darkness - In My Dreams
27. Culture Beat - Anything
28. 2 Unlimited - Here I Go
29. Lipstick - Im A Raver
30. Dune - I Can
31. Nightcrawlers - Push The Feeling On
32. La Bouche - Sweet Dreams
33. Loft - Hold On
34. Soultans - Can`t Take My Hands Off You
35. Army Of Lovers - La Plage De Saint Tropez
36. Dr. Alban - Look Who`s Talking
37. Ice Mc - It`s A Rainy Day
38. Sin With Sebastian - Shut Up
39. Solid Base - Come`n Get Me
40. Corona - Baby Baby
41. Clock - Everybody
42. Sound Lovers - People
43. Vengaboys - Boom, Boom, Boom, Boom
44. Mr. President - I Give You My Heart
45. Neneh Cherry & Youssou N`Dour - 7 Seconds

Disc Five:

01. Ace Of Base - Happy Nation
02. MC Erik & Barbara - It's Your Day
03. Cappella - U Got 2 Know
04. Captain Hollywood Project - Flying High
05. Haddaway - Who Do You Love
06. 2 Unlimited - Workaholic
07. 2 Brothers On The 4th Floor - Let Me Be Free
08. Snap - The Colour Of Love
09. Magic Affair - Night Of The Raven
10. Culture Beat - Adelante
11. Highland - Bella Stella
12. E-Type - Calling Your Name
13. Fun Factory - Close To You
14. Real McCoy - Its on You 99
15. Captain Jack - Iko Iko
16. Vengaboys - We Are Going To Ibiza
17. Loona - Bailando
18. Ice MC - Easy
19. Mr.President - 4 On The Floor
20. DJ Bobo - Keep On Dancing
21. Masterboy - Is This The Love
22. T.H. Express - Missing In The Rain
23. Dr Alban - Sing Hallelujah
24. Army Of Lovers - Crucified
25. Aqua - Doctor Jones
26. Me & My - Lion Eddie
27. Corona - I Don't Wanna Be A Star
28. Jacynthe - This Is The Night
29. Sash - Move Mania
30. Scooter - I Was Made For Lovin` You
31. J.K. - You And I
32. Gala - Freed From Desire
33. Solid Base - Ticket To Fly
34. Cymurai feat.Thea Austin - Magic Touch
35. C-Block - Keep Movin'
36. E-Rotic - Help Me Doctor Dick
37. Patric - Love Me
38. Whigfield - No Tears To Cry
39. Club Factory feat. Max P - I Think I Wanna Rock
40. Amadin - Alrabaiye
41. Midi, Maxi & Efti - Bad Bad Boys
42. Capital Sound - In The Night
43. Critical Mass - Burning Love
44. Sqeezer - Blue Jeans
45. La Bouche - A Moment Of Love

Disc Six:

01. Culture Beat - Inside Out
02. DJ Bobo - There Is A Party
03. Mr. President - Coco Jamboo
04. MC Erik & Barbara - Save The Jungle
05. Snap - Rame
06. Dr. Alban - Born In Africa
07. 2 Brothers On The 4th Floor - Wonderful Feeling
08. Reel 2 Real feat. The Mad Stuntman - Raise Your Hands
09. 2 Unlimited - Jump For Joy
10. Masterboy - Generation Of Love
11. Bobby Summer - Jabba Jabba
12. Dance 2 Trance - Power Of American Natives
13. E-Type - Angels Crying
14. Aqua - My Oh My
15. Captain Hollywood Project - More And More
16. Haddaway - I Miss You
17. Me & My - Let The Love Go On
18. Ace Of Base - All That She Wants
19. Clock - Whoomph There It Is
20. Solid Base - Sunny Holiday
21. Brooklyn Bounce - Take A Ride
22. 2 Fabiola - Play This Song
23. Ice Mc feat. Yasmine - Take Away The Colour
24. Army Of Lovers - Obsession
25. Prince Ital Joe feat. Marky Mark - United
26. Cappella - I Need Your Love
27. Corona - Walking On Music
28. 2 For Good - You And Me
29. S.E.X. Appeal Feat. Lyane Leigh - Manga Maniac
30. T-Spoon - A Part Of My Life
31. AB Logic - Get Up Move Boy Move
32. The Prodigy - No Good
33. Scooter - We Are The Greatest
34. Music Instructor - Get Freaky
35. Intermission feat. Lori Glori - Six Days
36. Real McCoy - One More Time
37. La Cream - Say Goodbye
38. Texture - Power Of Love
39. E-Rotic - Max Don't Have Sex With Your Ex
40. Sonic Surfers - Don't You Give It Up
41. DJ Company - Rhythm Of Love
42. Captain Jack - Soldier Soldier
43. Whigfield - Saturday Night
44. Double You - Run to Me
45. Zhi-Vago - Celebrate The Love
Трэклисты дисков Volume 07-09
Disc Seven:

01. Down Low - We Do It Like That
02. Haddaway - What About Me
03. Mr. President - Give A Little Love
04. Culture Beat - Take Me Away
05. Pandora - Don't You Know
06. Captain Jack - Get Up!
07. The Shamen - Comin On
08. Masterboy - Mister Feeling
09. Imperio - Wings Of Love
10. Clock - Axel F
11. 2 Unlimited - Twilight Zone
12. 2 Brothers On The 4th Floor - Never Alone
13. Cappella - Tell Me The Way
14. Snap - Mary Had A Little Boy
15. Ace Of Base - The Sign
16. DJ Bobo - Everybody
17. Technotronic - Money Makes The World Do Round
18. Sqeezer - Scandy Randy
19. Adam feat. Amy - Zombie
20. Scooter - Rebel Yell
21. Maduar - Space
22. Army Of Lovers - I Am
23. Dr. Alban - Long Time Ago
24. Vengaboys - Uncle John From Jamaica
25. No Mercy - Where Do You Go
26. Music Instructor - Super Sonic
27. Bomfunk MC`s - Freestyler
28. SASH - Stay
29. Alexia - Number One
30. Reel 2 Real - Go On Move
31. C-Block - So Strung Out
32. Soultans - I Heard It Through The Grapevine
33. Motiv 8 - Rocking For Myself
34. Melodie MC - Dum Da Dum
35. B.G. The Prince Of Rap - The Power Of Rhythm
36. Basic Element - The Ride
37. Ab Logic - The Hitman
38. Odyssey - Move Your Body
39. Scatman John - Everybody Jam
40. Yaki Da - I Saw You Dancing
41. Aqua - Lollipop
42. Me & My - Baby Boy
43. Sin With Sebastian - Golden Boy
44. Ice MC - People
45. Shabba Ranks - Mr. Loverman

Disc Eight:

01. Army Of Lovers - Lit De Parade
02. Heath Hunter - Walking On Clouds
03. Yaki Da - Pride Of Africa
04. Dr. Alban - This Time I'm Free
05. Ace Of Base - Living In Danger
06. Whigfield - Think Of You
07. Culture Beat - Walk The Same Line
08. Mr. President - Jojo Action
09. Loft - Mallorca
10. Pharao - World Of Magic
11. 2 Unlimited - Magic Friend
12. DJ Bobo - Pray
13. Sequential One - I Wanna Make You
14. Rednex - Old Pop In An Oak
15. C-Block - Summertime
16. Black Box - Strike It Up
17. Vengaboys - Shalala Lala
18. B.G. The Prince Of Rap - Stomp
19. Fun Factory - Doh Wah Diddy
20. Clubzone - Hands Up
21. Clock - Holding On 4 U
22. Cosmic Base Feat. TAMC - See The Light
23. 3-O-Matic - Success
24. Amber - This Is Your Night
25. La Bouche - Bolingo
26. Snap - The Cult Of Snap
27. E-Type - Princess Of Egypt
28. Reel 2 Real - Are You Ready For Some More
29. 2 Brothers On The 4th Floor - Living In Cyberspace
30. Le Click - Call Me
31. Masterboy - Land Of Dreaming
32. U 96 - Club Bizarre
33. Magic Affair - The Rhythm Makes You Wanna Dance
34. East 17 - House Of Love
35. Scooter - Fire
36. Herbie - Right Type Of Mood
37. Stella Getz - Ta-Di-Di-Boom
38. S.E.X. Appeal - Voulez Vous Coucher Avec Moi
39. Imperio - Nostra Culpa
40. Daze - Superhero
41. Jinny - Wanna Be With You
42. Prince Ital Joe feat. Marky Mark - Happy People
43. Captain Jack - Centerfold
44. Nomansland - Fantasy
45. KLF - Justified & Ancient

Disc Nine:

01. Ace Of Base - Wheel Of Fortune
02. Stella Getz - Dr. Love
03. B.G. The Prince Of Rap - Can We Get Enough
04. Look Twice - Feel The Night
05. Matrix - Can You Feel It
06. Scooter - The Logica!
07. Snap - Gimme A Thrill
08. La Bouche - I Love To Love
09. Dr. Alban - U And Mi
10. 2 Brothers On The 4th Floor - One Day
11. Culture Beat - World In Your Hands
12. Cappella - Be My Baby
13. Aqua - Roses Are Red
14. Pandora - A Little Bit
15. U 96 - Seven Wonders
16. Club House - Light My Fire
17. General Base - Poison
18. Amos - Let Love Shine
19. Melodie MC - I Wanna Dance
20. Captain Hollywood Project - Find Another Way
21. E-Rotic - Sex On The Phone
22. Euphoric - Do You Like
23. Janal - You Gotta Set Me Free
24. Maxx - You Can Get It
25. Magic Affair - Bohemian Rapsody
26. 2 Fabiola - Freak Out
27. 2 Unlimited - Get Ready For This
28. Culture Shock - Satisfy The Groove
29. The Shamen - Phorever People
30. Felix - It Will Make Me Crazy
31. Major T - Keep The Frequency Clear
32. Eric XL Singleton Ft. Cool Cut - Please Let Me Know
33. C-Block - Time Is Tickin Away
34. Souladelic - I Want Your Body
35. Outta Control - One Of Us
36. Imperio - Veni Vidi Vici
37. Ice Mc - Music For Money
38. Captain Jack - Together & Forever
39. Solid Base - This Is How We Do It
40. DJ Bobo - Respect Yourself
41. Masterboy - Porque Te Vas
42. Fun Factory - I Wanna Be With You
43. Playahitty - The Summer Is Magic
44. No Mercy - Please Don't Go
45. Down Low - Johnny B.

Качество: DVDRip-AVC (сохранены оригинальные чаптеры как на DVD)
Формат: MKV
Видео кодек: AVC
Аудио кодек: FLAC
Видео: PAL 4:3 (720x540), 25.000 fps, MPEG-4 AVC, 2580 Кбит/с, 0.265 bit/pixel
Аудио: English (FLAC, 48KHz, 2 ch, ~1057 Кбит/с)
Скриншоты
Media Info 01
Формат : Matroska
Версия формата : Version 4 / Version 2
Размер файла : 4,31 Гбайт
Продолжительность : 2 ч. 50 м.
Режим общего битрейта : Переменный
Общий поток : 3625 Кбит/сек
Название фильма : Dance Hits 90`s - Retro Dance Party (Disc One)
Дата кодирования : UTC 2019-03-08 04:51:15
Программа кодирования : mkvmerge v7.6.0 ('Garden of Dreams') 64bit built on Feb 8 2015 13:04:34
Библиотека кодирования : libebml v1.3.1 + libmatroska v1.4.2

Видео
Идентификатор : 1
Формат : AVC
Формат/Информация : Advanced Video Codec
Профиль формата : [email protected]
Параметр CABAC формата : Да
Параметр ReFrames формата : 2 кадра
Идентификатор кодека : V_MPEG4/ISO/AVC
Продолжительность : 2 ч. 50 м.
Битрейт : 2580 Кбит/сек
Ширина : 720 пикселей
Высота : 540 пикселей
Соотношение сторон : 4:3
Режим частоты кадров : Постоянный
Частота кадров : 25,000 кадров/сек
Стандарт вещания : PAL
Цветовое пространство : YUV
Субдискретизация насыщенности : 4:2:0
Битовая глубина : 8 бит
Тип развёртки : MBAFF
Метод сохранения типа развёртки : Чередующиеся поля
Порядок развёртки : Верхнее поле первое
Бит/(Пиксели*Кадры) : 0.265
Размер потока : 3,05 Гбайт (71%)
Библиотека кодирования : x264 core 144 r2525
Настройки программы : cabac=1 / ref=2 / deblock=1:0:0 / analyse=0x1:0x131 / me=umh / subme=9 / psy=1 / psy_rd=1.00:0.10 / mixed_ref=0 / me_range=64 / chroma_me=1 / trellis=1 / 8x8dct=0 / cqm=0 / deadzone=21,11 / fast_pskip=1 / chroma_qp_offset=-3 / threads=12 / lookahead_threads=1 / sliced_threads=0 / nr=0 / decimate=1 / interlaced=tff / bluray_compat=0 / constrained_intra=0 / bframes=0 / weightp=0 / keyint=250 / keyint_min=25 / scenecut=0 / intra_refresh=0 / rc_lookahead=0 / rc=2pass / mbtree=0 / bitrate=2580 / ratetol=1.0 / qcomp=0.60 / qpmin=10 / qpmax=69 / qpstep=4 / cplxblur=20.0 / qblur=0.5 / vbv_maxrate=2580 / vbv_bufsize=14000 / nal_hrd=none / filler=0 / ip_ratio=1.40 / aq=0
Default : Да
Forced : Нет
Цветовой диапазон : Limited

Аудио
Идентификатор : 2
Формат : FLAC
Формат/Информация : Free Lossless Audio Codec
Идентификатор кодека : A_FLAC
Продолжительность : 2 ч. 50 м.
Вид битрейта : Переменный
Битрейт : 1057 Кбит/сек
Каналы : 2 канала
Расположение каналов : Front: L R
Частота : 48,0 КГц
Частота кадров : 10,417 кадров/сек (4608 spf)
Битовая глубина : 16 бит
Задержка видео : 2 мс.
Размер потока : 1,26 Гбайт (29%)
Язык : English
Default : Да
Forced : Нет

Меню
00:00:00.000 : :01. Anticappella feat. MC Fixx It - Move Your Body
00:03:25.760 : :02. Centory - Point Of No Return
00:07:32.560 : :03. MC Sar & The Real McCoy - Automatic Lover
00:10:58.080 : :04. B.G. The Prince Of Rap - The Colour Of My Dreams
00:14:55.280 : :05. Fun Factory - Take Your Chance
00:18:10.400 : :06. Magic Affair - In The Middle Of The Night
00:22:14.000 : :07. Pharao - I Show You Secrets
00:26:16.960 : :08. Cappella - U And Me
00:29:28.400 : :09. 2 Unlimited - Real Things
00:33:07.360 : :10. Dr Alban - It`s My Life
00:36:56.920 : :11. E-Type - Set The World On Fire
00:40:43.240 : :12. Snap - Rythm Is A Dancer
00:44:24.360 : :13. U96 - Love Religion
00:47:54.560 : :14. Imperio - Quo Vadis
00:51:51.160 : :15. La Bouche - Be My Lover
00:55:33.960 : :16. Masterboy - Feel The Heat Of The Night
00:59:30.040 : :17. Mr. President - Up & Away
01:03:21.480 : :18. Activate - Save Me
01:06:59.360 : :19. 2 Brothers On The 4th Floor - Dreams
01:10:11.560 : :20. Corona - Rhythm Of The Night
01:13:55.960 : :21. Captain Jack - Captain Jack
01:18:03.640 : :22. Captain Hollywood Project - Axel F
01:20:58.760 : :23. Technotronic - Move It to the Rhythm
01:24:26.880 : :24. Culture Beat - Crying In The Rain
01:28:27.400 : :25. C & C Music Factory - Here We Go
01:34:22.400 : :26. Haddaway - Life
01:38:19.040 : :27. DJ Bobo - Love Is All Around
01:42:26.560 : :28. Jam And Spoon feat Plavka - Right In The Night
01:46:12.080 : :29. Maxx - No More
01:49:58.640 : :30. Scooter - Weekend!
01:53:35.120 : :31. Sash - Adelante!
01:57:19.000 : :32. East 17 - It`s Alright
02:01:54.920 : :33. Pet Shop Boys - Paninaro
02:06:05.800 : :34. Ice Mc feat. Alexia - Take Away The Colour
02:09:40.440 : :35. Loft - Love Is Magic
02:13:25.040 : :36. Twenty 4 Seven - We Are The World
02:16:58.720 : :37. Reel 2 Real - Can You Feel It
02:20:58.240 : :38. KLF - What Time Is Love
02:24:40.600 : :39. Blank & Jones - Catch
02:28:03.880 : :40. CB MIlton - I'ts A Loving Thing
02:32:02.360 : :41. Mo-Do - Super Gut
02:35:39.280 : :42. Scatman John - Scatman
02:39:11.000 : :43. E-Rotic - Megamix
02:43:09.840 : :44. Ace Of Base - Beautiful Life
02:46:51.920 : :45. Solid Base - I Like It
Media Info 02
Формат : Matroska
Версия формата : Version 4 / Version 2
Размер файла : 4,23 Гбайт
Продолжительность : 2 ч. 46 м.
Режим общего битрейта : Переменный
Общий поток : 3648 Кбит/сек
Название фильма : Dance Hits 90`s - Retro Dance Party (Disc Two)
Дата кодирования : UTC 2019-03-09 06:54:36
Программа кодирования : mkvmerge v7.6.0 ('Garden of Dreams') 64bit built on Feb 8 2015 13:04:34
Библиотека кодирования : libebml v1.3.1 + libmatroska v1.4.2

Видео
Идентификатор : 1
Формат : AVC
Формат/Информация : Advanced Video Codec
Профиль формата : [email protected]
Параметр CABAC формата : Да
Параметр ReFrames формата : 2 кадра
Идентификатор кодека : V_MPEG4/ISO/AVC
Продолжительность : 2 ч. 46 м.
Битрейт : 2580 Кбит/сек
Ширина : 720 пикселей
Высота : 540 пикселей
Соотношение сторон : 4:3
Режим частоты кадров : Постоянный
Частота кадров : 25,000 кадров/сек
Стандарт вещания : PAL
Цветовое пространство : YUV
Субдискретизация насыщенности : 4:2:0
Битовая глубина : 8 бит
Тип развёртки : MBAFF
Метод сохранения типа развёртки : Чередующиеся поля
Порядок развёртки : Верхнее поле первое
Бит/(Пиксели*Кадры) : 0.265
Размер потока : 2,98 Гбайт (70%)
Библиотека кодирования : x264 core 144 r2525
Настройки программы : cabac=1 / ref=2 / deblock=1:0:0 / analyse=0x1:0x131 / me=umh / subme=9 / psy=1 / psy_rd=1.00:0.10 / mixed_ref=0 / me_range=64 / chroma_me=1 / trellis=1 / 8x8dct=0 / cqm=0 / deadzone=21,11 / fast_pskip=1 / chroma_qp_offset=-3 / threads=12 / lookahead_threads=1 / sliced_threads=0 / nr=0 / decimate=1 / interlaced=tff / bluray_compat=0 / constrained_intra=0 / bframes=0 / weightp=0 / keyint=250 / keyint_min=25 / scenecut=0 / intra_refresh=0 / rc_lookahead=0 / rc=2pass / mbtree=0 / bitrate=2580 / ratetol=1.0 / qcomp=0.60 / qpmin=10 / qpmax=69 / qpstep=4 / cplxblur=20.0 / qblur=0.5 / vbv_maxrate=2580 / vbv_bufsize=14000 / nal_hrd=none / filler=0 / ip_ratio=1.40 / aq=0
Default : Да
Forced : Нет
Цветовой диапазон : Limited

Аудио
Идентификатор : 2
Формат : FLAC
Формат/Информация : Free Lossless Audio Codec
Идентификатор кодека : A_FLAC
Продолжительность : 2 ч. 46 м.
Вид битрейта : Переменный
Битрейт : 1080 Кбит/сек
Каналы : 2 канала
Расположение каналов : Front: L R
Частота : 48,0 КГц
Частота кадров : 10,417 кадров/сек (4608 spf)
Битовая глубина : 16 бит
Задержка видео : 2 мс.
Размер потока : 1,25 Гбайт (30%)
Язык : English
Default : Да
Forced : Нет

Меню
00:00:00.000 : :01. Ice MC - Think About The Way
00:04:17.080 : :02. Culture Beat - Mr. Vain
00:08:12.720 : :03. E-Type - This Is The Way
00:12:07.680 : :04. Haddaway - What Is Love
00:16:09.280 : :05. Centory - The Spirit
00:20:16.280 : :06. Cappella - Move It Up
00:24:12.720 : :07. Captain Jack - Little Boy
00:28:08.560 : :08. Dr Alban - Feel The Rhythm
00:31:32.920 : :09. Imperio - Atlantis
00:35:27.040 : :10. Captain Hollywood Project - Impossible
00:39:40.040 : :11. 2 Unlimited - Let The Beat Control Your Body
00:43:22.400 : :12. Maxx - Get A Way
00:47:07.200 : :13. B.G. The Prince Of Rap - Can`t Love You
00:51:01.480 : :14. MC Sar & The Real McCoy - Run Away
00:54:10.840 : :15. Snap - The Power
00:58:01.960 : :16. Masterboy - I Got To Give It Up
01:02:02.480 : :17. Scooter - How Much Is The Fish
01:05:49.040 : :18. U96 - Das Boot
01:09:18.640 : :19. Magic Affair - Fly Away
01:12:26.640 : :20. C & C Music Factory - Gonna Make You Sweat
01:16:37.280 : :21. Technotronic - Hey Yoh, Here We Go
01:20:32.280 : :22. East 17 - Let It Rain
01:24:03.520 : :23. KLF - Last Train To Trancentral
01:27:45.280 : :24. 2 Brothers On The 4th Floor - Fly
01:31:10.960 : :25. DJ Bobo - Take Control
01:34:54.800 : :26. Fun Factory - Pain
01:38:45.320 : :27. General Base - Base Of Love
01:42:37.240 : :28. La Bouche - S.O.S.
01:46:25.360 : :29. Loft - Summer Summer Summer
01:49:45.320 : :30. Basic Element - The Promise Man
01:53:53.200 : :31. Mr. President - I' ll Follow The Sun
01:57:13.120 : :32. Aqua - Barbie Girl
02:00:28.200 : :33. Army Of Lovers - Israelism
02:03:53.480 : :34. Sash - Ecuador
02:07:25.680 : :35. Solid Base - You Never Know
02:10:27.320 : :36. Lil Suzy - When I Fall In Love
02:14:20.000 : :37. Corona - Try Me Out
02:17:45.400 : :38. Pandora - Trust Me
02:21:07.960 : :39. Mo-Do - Eins, Zwei, Polizei
02:24:29.400 : :40. Pharao - There Is A Star
02:28:23.760 : :41. La Strada - Zapisane W Niebie
02:31:49.200 : :42. Capital Sound - Higher Love
02:35:28.960 : :43. The Soundlovers - Run Away
02:38:50.640 : :44. Scatman John - Scatmans World
02:42:22.080 : :45. Zhi-Vago - Dreamer
Media Info 03
Формат : Matroska
Версия формата : Version 4 / Version 2
Размер файла : 4,33 Гбайт
Продолжительность : 2 ч. 50 м.
Режим общего битрейта : Переменный
Общий поток : 3636 Кбит/сек
Название фильма : Dance Hits 90`s - Retro Dance Party (Disc Three)
Дата кодирования : UTC 2019-03-10 07:26:07
Программа кодирования : mkvmerge v7.6.0 ('Garden of Dreams') 64bit built on Feb 8 2015 13:04:34
Библиотека кодирования : libebml v1.3.1 + libmatroska v1.4.2

Видео
Идентификатор : 1
Формат : AVC
Формат/Информация : Advanced Video Codec
Профиль формата : [email protected]
Параметр CABAC формата : Да
Параметр ReFrames формата : 2 кадра
Идентификатор кодека : V_MPEG4/ISO/AVC
Продолжительность : 2 ч. 50 м.
Битрейт : 2580 Кбит/сек
Ширина : 720 пикселей
Высота : 540 пикселей
Соотношение сторон : 4:3
Режим частоты кадров : Постоянный
Частота кадров : 25,000 кадров/сек
Стандарт вещания : PAL
Цветовое пространство : YUV
Субдискретизация насыщенности : 4:2:0
Битовая глубина : 8 бит
Тип развёртки : MBAFF
Метод сохранения типа развёртки : Чередующиеся поля
Порядок развёртки : Верхнее поле первое
Бит/(Пиксели*Кадры) : 0.265
Размер потока : 3,05 Гбайт (71%)
Библиотека кодирования : x264 core 144 r2525
Настройки программы : cabac=1 / ref=2 / deblock=1:0:0 / analyse=0x1:0x131 / me=umh / subme=9 / psy=1 / psy_rd=1.00:0.10 / mixed_ref=0 / me_range=64 / chroma_me=1 / trellis=1 / 8x8dct=0 / cqm=0 / deadzone=21,11 / fast_pskip=1 / chroma_qp_offset=-3 / threads=12 / lookahead_threads=1 / sliced_threads=0 / nr=0 / decimate=1 / interlaced=tff / bluray_compat=0 / constrained_intra=0 / bframes=0 / weightp=0 / keyint=250 / keyint_min=25 / scenecut=0 / intra_refresh=0 / rc_lookahead=0 / rc=2pass / mbtree=0 / bitrate=2580 / ratetol=1.0 / qcomp=0.60 / qpmin=10 / qpmax=69 / qpstep=4 / cplxblur=20.0 / qblur=0.5 / vbv_maxrate=2580 / vbv_bufsize=14000 / nal_hrd=none / filler=0 / ip_ratio=1.40 / aq=0
Default : Да
Forced : Нет
Цветовой диапазон : Limited

Аудио
Идентификатор : 2
Формат : FLAC
Формат/Информация : Free Lossless Audio Codec
Идентификатор кодека : A_FLAC
Продолжительность : 2 ч. 50 м.
Вид битрейта : Переменный
Битрейт : 1070 Кбит/сек
Каналы : 2 канала
Расположение каналов : Front: L R
Частота : 48,0 КГц
Частота кадров : 10,417 кадров/сек (4608 spf)
Битовая глубина : 16 бит
Задержка видео : 2 мс.
Размер потока : 1,27 Гбайт (29%)
Язык : English
Default : Да
Forced : Нет

Меню
00:00:00.000 : :01. N-Trance - Electronic Pleasure
00:04:08.280 : :02. Cappella - U Got 2 Let The Music
00:07:45.320 : :03. E-Type - I Just Wanna Be With You
00:11:38.120 : :04. Centory - Take It To The Limit
00:15:39.880 : :05. Full Speed - Star
00:19:14.120 : :06. Culture Beat - Got To Get It
00:23:05.960 : :07. Magic Affair - Omen III
00:27:04.040 : :08. 2 Brothers On The 4th Floor - Fairytales
00:30:34.920 : :09. La Cream - You
00:33:27.680 : :10. Captain Jack - Dream A Dream
00:37:14.280 : :11. Dr Alban - No Coke
00:40:45.800 : :12. Snap - Ooops Up
00:44:51.320 : :13. C & C Music Factory - Things That Make You Go Hmmmmm
00:49:48.560 : :14. Technotronic - Get Up
00:53:14.320 : :15. Heath Hunter The Pleasure Company - Revolution In Paradise
00:56:44.400 : :16. Haddaway - Rock My Heart
01:00:42.920 : :17. DJ Bobo - Freedom
01:04:36.720 : :18. S.A.Y. Feat. Pete D. Moore - Music Takes You Higher
01:08:10.960 : :19. Mc Sar & Real McCoy - Another Night
01:12:08.920 : :20. Bass Bumpers - Good Fun
01:15:46.200 : :21. 2 Unlimited - No Limit
01:19:31.640 : :22. La Bouche - You Won`t Forget Me
01:23:33.960 : :23. Masterboy - Everybody Needs Somebody
01:27:33.880 : :24. Sound Lovers - Walking
01:30:50.000 : :25. Corona - The Power Of Love
01:34:57.160 : :26. Jam And Spoon Feat. Plavka - Fine Me Odyssey To Anyoona
01:38:55.960 : :27. KLF - 3 A.M Eternal
01:42:16.960 : :28. Ice MC - Scream
01:46:20.320 : :29. Captain Hollywood - Only With You
01:50:09.800 : :30. Army Of Lovers - Sexual Revolution
01:54:09.680 : :31. Loft - Don't Stop Me Now
01:57:40.640 : :32. Decadance - Save My Soul
02:01:38.080 : :33. Mr. President - Gonna Get Along
02:04:30.000 : :34. Twenty 4 Seven - Take Me Away
02:08:05.000 : :35. Reel 2 Real ft Mad Stuntman - I Like To Move It
02:11:56.760 : :36. Imperio - Cyberdream
02:16:45.520 : :37. Intermission - Piece Of My Heart
02:21:16.400 : :38. Ace Of Base - Never Gonna Say I'm Sorry
02:24:31.280 : :39. East 17 - Thunder
02:28:44.560 : :40. Pharao - Temple Of Love
02:32:28.920 : :41. Scooter - Nessaja !
02:35:57.720 : :42. Rednex - Cotton Eye Joe
02:39:12.360 : :43. Brooklyn Bounce - Canda
02:42:53.120 : :44. Sash - Mysterious Times
02:46:36.640 : :45. Vengaboys - We Like To Party
Media Info 04
Формат : Matroska
Версия формата : Version 4 / Version 2
Размер файла : 4,32 Гбайт
Продолжительность : 2 ч. 49 м.
Режим общего битрейта : Переменный
Общий поток : 3645 Кбит/сек
Название фильма : Dance Hits 90`s - Retro Dance Party (Disc Four)
Дата кодирования : UTC 2019-03-11 03:59:06
Программа кодирования : mkvmerge v7.6.0 ('Garden of Dreams') 64bit built on Feb 8 2015 13:04:34
Библиотека кодирования : libebml v1.3.1 + libmatroska v1.4.2

Видео
Идентификатор : 1
Формат : AVC
Формат/Информация : Advanced Video Codec
Профиль формата : [email protected]
Параметр CABAC формата : Да
Параметр ReFrames формата : 2 кадра
Идентификатор кодека : V_MPEG4/ISO/AVC
Продолжительность : 2 ч. 49 м.
Битрейт : 2580 Кбит/сек
Ширина : 720 пикселей
Высота : 540 пикселей
Соотношение сторон : 4:3
Режим частоты кадров : Постоянный
Частота кадров : 25,000 кадров/сек
Стандарт вещания : PAL
Цветовое пространство : YUV
Субдискретизация насыщенности : 4:2:0
Битовая глубина : 8 бит
Тип развёртки : MBAFF
Метод сохранения типа развёртки : Чередующиеся поля
Порядок развёртки : Верхнее поле первое
Бит/(Пиксели*Кадры) : 0.265
Размер потока : 3,04 Гбайт (70%)
Библиотека кодирования : x264 core 144 r2525
Настройки программы : cabac=1 / ref=2 / deblock=1:0:0 / analyse=0x1:0x131 / me=umh / subme=9 / psy=1 / psy_rd=1.00:0.10 / mixed_ref=0 / me_range=64 / chroma_me=1 / trellis=1 / 8x8dct=0 / cqm=0 / deadzone=21,11 / fast_pskip=1 / chroma_qp_offset=-3 / threads=12 / lookahead_threads=1 / sliced_threads=0 / nr=0 / decimate=1 / interlaced=tff / bluray_compat=0 / constrained_intra=0 / bframes=0 / weightp=0 / keyint=250 / keyint_min=25 / scenecut=0 / intra_refresh=0 / rc_lookahead=0 / rc=2pass / mbtree=0 / bitrate=2580 / ratetol=1.0 / qcomp=0.60 / qpmin=10 / qpmax=69 / qpstep=4 / cplxblur=20.0 / qblur=0.5 / vbv_maxrate=2580 / vbv_bufsize=14000 / nal_hrd=none / filler=0 / ip_ratio=1.40 / aq=0
Default : Да
Forced : Нет
Цветовой диапазон : Limited

Аудио
Идентификатор : 2
Формат : FLAC
Формат/Информация : Free Lossless Audio Codec
Идентификатор кодека : A_FLAC
Продолжительность : 2 ч. 49 м.
Вид битрейта : Переменный
Битрейт : 1077 Кбит/сек
Каналы : 2 канала
Расположение каналов : Front: L R
Частота : 48,0 КГц
Частота кадров : 10,417 кадров/сек (4608 spf)
Битовая глубина : 16 бит
Задержка видео : 2 мс.
Размер потока : 1,28 Гбайт (30%)
Язык : English
Default : Да
Forced : Нет

Меню
00:00:00.000 : :01. Antiloop - In My Mind
00:03:29.200 : :02. N-Trance - Turn Up The Power
00:07:26.760 : :03. Magic Affair - Give Me All Your Love
00:11:33.040 : :04. Bass Bumpers - Good Fun
00:15:30.960 : :05. MC Erik & Barbara - U Can't Stop
00:19:34.600 : :06. Rednex - The Way I Mate
00:23:42.600 : :07. E-Type - Here I Go Again
00:28:12.480 : :08. DJ Bobo - Let The Dream Come True
00:32:11.400 : :09. Haddaway - Fly Away
00:36:18.880 : :10. MC Sar & The Real McCoy - Love And Devotion
00:40:14.600 : :11. Cappella - Move On Baby
00:43:52.720 : :12. MC Hammer - U Can't Touch This
00:48:08.680 : :13. Technotronic feat. D.O.N.S. - Pump Up The Jam
00:50:52.320 : :14. Masterboy - Show Me Colours
00:54:23.920 : :15. Me & My - Dub I Dub
00:57:40.640 : :16. Scooter - Move Your Ass!
01:01:11.160 : :17. Leila K - Electric
01:04:45.440 : :18. Taboo - I Dream Of You Tonight
01:08:37.000 : :19. Mo-Do - Gema Tanzen
01:12:25.880 : :20. 2 Brothers On The 4th Floor - The Sun Will Be Shining
01:15:40.880 : :21. Snap - Eternity
01:19:34.920 : :22. Captain Jack - Drill Instructor
01:23:45.960 : :23. Captain Hollywood Project - The Way Love Is
01:27:19.600 : :24. Midi Maxi & Efti - Ragga Steady
01:30:40.680 : :25. Zoo Inc. - Lay Down
01:34:37.480 : :26. Darkness - In My Dreams
01:38:49.280 : :27. Culture Beat - Anything
01:43:27.120 : :28. 2 Unlimited - Here I Go
01:46:44.720 : :29. Lipstick - I'm A Raver
01:50:30.040 : :30. Dune - I Can
01:54:04.600 : :31. Nightcrawlers - Push The Feeling On
01:58:09.160 : :32. La Bouche - Sweet Dreams
02:01:33.640 : :33. Loft - Hold On
02:05:10.880 : :34. Soultans - Can't Take My Hands Off You
02:09:07.960 : :35. Army Of Lovers - La Plage De Saint Tropez
02:12:39.000 : :36. Dr. Alban - Look Who's Talking
02:15:51.000 : :37. Ice Mc - It's A Rainy Day
02:20:04.960 : :38. Sin With Sebastian - Shut Up
02:23:13.160 : :39. Solid Base - Come'n Get Me
02:27:02.680 : :40. Corona - Baby Baby
02:30:57.840 : :41. Clock - Everybody
02:34:33.560 : :42. Sound Lovers - People
02:37:59.040 : :43. Vengaboys - Boom, Boom, Boom, Boom
02:41:22.440 : :44. Mr. President - I Give You My Heart
02:45:16.880 : :45. Neneh Cherry & Youssou N`Dour - 7 Seconds
Media Info 05
Формат : Matroska
Версия формата : Version 4 / Version 2
Размер файла : 4,22 Гбайт
Продолжительность : 2 ч. 44 м.
Режим общего битрейта : Переменный
Общий поток : 3670 Кбит/сек
Название фильма : Dance Hits 90`s - Retro Dance Party (Disc Five)
Дата кодирования : UTC 2019-03-12 04:47:24
Программа кодирования : mkvmerge v7.6.0 ('Garden of Dreams') 64bit built on Feb 8 2015 13:04:34
Библиотека кодирования : libebml v1.3.1 + libmatroska v1.4.2

Видео
Идентификатор : 1
Формат : AVC
Формат/Информация : Advanced Video Codec
Профиль формата : [email protected]
Параметр CABAC формата : Да
Параметр ReFrames формата : 2 кадра
Идентификатор кодека : V_MPEG4/ISO/AVC
Продолжительность : 2 ч. 44 м.
Битрейт : 2580 Кбит/сек
Ширина : 720 пикселей
Высота : 540 пикселей
Соотношение сторон : 4:3
Режим частоты кадров : Постоянный
Частота кадров : 25,000 кадров/сек
Стандарт вещания : PAL
Цветовое пространство : YUV
Субдискретизация насыщенности : 4:2:0
Битовая глубина : 8 бит
Тип развёртки : MBAFF
Метод сохранения типа развёртки : Чередующиеся поля
Порядок развёртки : Верхнее поле первое
Бит/(Пиксели*Кадры) : 0.265
Размер потока : 2,95 Гбайт (70%)
Библиотека кодирования : x264 core 144 r2525
Настройки программы : cabac=1 / ref=2 / deblock=1:0:0 / analyse=0x1:0x131 / me=umh / subme=9 / psy=1 / psy_rd=1.00:0.10 / mixed_ref=0 / me_range=64 / chroma_me=1 / trellis=1 / 8x8dct=0 / cqm=0 / deadzone=21,11 / fast_pskip=1 / chroma_qp_offset=-3 / threads=12 / lookahead_threads=1 / sliced_threads=0 / nr=0 / decimate=1 / interlaced=tff / bluray_compat=0 / constrained_intra=0 / bframes=0 / weightp=0 / keyint=250 / keyint_min=25 / scenecut=0 / intra_refresh=0 / rc_lookahead=0 / rc=2pass / mbtree=0 / bitrate=2580 / ratetol=1.0 / qcomp=0.60 / qpmin=10 / qpmax=69 / qpstep=4 / cplxblur=20.0 / qblur=0.5 / vbv_maxrate=2580 / vbv_bufsize=14000 / nal_hrd=none / filler=0 / ip_ratio=1.40 / aq=0
Default : Да
Forced : Нет
Цветовой диапазон : Limited

Аудио
Идентификатор : 2
Формат : FLAC
Формат/Информация : Free Lossless Audio Codec
Идентификатор кодека : A_FLAC
Продолжительность : 2 ч. 44 м.
Вид битрейта : Переменный
Битрейт : 1102 Кбит/сек
Каналы : 2 канала
Расположение каналов : Front: L R
Частота : 48,0 КГц
Частота кадров : 10,417 кадров/сек (4608 spf)
Битовая глубина : 16 бит
Задержка видео : 2 мс.
Размер потока : 1,27 Гбайт (30%)
Язык : English
Default : Да
Forced : Нет

Меню
00:00:00.000 : :01. Ace Of Base - Happy Nation
00:03:30.480 : :02. MC Erik & Barbara - It's Your Day
00:07:17.800 : :03. Cappella - U Got 2 Know
00:10:56.120 : :04. Captain Hollywood Project - Flying High
00:14:42.560 : :05. Haddaway - Who Do You Love
00:18:05.760 : :06. 2 Unlimited - Workaholic
00:21:46.080 : :07. 2 Brothers On The 4th Floor - Let Me Be Free
00:25:12.000 : :08. Snap - The Colour Of Love
00:29:24.560 : :09. Magic Affair - Night Of The Raven
00:33:04.080 : :10. Culture Beat - Adelante
00:36:33.080 : :11. Highland - Bella Stella
00:40:26.240 : :12. E-Type - Calling Your Name
00:44:01.360 : :13. Fun Factory - Close To You
00:47:40.760 : :14. Real McCoy - Its on You 99
00:51:14.600 : :15. Captain Jack - Iko Iko
00:54:36.000 : :16. Vengaboys - We Are Going To Ibiza
00:58:15.080 : :17. Loona - Bailando
01:01:52.200 : :18. Ice MC - Easy
01:05:38.960 : :19. Mr.President - 4 On The Floor
01:08:55.040 : :20. DJ Bobo - Keep On Dancing
01:12:26.520 : :21. Masterboy - Is This The Love
01:16:07.880 : :22. T.H. Express - Missing In The Rain
01:19:42.960 : :23. Dr Alban - Sing Hallelujah
01:23:42.080 : :24. Army Of Lovers - Crucified
01:27:16.600 : :25. Aqua - Doctor Jones
01:30:32.440 : :26. Me & My - Lion Eddie
01:33:58.320 : :27. Corona - I Don't Wanna Be A Star
01:37:46.960 : :28. Jacynthe - This Is The Night
01:41:58.720 : :29. Sash - Move Mania
01:45:44.960 : :30. Scooter - I Was Made For Lovin` You
01:49:16.800 : :31. J.K. - You And I
01:52:48.800 : :32. Gala - Freed From Desire
01:56:23.360 : :33. Solid Base - Ticket To Fly
01:59:40.280 : :34. Cymurai feat.Thea Austin - Magic Touch
02:03:34.960 : :35. C-Block - Keep Movin'
02:07:18.480 : :36. E-Rotic - Help Me Doctor Dick
02:10:21.640 : :37. Patric - Love Me
02:14:21.880 : :38. Whigfield - No Tears To Cry
02:18:14.000 : :39. Club Factory feat. Max P - I Think I Wanna Rock
02:21:56.160 : :40. Amadin - Alrabaiye
02:25:47.920 : :41. Midi, Maxi & Efti - Bad Bad Boys
02:29:10.960 : :42. Capital Sound - In The Night
02:32:37.880 : :43. Critical Mass - Burning Love
02:36:41.600 : :44. Sqeezer - Blue Jeans
02:40:27.480 : :45. La Bouche - A Moment Of Love
Media Info 06
Формат : Matroska
Версия формата : Version 4 / Version 2
Размер файла : 4,27 Гбайт
Продолжительность : 2 ч. 47 м.
Режим общего битрейта : Переменный
Общий поток : 3655 Кбит/сек
Название фильма : Dance Hits 90`s - Retro Dance Party (Disc Six)
Дата кодирования : UTC 2019-03-13 04:50:12
Программа кодирования : mkvmerge v7.6.0 ('Garden of Dreams') 64bit built on Feb 8 2015 13:04:34
Библиотека кодирования : libebml v1.3.1 + libmatroska v1.4.2

Видео
Идентификатор : 1
Формат : AVC
Формат/Информация : Advanced Video Codec
Профиль формата : [email protected]
Параметр CABAC формата : Да
Параметр ReFrames формата : 2 кадра
Идентификатор кодека : V_MPEG4/ISO/AVC
Продолжительность : 2 ч. 47 м.
Битрейт : 2580 Кбит/сек
Ширина : 720 пикселей
Высота : 540 пикселей
Соотношение сторон : 4:3
Режим частоты кадров : Постоянный
Частота кадров : 25,000 кадров/сек
Стандарт вещания : PAL
Цветовое пространство : YUV
Субдискретизация насыщенности : 4:2:0
Битовая глубина : 8 бит
Тип развёртки : MBAFF
Метод сохранения типа развёртки : Чередующиеся поля
Порядок развёртки : Верхнее поле первое
Бит/(Пиксели*Кадры) : 0.265
Размер потока : 3,00 Гбайт (70%)
Библиотека кодирования : x264 core 144 r2525
Настройки программы : cabac=1 / ref=2 / deblock=1:0:0 / analyse=0x1:0x131 / me=umh / subme=9 / psy=1 / psy_rd=1.00:0.10 / mixed_ref=0 / me_range=64 / chroma_me=1 / trellis=1 / 8x8dct=0 / cqm=0 / deadzone=21,11 / fast_pskip=1 / chroma_qp_offset=-3 / threads=12 / lookahead_threads=1 / sliced_threads=0 / nr=0 / decimate=1 / interlaced=tff / bluray_compat=0 / constrained_intra=0 / bframes=0 / weightp=0 / keyint=250 / keyint_min=25 / scenecut=0 / intra_refresh=0 / rc_lookahead=0 / rc=2pass / mbtree=0 / bitrate=2580 / ratetol=1.0 / qcomp=0.60 / qpmin=10 / qpmax=69 / qpstep=4 / cplxblur=20.0 / qblur=0.5 / vbv_maxrate=2580 / vbv_bufsize=14000 / nal_hrd=none / filler=0 / ip_ratio=1.40 / aq=0
Default : Да
Forced : Нет
Цветовой диапазон : Limited

Аудио
Идентификатор : 2
Формат : FLAC
Формат/Информация : Free Lossless Audio Codec
Идентификатор кодека : A_FLAC
Продолжительность : 2 ч. 47 м.
Вид битрейта : Переменный
Битрейт : 1086 Кбит/сек
Каналы : 2 канала
Расположение каналов : Front: L R
Частота : 48,0 КГц
Частота кадров : 10,417 кадров/сек (4608 spf)
Битовая глубина : 16 бит
Задержка видео : 2 мс.
Размер потока : 1,27 Гбайт (30%)
Язык : English
Default : Да
Forced : Нет

Меню
00:00:00.000 : :01. Culture Beat - Inside Out
00:04:05.400 : :02. DJ Bobo - There Is A Party
00:08:28.320 : :03. Mr. President - Coco Jamboo
00:12:10.560 : :04. MC Erik & Barbara - Save The Jungle
00:15:43.000 : :05. Snap - Rame
00:19:37.680 : :06. Dr. Alban - Born In Africa
00:23:03.440 : :07. 2 Brothers On The 4th Floor - Wonderful Feeling
00:27:05.760 : :08. Reel 2 Real feat. The Mad Stuntman - Raise Your Hands
00:30:54.800 : :09. 2 Unlimited - Jump For Joy
00:34:36.640 : :10. Masterboy - Generation Of Love
00:38:14.600 : :11. Bobby Summer - Jabba Jabba
00:41:36.600 : :12. Dance 2 Trance - Power Of American Natives
00:45:31.360 : :13. E-Type - Angels Crying
00:49:46.760 : :14. Aqua - My Oh My
00:53:08.280 : :15. Captain Hollywood Project - More And More
00:57:19.800 : :16. Haddaway - I Miss You
01:00:56.960 : :17. Me & My - Let The Love Go On
01:05:14.960 : :18. Ace Of Base - All That She Wants
01:08:47.000 : :19. Clock - Whoomph There It Is
01:12:12.160 : :20. Solid Base - Sunny Holiday
01:15:52.160 : :21. Brooklyn Bounce - Take A Ride
01:19:33.480 : :22. 2 Fabiola - Play This Song
01:23:18.120 : :23. Ice Mc feat. Yasmine - Take Away The Colour
01:26:46.080 : :24. Army Of Lovers - Obsession
01:30:38.360 : :25. Prince Ital Joe feat. Marky Mark - United
01:34:38.440 : :26. Cappella - I Need Your Love
01:38:08.080 : :27. Corona - Walking On Music
01:42:15.360 : :28. 2 For Good - You And Me
01:46:06.480 : :29. S.E.X. Appeal Feat. Lyane Leigh - Manga Maniac
01:48:39.160 : :30. T-Spoon - A Part Of My Life
01:52:14.200 : :31. AB Logic - Get Up Move Boy Move
01:56:38.880 : :32. The Prodigy - No Good
02:00:35.920 : :33. Scooter - We Are The Greatest
02:04:03.720 : :34. Music Instructor - Get Freaky
02:07:49.320 : :35. Intermission feat. Lori Glori - Six Days
02:11:34.040 : :36. Real McCoy - One More Time
02:15:34.360 : :37. La Cream - Say Goodbye
02:18:56.080 : :38. Texture - Power Of Love
02:21:52.240 : :39. E-Rotic - Max Don't Have Sex With Your Ex
02:24:30.240 : :40. Sonic Surfers - Don't You Give It Up
02:28:19.880 : :41. DJ Company - Rhythm Of Love
02:32:04.360 : :42. Captain Jack - Soldier Soldier
02:35:45.520 : :43. Whigfield - Saturday Night
02:39:42.120 : :44. Double You - Run to Me
02:43:23.600 : :45. Zhi-Vago - Celebrate The Love
Media Info 07
Формат : Matroska
Версия формата : Version 4 / Version 2
Размер файла : 4,35 Гбайт
Продолжительность : 2 ч. 50 м.
Режим общего битрейта : Переменный
Общий поток : 3656 Кбит/сек
Название фильма : Dance Hits 90`s - Retro Dance Party (Disc Seven)
Дата кодирования : UTC 2019-03-14 04:41:18
Программа кодирования : mkvmerge v7.6.0 ('Garden of Dreams') 64bit built on Feb 8 2015 13:04:34
Библиотека кодирования : libebml v1.3.1 + libmatroska v1.4.2

Видео
Идентификатор : 1
Формат : AVC
Формат/Информация : Advanced Video Codec
Профиль формата : [email protected]
Параметр CABAC формата : Да
Параметр ReFrames формата : 2 кадра
Идентификатор кодека : V_MPEG4/ISO/AVC
Продолжительность : 2 ч. 50 м.
Битрейт : 2580 Кбит/сек
Ширина : 720 пикселей
Высота : 540 пикселей
Соотношение сторон : 4:3
Режим частоты кадров : Постоянный
Частота кадров : 25,000 кадров/сек
Стандарт вещания : PAL
Цветовое пространство : YUV
Субдискретизация насыщенности : 4:2:0
Битовая глубина : 8 бит
Тип развёртки : MBAFF
Метод сохранения типа развёртки : Чередующиеся поля
Порядок развёртки : Верхнее поле первое
Бит/(Пиксели*Кадры) : 0.265
Размер потока : 3,05 Гбайт (70%)
Библиотека кодирования : x264 core 144 r2525
Настройки программы : cabac=1 / ref=2 / deblock=1:0:0 / analyse=0x1:0x131 / me=umh / subme=9 / psy=1 / psy_rd=1.00:0.10 / mixed_ref=0 / me_range=64 / chroma_me=1 / trellis=1 / 8x8dct=0 / cqm=0 / deadzone=21,11 / fast_pskip=1 / chroma_qp_offset=-3 / threads=12 / lookahead_threads=1 / sliced_threads=0 / nr=0 / decimate=1 / interlaced=tff / bluray_compat=0 / constrained_intra=0 / bframes=0 / weightp=0 / keyint=250 / keyint_min=25 / scenecut=0 / intra_refresh=0 / rc_lookahead=0 / rc=2pass / mbtree=0 / bitrate=2580 / ratetol=1.0 / qcomp=0.60 / qpmin=10 / qpmax=69 / qpstep=4 / cplxblur=20.0 / qblur=0.5 / vbv_maxrate=2580 / vbv_bufsize=14000 / nal_hrd=none / filler=0 / ip_ratio=1.40 / aq=0
Default : Да
Forced : Нет
Цветовой диапазон : Limited

Аудио
Идентификатор : 2
Формат : FLAC
Формат/Информация : Free Lossless Audio Codec
Идентификатор кодека : A_FLAC
Продолжительность : 2 ч. 50 м.
Вид битрейта : Переменный
Битрейт : 1087 Кбит/сек
Каналы : 2 канала
Расположение каналов : Front: L R
Частота : 48,0 КГц
Частота кадров : 10,417 кадров/сек (4608 spf)
Битовая глубина : 16 бит
Задержка видео : 2 мс.
Размер потока : 1,29 Гбайт (30%)
Язык : English
Default : Да
Forced : Нет

Меню
00:00:00.000 : :01. Down Low - We Do It Like That
00:03:35.440 : :02. Haddaway - What About Me
00:07:41.880 : :03. Mr. President - Give A Little Love
00:11:03.400 : :04. Culture Beat - Take Me Away
00:14:58.360 : :05. Pandora - Don't You Know
00:18:49.840 : :06. Captain Jack - Get Up!
00:21:51.760 : :07. The Shamen - Comin On
00:25:36.920 : :08. Masterboy - Mister Feeling
00:29:31.120 : :09. Imperio - Wings Of Love
00:33:33.320 : :10. Clock - Axel F
00:36:54.720 : :11. 2 Unlimited - Twilight Zone
00:41:02.640 : :12. 2 Brothers On The 4th Floor - Never Alone
00:45:13.880 : :13. Cappella - Tell Me The Way
00:48:55.480 : :14. Snap - Mary Had A Little Boy
00:52:36.000 : :15. Ace Of Base - The Sign
00:55:53.640 : :16. DJ Bobo - Everybody
00:59:48.000 : :17. Technotronic - Money Makes The World Do Round
01:03:55.200 : :18. Sqeezer - Scandy Randy
01:07:29.040 : :19. Adam feat. Amy - Zombie
01:11:13.240 : :20. Scooter - Rebel Yell
01:14:57.440 : :21. Maduar - Space
01:18:21.760 : :22. Army Of Lovers - I Am
01:22:16.960 : :23. Dr. Alban - Long Time Ago
01:25:46.640 : :24. Vengaboys - Uncle John From Jamaica
01:29:04.200 : :25. No Mercy - Where Do You Go
01:32:53.960 : :26. Music Instructor - Super Sonic
01:36:39.440 : :27. Bomfunk MC`s - Freestyler
01:41:31.560 : :28. SASH - Stay
01:45:02.200 : :29. Alexia - Number One
01:48:50.280 : :30. Reel 2 Real - Go On Move
01:53:00.440 : :31. C-Block - So Strung Out
01:56:42.320 : :32. Soultans - I Heard It Through The Grapevine
02:00:48.800 : :33. Motiv 8 - Rocking For Myself
02:04:36.320 : :34. Melodie MC - Dum Da Dum
02:08:37.280 : :35. B.G. The Prince Of Rap - The Power Of Rhythm
02:12:49.400 : :36. Basic Element - The Ride
02:17:03.640 : :37. Ab Logic - The Hitman
02:21:07.040 : :38. Odyssey - Move Your Body
02:24:14.360 : :39. Scatman John - Everybody Jam
02:27:48.480 : :40. Yaki Da - I Saw You Dancing
02:31:50.440 : :41. Aqua - Lollipop
02:35:26.400 : :42. Me & My - Baby Boy
02:38:52.720 : :43. Sin With Sebastian - Golden Boy
02:42:41.120 : :44. Ice MC - People
02:46:35.200 : :45. Shabba Ranks - Mr. Loverman
Media Info 08
Формат : Matroska
Версия формата : Version 4 / Version 2
Размер файла : 4,29 Гбайт
Продолжительность : 2 ч. 47 м.
Режим общего битрейта : Переменный
Общий поток : 3674 Кбит/сек
Название фильма : Dance Hits 90`s - Retro Dance Party (Disc Eight)
Дата кодирования : UTC 2019-03-15 04:37:56
Программа кодирования : mkvmerge v7.6.0 ('Garden of Dreams') 64bit built on Feb 8 2015 13:04:34
Библиотека кодирования : libebml v1.3.1 + libmatroska v1.4.2

Видео
Идентификатор : 1
Формат : AVC
Формат/Информация : Advanced Video Codec
Профиль формата : [email protected]
Параметр CABAC формата : Да
Параметр ReFrames формата : 2 кадра
Идентификатор кодека : V_MPEG4/ISO/AVC
Продолжительность : 2 ч. 47 м.
Битрейт : 2580 Кбит/сек
Ширина : 720 пикселей
Высота : 540 пикселей
Соотношение сторон : 4:3
Режим частоты кадров : Постоянный
Частота кадров : 25,000 кадров/сек
Стандарт вещания : PAL
Цветовое пространство : YUV
Субдискретизация насыщенности : 4:2:0
Битовая глубина : 8 бит
Тип развёртки : MBAFF
Метод сохранения типа развёртки : Чередующиеся поля
Порядок развёртки : Верхнее поле первое
Бит/(Пиксели*Кадры) : 0.265
Размер потока : 3,00 Гбайт (70%)
Библиотека кодирования : x264 core 144 r2525
Настройки программы : cabac=1 / ref=2 / deblock=1:0:0 / analyse=0x1:0x131 / me=umh / subme=9 / psy=1 / psy_rd=1.00:0.10 / mixed_ref=0 / me_range=64 / chroma_me=1 / trellis=1 / 8x8dct=0 / cqm=0 / deadzone=21,11 / fast_pskip=1 / chroma_qp_offset=-3 / threads=12 / lookahead_threads=1 / sliced_threads=0 / nr=0 / decimate=1 / interlaced=tff / bluray_compat=0 / constrained_intra=0 / bframes=0 / weightp=0 / keyint=250 / keyint_min=25 / scenecut=0 / intra_refresh=0 / rc_lookahead=0 / rc=2pass / mbtree=0 / bitrate=2580 / ratetol=1.0 / qcomp=0.60 / qpmin=10 / qpmax=69 / qpstep=4 / cplxblur=20.0 / qblur=0.5 / vbv_maxrate=2580 / vbv_bufsize=14000 / nal_hrd=none / filler=0 / ip_ratio=1.40 / aq=0
Default : Да
Forced : Нет
Цветовой диапазон : Limited

Аудио
Идентификатор : 2
Формат : FLAC
Формат/Информация : Free Lossless Audio Codec
Идентификатор кодека : A_FLAC
Продолжительность : 2 ч. 47 м.
Вид битрейта : Переменный
Битрейт : 1104 Кбит/сек
Каналы : 2 канала
Расположение каналов : Front: L R
Частота : 48,0 КГц
Частота кадров : 10,417 кадров/сек (4608 spf)
Битовая глубина : 16 бит
Задержка видео : 2 мс.
Размер потока : 1,29 Гбайт (30%)
Язык : English
Default : Да
Forced : Нет

Меню
00:00:00.000 : :01. Army Of Lovers - Lit De Parade
00:03:15.280 : :02. Heath Hunter - Walking On Clouds
00:08:41.560 : :03. Yaki Da - Pride Of Africa
00:12:18.360 : :04. Dr. Alban - This Time I'm Free
00:16:14.480 : :05. Ace Of Base - Living In Danger
00:19:27.360 : :06. Whigfield - Think Of You
00:23:28.560 : :07. Culture Beat - Walk The Same Line
00:27:25.560 : :08. Mr. President - Jojo Action
00:31:16.360 : :09. Loft - Mallorca
00:35:17.240 : :10. Pharao - World Of Magic
00:39:12.800 : :11. 2 Unlimited - Magic Friend
00:42:57.280 : :12. DJ Bobo - Pray
00:47:12.560 : :13. Sequential One - I Wanna Make You
00:50:44.880 : :14. Rednex - Old Pop In An Oak
00:54:21.000 : :15. C-Block - Summertime
00:58:24.040 : :16. Black Box - Strike It Up
01:01:00.360 : :17. Vengaboys - Shalala Lala
01:05:18.760 : :18. B.G. The Prince Of Rap - Stomp
01:09:04.560 : :19. Fun Factory - Doh Wah Diddy
01:12:15.480 : :20. Clubzone - Hands Up
01:16:10.680 : :21. Clock - Holding On 4 U
01:19:42.440 : :22. Cosmic Base Feat. TAMC - See The Light
01:23:17.680 : :23. 3-O-Matic - Success
01:26:59.680 : :24. Amber - This Is Your Night
01:30:55.760 : :25. La Bouche - Bolingo
01:34:46.320 : :26. Snap - The Cult Of Snap
01:38:47.520 : :27. E-Type - Princess Of Egypt
01:42:13.720 : :28. Reel 2 Real - Are You Ready For Some More
01:45:49.080 : :29. 2 Brothers On The 4th Floor - Living In Cyberspace
01:49:32.960 : :30. Le Click - Call Me
01:53:17.600 : :31. Masterboy - Land Of Dreaming
01:56:37.840 : :32. U 96 - Club Bizarre
02:00:08.960 : :33. Magic Affair - The Rhythm Makes You Wanna Dance
02:04:13.000 : :34. East 17 - House Of Love
02:08:42.680 : :35. Scooter - Fire
02:12:13.480 : :36. Herbie - Right Type Of Mood
02:15:25.800 : :37. Stella Getz - Ta-Di-Di-Boom
02:19:11.000 : :38. S.E.X. Appeal - Voulez Vous Coucher Avec Moi
02:22:47.120 : :39. Imperio - Nostra Culpa
02:26:55.320 : :40. Daze - Superhero
02:30:18.480 : :41. Jinny - Wanna Be With You
02:33:53.120 : :42. Prince Ital Joe feat. Marky Mark - Happy People
02:37:11.160 : :43. Captain Jack - Centerfold
02:40:12.160 : :44. Nomansland - Fantasy
02:43:30.800 : :45. KLF - Justified & Ancient
Media Info 09
Формат : Matroska
Версия формата : Version 4 / Version 2
Размер файла : 4,16 Гбайт
Продолжительность : 2 ч. 43 м.
Режим общего битрейта : Переменный
Общий поток : 3647 Кбит/сек
Название фильма : Dance Hits 90`s - Retro Dance Party (Disc Nine)
Дата кодирования : UTC 2019-03-16 07:37:25
Программа кодирования : mkvmerge v7.6.0 ('Garden of Dreams') 64bit built on Feb 8 2015 13:04:34
Библиотека кодирования : libebml v1.3.1 + libmatroska v1.4.2

Видео
Идентификатор : 1
Формат : AVC
Формат/Информация : Advanced Video Codec
Профиль формата : [email protected]
Параметр CABAC формата : Да
Параметр ReFrames формата : 2 кадра
Идентификатор кодека : V_MPEG4/ISO/AVC
Продолжительность : 2 ч. 43 м.
Битрейт : 2580 Кбит/сек
Ширина : 720 пикселей
Высота : 540 пикселей
Соотношение сторон : 4:3
Режим частоты кадров : Постоянный
Частота кадров : 25,000 кадров/сек
Стандарт вещания : PAL
Цветовое пространство : YUV
Субдискретизация насыщенности : 4:2:0
Битовая глубина : 8 бит
Тип развёртки : MBAFF
Метод сохранения типа развёртки : Чередующиеся поля
Порядок развёртки : Верхнее поле первое
Бит/(Пиксели*Кадры) : 0.265
Размер потока : 2,93 Гбайт (70%)
Библиотека кодирования : x264 core 144 r2525
Настройки программы : cabac=1 / ref=2 / deblock=1:0:0 / analyse=0x1:0x131 / me=umh / subme=9 / psy=1 / psy_rd=1.00:0.10 / mixed_ref=0 / me_range=64 / chroma_me=1 / trellis=1 / 8x8dct=0 / cqm=0 / deadzone=21,11 / fast_pskip=1 / chroma_qp_offset=-3 / threads=12 / lookahead_threads=1 / sliced_threads=0 / nr=0 / decimate=1 / interlaced=tff / bluray_compat=0 / constrained_intra=0 / bframes=0 / weightp=0 / keyint=250 / keyint_min=25 / scenecut=0 / intra_refresh=0 / rc_lookahead=0 / rc=2pass / mbtree=0 / bitrate=2580 / ratetol=1.0 / qcomp=0.60 / qpmin=10 / qpmax=69 / qpstep=4 / cplxblur=20.0 / qblur=0.5 / vbv_maxrate=2580 / vbv_bufsize=14000 / nal_hrd=none / filler=0 / ip_ratio=1.40 / aq=0
Default : Да
Forced : Нет
Цветовой диапазон : Limited

Аудио
Идентификатор : 2
Формат : FLAC
Формат/Информация : Free Lossless Audio Codec
Идентификатор кодека : A_FLAC
Продолжительность : 2 ч. 43 м.
Вид битрейта : Переменный
Битрейт : 1078 Кбит/сек
Каналы : 2 канала
Расположение каналов : Front: L R
Частота : 48,0 КГц
Частота кадров : 10,417 кадров/сек (4608 spf)
Битовая глубина : 16 бит
Задержка видео : 2 мс.
Размер потока : 1,23 Гбайт (30%)
Язык : English
Default : Да
Forced : Нет

Меню
00:00:00.000 : :01. Ace Of Base - Wheel Of Fortune
00:03:52.080 : :02. Stella Getz - Dr. Love
00:06:44.360 : :03. B.G. The Prince Of Rap - Can We Get Enough
00:10:13.800 : :04. Look Twice - Feel The Night
00:13:59.520 : :05. Matrix - Can You Feel It
00:17:58.680 : :06. Scooter - The Logical
00:21:56.480 : :07. Snap - Gimme A Thrill
00:25:23.120 : :08. La Bouche - I Love To Love
00:29:11.000 : :09. Dr. Alban - U And Mi
00:32:41.760 : :10. 2 Brothers On The 4th Floor - One Day
00:35:59.400 : :11. Culture Beat - World In Your Hands
00:40:11.680 : :12. Cappella - Be My Baby
00:44:00.880 : :13. Aqua - Roses Are Red
00:47:48.960 : :14. Pandora - A Little Bit
00:51:21.560 : :15. U96 - Seven Wonders
00:55:04.880 : :16. Club House - Light My Fire
00:58:41.240 : :17. General Base - Poison
01:02:20.720 : :18. Amos - Let Love Shine
01:05:42.760 : :19. Melodie MC - I Wanna Dance
01:09:54.720 : :20. Captain Hollywood Project - Find Another Way
01:13:51.000 : :21. E-Rotic - Sex On The Phone
01:16:28.760 : :22. Euphoric - Do You Like
01:20:26.240 : :23. Janal - You Gotta Set Me Free
01:23:49.640 : :24. Maxx - You Can Get It
01:27:16.640 : :25. Magic Affair - Bohemian Rapsody
01:30:52.000 : :26. 2 Fabiola - Freak Out
01:34:24.560 : :27. 2 Unlimited - Get Ready For This
01:37:18.840 : :28. Culture Shock - Satisfy The Groove
01:40:48.400 : :29. The Shamen - Phorever People
01:44:33.640 : :30. Felix - It Will Make Me Crazy
01:48:25.520 : :31. Major T - Keep The Frequency Clear
01:51:31.240 : :32. Eric XL Singleton Ft. Cool Cut - Please Let Me Know
01:55:03.680 : :33. C-Block - Time Is Tickin Away
01:59:02.960 : :34. Souladelic - I Want Your Body
02:02:46.280 : :35. Outta Control - One Of Us
02:06:44.400 : :36. Imperio - Veni Vidi Vici
02:10:46.880 : :37. Ice Mc - Music For Money
02:14:13.680 : :38. Captain Jack - Together & Forever
02:17:08.640 : :39. Solid Base - This Is How We Do It
02:20:39.440 : :40. DJ Bobo - Respect Yourself
02:24:38.320 : :41. Masterboy - Porque Te Vas
02:28:05.440 : :42. Fun Factory - I Wanna Be With You
02:31:41.600 : :43. Playahitty - The Summer Is Magic
02:35:00.400 : :44. No Mercy - Please Don't Go
02:39:14.960 : :45. Down Low - Johnny B.
Dance.Hits.90s.Retro.Dance.Party.AVC.DVDRip.torrent
 ЗОЛОТАЯ РАЗДАЧА! СКАЧАННОЕ НЕ ЗАСЧИТЫВАЕТСЯ! 
Вечный
Трекер: Зарегистрирован

magnet ссылка

 


Скачать .torrent

193 KB

Статус: проверено (by Cherepah в 17-Мар-19 15:07)
Зарегистрирован: 17-Мар-19 14:34
Скачан: 56 раз
Размер: 38.49 GB | 
Поблагодарили:
Скачать Dance Hits 90`s - Retro Dance Party [2010-2013, Dance, Eurodance, Techno, Pop, DVDRip-AVC] торрент
 


Похожие раздачи

George31

post 17-Мар-19 17:06 (спустя 2 часа 31 минута)

А есть чисто аудио?

Гидроцелиндр

post 17-Мар-19 21:21 (спустя 4 часа)

Спасибо за отличное качество видео и аудио.

Monica

post 18-Мар-19 00:28 (спустя 3 часа)

коллекция русской эстрады планируется?

Гидроцелиндр

post 21-Мар-19 15:23 (спустя 3 дня)

Monica
а русская это какая?

Текущее время: 23-Мар 17:18

Часовой пояс: GMT + 3



Вы не можете начинать темы
Вы не можете отвечать на сообщения
Вы не можете редактировать свои сообщения
Вы не можете удалять свои сообщения
Вы не можете голосовать в опросах
Вы не можете прикреплять файлы к сообщениям
Вы не можете скачивать файлы