Loading...
Error
 

Скачать торрент Повелитель хроноса / Jikan no Shihaisha (Сезон 01) (01-13 Серия из 13) (Мацунэ Масато / Matsune Masato) [2017 ,аниме, приключения, мистика, сёнэн , WEBRip] MVO [Crunchyroll]

 
Автор Сообщение

mayson95

post 16-Май-19 18:59

pic
Повелитель хроноса / Jikan no Shihaisha

Год выпуска: 2017
Страна: Япония, A-1 Pictures Inc.
Жанр: аниме, мультфильм, фэнтези, приключения, ...
Продолжительность: 13 эп. по ~00:25:00
(Сезон 01)
Серии 01-13 из 13
Перевод : Профессиональный многоголосый (Crunchyroll) | Телеканал FAN
Субтитры: Английские (Хардсаб)
В ролях: Викт(Фукуяма Дзюн),Кири (Исикава Кайто),Мина(Кугимия Риэ),Блейз (Акабанэ Кэндзи),АйсРадар(Ито Сидзука),Снейк(Сугита Томокадзу)

Режиссёр: Мацунэ Масато / Matsune Masato / 松根マサ
World-Art ANN AniDB MyAnimeList
Описание: Аниме перенесет нас в мир, где время нестабильно, оно может идти как и вперед так и назад. В жизни каждого человека случаются моменты от которых он хотел бы избавиться, пережить заново, или просто изменить. Но за такие мысли в этом мире людей наказывали, ведь их посещали демоны времени, которые искушали. Только демоны не исполняли желания, они просто воровали время людей, и оно шло назад. 39-летний мужчина по имени Виктор Путин стал очередной жертвой таких обстоятельств. 2002 год был для него болезненным, ведь умерла его любимая жена. Виктор потерял рассудок, ему было важно вернуть все обратно. Только случилось так как и с другими, демоны начали жрать его время, с каждым днем он молодел, теряя часть воспоминаний. Виктор нашел выход, чтобы все не забыть, он каждый день вел дневник и заботился о своем сыне, однажды он вступил в команду "Повелителей Хроноса”, видимо только они знают как вернуть время в нормальное состояние.
Качество: WEBRip [ Исходник Jikan no Shihaisha WEBRip 1080p Golumpa ]
Формат: AVI
Видео кодек: XviD
Аудио кодек: AC3
Видео: XviD, 720x400, ~ 1564 Кбит/сек, 23,976 fps
Audio AC-3, 48,0 КГц, 2 ch, 192 Кбит/сек, CBR s | Русский (Crunchyroll ) | Телеканал FAN
Рип Deadmauvlad
Сэмпл
pic
Список эпизодов
01.Existence and Nothingness
02. Memory and Recollection
03. Twilight of the Idol
04. The Concept of Anxiety
05. Beyond Good and Evil
06. Will and Representation
07. The Poverty of Philosophy
08. Fact and Fiction
09. Responsibility and Principle
10. Conjectures and Refutations
11. The Transcendence of the Ego
12. Process and Reality
13. Fantasy Future
MI

Код:

Общее
Полное имя                               : X:\Анима\Повелитель хроноса.S01.2017.P.Crunchyroll.WEBRip.Deadmauvlad\Повелитель хроноса.S01.2017.P.Crunchyroll.WEBRip.Deadmauvlad.EP.01.avi
Формат                                   : AVI
Формат/Информация                        : Audio Video Interleave
Размер файла                             : 300 Мбайт
Продолжительность                        : 23 м. 47 с.
Общий поток                              : 1766 Кбит/сек
Название фильма                          : Повелитель хроноса.2017.P.Crunchyroll.WEBRip.Deadmauvlad.EP.01
Режиссёр                                 : Deadmauvlad
Жанр                                     : Action/Adventure
Программа кодирования                    : VirtualDubMod 1.5.10.3 | (build 2550/release)
Формат оригинала/Имя                     : Anime
Авторское право                          : Crunchyroll по заказу т/к FAN
Примечание                               : Encoder by Deadmauvlad

Видео
Идентификатор                            : 0
Формат                                   : MPEG-4 Visual
Профиль формата                          : Advanced [email protected]
Настройки формата                        : BVOP1 / Custom Matrix
Параметр BVOP формата                    : 1
Параметр QPel формата                    : Нет
Параметр GMC формата                     : Без точки перехода
Параметр матрицы формата                 : Выборочная
Идентификатор кодека                     : XVID
Идентификатор кодека/Подсказка           : XviD
Продолжительность                        : 23 м. 47 с.
Битрейт                                  : 1565 Кбит/сек
Ширина                                   : 720 пикселей
Высота                                   : 400 пикселей
Соотношение сторон                       : 16:9
Частота кадров                           : 23,976 (24000/1001) кадра/сек
Цветовое пространство                    : YUV
Субдискретизация насыщенности            : 4:2:0
Битовая глубина                          : 8 бит
Тип развёртки                            : Прогрессивная
Метод сжатия                             : С потерями
Бит/(Пиксели*Кадры)                      : 0.227
Размер потока                            : 266 Мбайт (89%)
Библиотека кодирования                   : XviD 73

Аудио
Идентификатор                            : 1
Формат                                   : AC-3
Формат/Информация                        : Audio Coding 3
Коммерческое название                    : Dolby Digital
Идентификатор кодека                     : 2000
Продолжительность                        : 23 м. 47 с.
Вид битрейта                             : Постоянный
Битрейт                                  : 192 Кбит/сек
Каналы                                   : 2 канала
Channel layout                           : L R
Частота                                  : 48,0 КГц
Частота кадров                           : 31,250 кадров/сек (1536 SPF)
Битовая глубина                          : 16 бит
Метод сжатия                             : С потерями
Размер потока                            : 32,7 Мбайт (11%)
Выравнивание                             : Разделение по промежуткам
Продолжительность промежутка             : 42  мс. (1,00 видеокадр)
Время предзагрузки промежутка            : 500  мс.
ServiceKind/String                       : Complete Main
Скриншоты
.S01.2017.P.Crunchyroll.WEBRip.Deadmauvlad.torrent
Трекер: Зарегистрирован

magnet ссылка

 


Скачать .torrent

78 KB

Статус: проверено (by Cherepah в 16-Май-19 20:00)
Зарегистрирован: 16-Май-19 18:59
Скачан: 38 раз
Размер: 3.81 GB | 
Поблагодарили:
Скачать Повелитель хроноса / Jikan no Shihaisha (Сезон 01) (01-13 Серия из 13) (Мацунэ Масато / Matsune Masato) [2017 ,аниме, приключения, мистика, сёнэн , WEBRip] MVO [Crunchyroll] торрент
 


Похожие раздачи

mayson95

post 16-Май-19 19:00 (спустя 53 секунды)

На кинопоиске не нащел инфу об этом аниме ...

post 16-Май-19 20:03 (спустя 1 час 3 минуты)

Топик был перенесен из форума BDRip / HDRip / AVC в форум HDTVRip / HDTV 720 / 1080


Cherepah
 

Shmitok

post 16-Май-19 20:43 (спустя 1 час 43 минуты)

mayson95
https://shikimori.one/animes/34565-jikan-no-shihaisha

Текущее время: 17-Июл 11:50

Часовой пояс: GMT + 3



Вы не можете начинать темы
Вы не можете отвечать на сообщения
Вы не можете редактировать свои сообщения
Вы не можете удалять свои сообщения
Вы не можете голосовать в опросах
Вы не можете прикреплять файлы к сообщениям
Вы не можете скачивать файлы