Loading...
Error
 

Скачать торрент (Synthpop/ Futurepop / Electronic) Blaqk Audio - Only Things We Love (2019) [FLAC, (tracks+.cue), lossless]

 
Автор Сообщение

Слава2312

post 13-Июн-19 19:51

Blaqk Audio - Only Things We Love


pic

Жанр: Synthpop/ Futurepop / Electronic
Год издания данного носителя: 2019
Страна-производитель носителя: US
Лейбл: Blaqk Audio
Каталоговый номер: 538468052
Аудио кодек: FLAC
Тип рипа: tracks+.cue
Битрейт аудио: lossless
Продолжительность: 00:42:29
Источник (релизер): RED
Для ознакомления: pic Apple Music
Треклист:
[3:18] 01. Blaqk Audio - Infinite Skin
[3:35] 02. Blaqk Audio - The Viles
[3:31] 03. Blaqk Audio - Unstained
[4:03] 04. Blaqk Audio - Muscle And Matter
[3:55] 05. Blaqk Audio - Caroline In The Clip
[3:20] 06. Blaqk Audio - Maker
[3:19] 07. Blaqk Audio - Summer's Out Of Sight
[2:46] 08. Blaqk Audio - OK, Alex
[3:14] 09. Blaqk Audio - Enemies Forever
[4:02] 10. Blaqk Audio - Dark Arcades
[3:09] 11. Blaqk Audio - Dark Times At The Berlin Wall
[4:18] 12. Blaqk Audio - Matrimony And Dust
Отчёт об извлечении

Код:



Exact Audio Copy V1.3 from 2. September 2016

EAC extraction logfile from 29. May 2019, 18:46

Blaqk Audio / Only Things We Love

Used drive  : MATSHITADVD-RAM UJ8E2   Adapter: 1  ID: 0

Read mode               : Secure
Utilize accurate stream : Yes
Defeat audio cache      : Yes
Make use of C2 pointers : No

Read offset correction                      : 103
Overread into Lead-In and Lead-Out          : No
Fill up missing offset samples with silence : Yes
Delete leading and trailing silent blocks   : No
Null samples used in CRC calculations       : Yes
Used interface                              : Native Win32 interface for Win NT & 2000
Gap handling                                : Appended to previous track

Used output format              : User Defined Encoder
Selected bitrate                : 1024 kBit/s
Quality                         : High
Add ID3 tag                     : No
Command line compressor         : C:\Program Files (x86)\Exact Audio Copy\Flac\flac.exe
Additional command line options : -8 -V -T "ARTIST=%artist%" -T "TITLE=%title%" -T "ALBUM=%albumtitle%" -T "DATE=%year%" -T "TRACKNUMBER=%tracknr%" -T "GENRE=%genre%" -T "PERFORMER=%albuminterpret%" -T "COMPOSER=%composer%" %haslyrics%--tag-from-file=LYRICS="%lyricsfile%"%haslyrics% -T "ALBUMARTIST=%albumartist%" -T "DISCNUMBER=%cdnumber%" -T "TOTALDISCS=%totalcds%" -T "TOTALTRACKS=%numtracks%" -T "COMMENT=%comment%" %source% -o %dest%

TOC of the extracted CD

     Track |   Start  |  Length  | Start sector | End sector
    ---------------------------------------------------------
        1  |  0:00.00 |  3:17.66 |         0    |    14840   
        2  |  3:17.66 |  3:35.04 |     14841    |    30969   
        3  |  6:52.70 |  3:31.21 |     30970    |    46815   
        4  | 10:24.16 |  4:02.39 |     46816    |    65004   
        5  | 14:26.55 |  3:54.62 |     65005    |    82616   
        6  | 18:21.42 |  3:20.22 |     82617    |    97638   
        7  | 21:41.64 |  3:18.67 |     97639    |   112555   
        8  | 25:00.56 |  2:45.61 |    112556    |   124991   
        9  | 27:46.42 |  3:13.60 |    124992    |   139526   
       10  | 31:00.27 |  4:02.13 |    139527    |   157689   
       11  | 35:02.40 |  3:08.43 |    157690    |   171832   
       12  | 38:11.08 |  4:18.03 |    171833    |   191185   

Track  1

     Filename C:\EAC Rips\Blaqk Audio (2019) Only Things We Love [FLAC] {538468052}\ 01 - Infinite Skin.wav

     Pre-gap length  0:00:02.00

     Peak level 100.0 %
     Extraction speed 1.7 X
     Track quality 99.9 %
     Test CRC 302782D4
     Copy CRC 302782D4
     Accurately ripped (confidence 1)  [24784A44]  (AR v1)
     Copy OK

Track  2

     Filename C:\EAC Rips\Blaqk Audio (2019) Only Things We Love [FLAC] {538468052}\ 02 - The Viles.wav

     Peak level 97.6 %
     Extraction speed 2.6 X
     Track quality 100.0 %
     Test CRC 125DBEF2
     Copy CRC 125DBEF2
     Accurately ripped (confidence 1)  [313E90C8]  (AR v1)
     Copy OK

Track  3

     Filename C:\EAC Rips\Blaqk Audio (2019) Only Things We Love [FLAC] {538468052}\ 03 - Unstained.wav

     Peak level 97.5 %
     Extraction speed 2.8 X
     Track quality 100.0 %
     Test CRC 6FE81F5C
     Copy CRC 6FE81F5C
     Accurately ripped (confidence 1)  [2C5BA212]  (AR v1)
     Copy OK

Track  4

     Filename C:\EAC Rips\Blaqk Audio (2019) Only Things We Love [FLAC] {538468052}\ 04 - Muscle And Matter.wav

     Peak level 98.2 %
     Extraction speed 3.1 X
     Track quality 100.0 %
     Test CRC E4399F54
     Copy CRC E4399F54
     Accurately ripped (confidence 1)  [8B2D175A]  (AR v1)
     Copy OK

Track  5

     Filename C:\EAC Rips\Blaqk Audio (2019) Only Things We Love [FLAC] {538468052}\ 05 - Caroline In The Clip.wav

     Peak level 97.7 %
     Extraction speed 3.3 X
     Track quality 100.0 %
     Test CRC D81453C1
     Copy CRC D81453C1
     Accurately ripped (confidence 1)  [59D3E477]  (AR v1)
     Copy OK

Track  6

     Filename C:\EAC Rips\Blaqk Audio (2019) Only Things We Love [FLAC] {538468052}\ 06 - Maker.wav

     Peak level 100.0 %
     Extraction speed 3.3 X
     Track quality 100.0 %
     Test CRC B295581A
     Copy CRC B295581A
     Accurately ripped (confidence 1)  [D658C55B]  (AR v1)
     Copy OK

Track  7

     Filename C:\EAC Rips\Blaqk Audio (2019) Only Things We Love [FLAC] {538468052}\ 07 - Summer's Out Of Sight.wav

     Peak level 98.4 %
     Extraction speed 2.5 X
     Track quality 99.9 %
     Test CRC AF2122C2
     Copy CRC AF2122C2
     Accurately ripped (confidence 1)  [5B306979]  (AR v1)
     Copy OK

Track  8

     Filename C:\EAC Rips\Blaqk Audio (2019) Only Things We Love [FLAC] {538468052}\ 08 - OK, Alex.wav

     Peak level 100.0 %
     Extraction speed 3.5 X
     Track quality 100.0 %
     Test CRC ADA2131D
     Copy CRC ADA2131D
     Accurately ripped (confidence 1)  [AD132E29]  (AR v1)
     Copy OK

Track  9

     Filename C:\EAC Rips\Blaqk Audio (2019) Only Things We Love [FLAC] {538468052}\ 09 - Enemies Forever.wav

     Peak level 100.0 %
     Extraction speed 3.7 X
     Track quality 100.0 %
     Test CRC 6475C2E2
     Copy CRC 6475C2E2
     Accurately ripped (confidence 1)  [7FE28BDE]  (AR v1)
     Copy OK

Track 10

     Filename C:\EAC Rips\Blaqk Audio (2019) Only Things We Love [FLAC] {538468052}\ 10 - Dark Arcades.wav

     Peak level 100.0 %
     Extraction speed 4.0 X
     Track quality 100.0 %
     Test CRC 35631F23
     Copy CRC 35631F23
     Accurately ripped (confidence 1)  [75A36DB8]  (AR v1)
     Copy OK

Track 11

     Filename C:\EAC Rips\Blaqk Audio (2019) Only Things We Love [FLAC] {538468052}\ 11 - Dark Times At The Berlin Wall.wav

     Peak level 100.0 %
     Extraction speed 2.8 X
     Track quality 99.9 %
     Test CRC BE66A197
     Copy CRC BE66A197
     Accurately ripped (confidence 1)  [D522988A]  (AR v1)
     Copy OK

Track 12

     Filename C:\EAC Rips\Blaqk Audio (2019) Only Things We Love [FLAC] {538468052}\ 12 - Matrimony And Dust.wav

     Peak level 100.0 %
     Extraction speed 4.4 X
     Track quality 100.0 %
     Test CRC 590CDFA5
     Copy CRC 590CDFA5
     Accurately ripped (confidence 1)  [074FBCDF]  (AR v1)
     Copy OK

All tracks accurately ripped

No errors occurred

End of status report

---- CUETools DB Plugin V2.1.6

[CTDB TOCID: rp4PwrCt9tv_M3xvscHeO7TsMUA-] found
Submit result: rp4PwrCt9tv_M3xvscHeO7TsMUA- has been confirmed
Track | CTDB Status
  1   | (8/8) Accurately ripped
  2   | (8/8) Accurately ripped
  3   | (8/8) Accurately ripped
  4   | (8/8) Accurately ripped
  5   | (8/8) Accurately ripped
  6   | (8/8) Accurately ripped
  7   | (8/8) Accurately ripped
  8   | (8/8) Accurately ripped
  9   | (8/8) Accurately ripped
 10   | (8/8) Accurately ripped
 11   | (8/8) Accurately ripped
 12   | (8/8) Accurately ripped

==== Log checksum 44BEB45E5D925A112BD81B4BF2A0F8CEB0446C3E206E5849F40D19DE1CCC85D3 ====

Текст .cue (файл разметки)

Код:



REM GENRE Synth-pop
REM DATE 2019
REM DISCID 9309F50C
REM COMMENT "ExactAudioCopy v1.3"
CATALOG 4050538468052
PERFORMER "Blaqk Audio"
TITLE "Only Things We Love"
REM COMPOSER ""
FILE "01 - Infinite Skin.wav" WAVE
  TRACK 01 AUDIO
    TITLE "Infinite Skin"
    PERFORMER "Blaqk Audio"
    REM COMPOSER ""
    ISRC QMRSZ1802761
    INDEX 01 00:00:00
FILE "02 - The Viles.wav" WAVE
  TRACK 02 AUDIO
    TITLE "The Viles"
    PERFORMER "Blaqk Audio"
    REM COMPOSER ""
    ISRC QMRSZ1802762
    INDEX 01 00:00:00
FILE "03 - Unstained.wav" WAVE
  TRACK 03 AUDIO
    TITLE "Unstained"
    PERFORMER "Blaqk Audio"
    REM COMPOSER ""
    ISRC QMRSZ1802763
    INDEX 01 00:00:00
FILE "04 - Muscle And Matter.wav" WAVE
  TRACK 04 AUDIO
    TITLE "Muscle And Matter"
    PERFORMER "Blaqk Audio"
    REM COMPOSER ""
    ISRC QMRSZ1802764
    INDEX 01 00:00:00
FILE "05 - Caroline In The Clip.wav" WAVE
  TRACK 05 AUDIO
    TITLE "Caroline In The Clip"
    PERFORMER "Blaqk Audio"
    REM COMPOSER ""
    ISRC QMRSZ1802765
    INDEX 01 00:00:00
FILE "06 - Maker.wav" WAVE
  TRACK 06 AUDIO
    TITLE "Maker"
    PERFORMER "Blaqk Audio"
    REM COMPOSER ""
    ISRC QMRSZ1802766
    INDEX 01 00:00:00
FILE "07 - Summer's Out Of Sight.wav" WAVE
  TRACK 07 AUDIO
    TITLE "Summer's Out Of Sight"
    PERFORMER "Blaqk Audio"
    REM COMPOSER ""
    ISRC QMRSZ1802767
    INDEX 01 00:00:00
FILE "08 - OK, Alex.wav" WAVE
  TRACK 08 AUDIO
    TITLE "OK, Alex"
    PERFORMER "Blaqk Audio"
    REM COMPOSER ""
    ISRC QMRSZ1802768
    INDEX 01 00:00:00
FILE "09 - Enemies Forever.wav" WAVE
  TRACK 09 AUDIO
    TITLE "Enemies Forever"
    PERFORMER "Blaqk Audio"
    REM COMPOSER ""
    ISRC QMRSZ1802769
    INDEX 01 00:00:00
FILE "10 - Dark Arcades.wav" WAVE
  TRACK 10 AUDIO
    TITLE "Dark Arcades"
    PERFORMER "Blaqk Audio"
    REM COMPOSER ""
    ISRC QMRSZ1802770
    INDEX 01 00:00:00
FILE "11 - Dark Times At The Berlin Wall.wav" WAVE
  TRACK 11 AUDIO
    TITLE "Dark Times At The Berlin Wall"
    PERFORMER "Blaqk Audio"
    REM COMPOSER ""
    ISRC QMRSZ1802771
    INDEX 01 00:00:00
FILE "12 - Matrimony And Dust.wav" WAVE
  TRACK 12 AUDIO
    TITLE "Matrimony And Dust"
    PERFORMER "Blaqk Audio"
    REM COMPOSER ""
    ISRC QMRSZ1802772
    INDEX 01 00:00:00

Замер динамического диапазона (DR)

Код:



foobar2000 1.4.1 / Замер динамического диапазона (DR) 1.1.1
Дата отчёта:    2019-06-13 20:38:37

--------------------------------------------------------------------------------
Анализ:   Blaqk Audio / Only Things We Love
--------------------------------------------------------------------------------

DR         Пики         RMS           Продолжительность трека
--------------------------------------------------------------------------------
DR6        0.00 дБ    -7.04 дБ      3:18 01-Infinite Skin
DR4       -0.21 дБ    -5.84 дБ      3:35 02-The Viles
DR5       -0.22 дБ    -6.26 дБ      3:31 03-Unstained
DR6       -0.15 дБ    -7.76 дБ      4:03 04-Muscle And Matter
DR5       -0.20 дБ    -7.25 дБ      3:55 05-Caroline In The Clip
DR5        0.00 дБ    -6.68 дБ      3:20 06-Maker
DR5       -0.14 дБ    -6.50 дБ      3:19 07-Summer's Out Of Sight
DR4        0.00 дБ    -5.59 дБ      2:46 08-OK, Alex
DR5        0.00 дБ    -5.85 дБ      3:14 09-Enemies Forever
DR5        0.00 дБ    -6.70 дБ      4:02 10-Dark Arcades
DR5        0.00 дБ    -6.47 дБ      3:09 11-Dark Times At The Berlin Wall
DR6        0.00 дБ    -7.28 дБ      4:18 12-Matrimony And Dust
--------------------------------------------------------------------------------

Количество треков:  12
Реальные значения DR:  DR5

Частота:      44100 Гц
Каналов:      2
Разрядность:     16
Битрейт:      1073 кбит/с
Кодек:      FLAC
================================================================================

auCDtect Task Manager

Код:

-----------------------

DON'T MODIFY THIS FILE

-----------------------

PERFORMER: auCDtect Task Manager, ver. 1.6.0 RC1 build 1.6.0.1
Copyright (c) 2008-2010 y-soft. All rights reserved
http://y-soft.org

ANALYZER: auCDtect: CD records authenticity detector, version 0.8.2
Copyright (c) 2004 Oleg Berngardt. All rights reserved.
Copyright (c) 2004 Alexander Djourik. All rights reserved.

FILE: 12 - Matrimony And Dust.flac
  Size: 35008301 Hash: 1DA53A974B29B14E46EBF0F0BC09D116 Accuracy: -m0
  Conclusion: CDDA 100%
  Signature: BAFE71563895301B5EB466E20F077E263AEC891E
FILE: 11 - Dark Times At The Berlin Wall.flac
  Size: 24106289 Hash: B41198978BB7730198A4BBF62A29B96B Accuracy: -m0
  Conclusion: CDDA 100%
  Signature: 0F71C27E6DE1CE1FC6E33FE23CDA3ED0C75B99E6
FILE: 10 - Dark Arcades.flac
  Size: 30695003 Hash: 8A4CC075F63B31E7AF0C4984F589A9C1 Accuracy: -m0
  Conclusion: CDDA 100%
  Signature: 7D61F22F54B9977BCE200C27C2081A2A84233D18
FILE: 09 - Enemies Forever.flac
  Size: 26063784 Hash: B6772D2048D1BD272C9084299EE1A73D Accuracy: -m0
  Conclusion: CDDA 100%
  Signature: 2B4662A9E6999DC2FA1EFF29A930AD089F52F22A
FILE: 08 - OK, Alex.flac
  Size: 20405713 Hash: 52649C097F61C5AC8634725444A2AF25 Accuracy: -m0
  Conclusion: CDDA 100%
  Signature: 0C60F38D32C72C15C84898D68DA4FA3E988EB26B
FILE: 07 - Summer's Out Of Sight.flac
  Size: 26468933 Hash: 69FDA6BFC173FD8BE7080327D9212416 Accuracy: -m0
  Conclusion: CDDA 100%
  Signature: AEA6B15D3AF2AF86C998FE16199FD1DB9136D48C
FILE: 06 - Maker.flac
  Size: 26162819 Hash: C6375BBADF22F657D99498F1BCE004B3 Accuracy: -m0
  Conclusion: CDDA 100%
  Signature: B24F0388C047E28B40ED081D92EB1A84D0975CE3
FILE: 05 - Caroline In The Clip.flac
  Size: 30791719 Hash: 026D2569F917BD4DC720F21E060135C4 Accuracy: -m0
  Conclusion: CDDA 100%
  Signature: 851FA73D5DE8CB0463DAF6336C5298926FF32A91
FILE: 04 - Muscle And Matter.flac
  Size: 33164974 Hash: 9D0C1C3927F5027313D22079AF79391E Accuracy: -m0
  Conclusion: MPEG 95%
  Signature: 4C249E48FBF98936840139109CCA7E68B2FB2D79
FILE: 03 - Unstained.flac
  Size: 26458318 Hash: 094BF69CF1DD2F285703F171846CC404 Accuracy: -m0
  Conclusion: MPEG 95%
  Signature: E17E1332FBFC0AB3C84E2A28CD9BAA795492ED32
FILE: 02 - The Viles.flac
  Size: 29651796 Hash: CD34F9EE3452E56FE6455BE1F200FB7F Accuracy: -m0
  Conclusion: MPEG 95%
  Signature: 23CA28D3B65760CB3FFEA480863CF6E3E80795AE
FILE: 01 - Infinite Skin.flac
  Size: 25559302 Hash: D9C2E5BFD456A6439B3CC275FA3B7589 Accuracy: -m0
  Conclusion: CDDA 100%
  Signature: BC8CCAAE543CD8C2BB00F6992F80F43DC033611B


pic
Blaqk Audio - Only Things We Love (2019) Flac.torrent
Трекер: Зарегистрирован

magnet ссылка

 


Скачать .torrent

14 KB

Статус: проверено (by ilyash_rekviem в 13-Июн-19 23:03)
Зарегистрирован: 13-Июн-19 19:51
Скачан: 19 раз
Размер: 319 MB | 
Поблагодарили:
Скачать (Synthpop/ Futurepop / Electronic) Blaqk Audio - Only Things We Love (2019) [FLAC, (tracks+.cue), lossless] торрент
 


Похожие раздачи

Текущее время: 16-Июн 15:58

Часовой пояс: GMT + 3



Вы не можете начинать темы
Вы не можете отвечать на сообщения
Вы не можете редактировать свои сообщения
Вы не можете удалять свои сообщения
Вы не можете голосовать в опросах
Вы не можете прикреплять файлы к сообщениям
Вы не можете скачивать файлы