Loading...
Error
 

Скачать торрент Пейзажи времени / TimeScapes (Том Лоу) [2012, видовая документалистика, 4K UltraHD 2160p][CFHD]

 
Автор Сообщение

Melitant

post 14-Июл-19 10:46

pic
Пейзажи времени / TimeScapes

Год выпуска: 2012
Страна: Новая Зеландия
Жанр: видовая документалистика
Продолжительность: 00:48:21
Перевод: Не требуется
Субтитры: Отсутствуют
Режиссёр: Том Лоу
Описание: В фильме вы увидите пейзажи, людей и дикую природу американского Юго-Запада в замедленной съёмке.
Качество: 4K UltraHD 2160p
Формат: AVI
Видео кодек: CFHD
Аудио кодек: PCM
Видео: 4096x2304 (16:9), 23.976 fps, 908 Mbps
Аудио: 2.0 ch, 48KHz, 16-bit, 1536 Kbps
MediaInfo
General
Complete name : E:\TimeScapes 4k CineForm\TimeScapes 4k CineForm.avi
Format : AVI
Format/Info : Audio Video Interleave
Format profile : OpenDML
File size : 307 GiB
Duration : 48mn 22s
Overall bit rate : 909 Mbps
Video #0
ID : 0
Format : CineForm
Codec ID : CFHD
Codec ID/Info : CineForm 10-bit Visually Perfect HD (Wavelet)
Duration : 48mn 21s
Bit rate : 908 Mbps
Width : 4 096 pixels
Height : 2 304 pixels
Display aspect ratio : 16:9
Frame rate : 23.976 fps
Scan type : Progressive
Bits/(Pixel*Frame) : 4.013
Stream size : 307 GiB (100%)
Audio #1
ID : 1
Format : PCM
Format settings, Endianness : Little
Format settings, Sign : Signed
Codec ID : 1
Duration : 48mn 22s
Bit rate mode : Constant
Bit rate : 1 536 Kbps
Channel count : 2 channels
Sampling rate : 48.0 KHz
Bit depth : 16 bits
Stream size : 531 MiB (0%)
Alignment : Aligned on interleaves
Interleave, duration : 250 ms (5.99 video frames)
Interleave, preload duration : 250 ms
Скриншоты
TimeScapes.2012.2304p.avi.torrent
 ЗОЛОТАЯ РАЗДАЧА! СКАЧАННОЕ НЕ ЗАСЧИТЫВАЕТСЯ! 
Вечный
Трекер: Зарегистрирован

magnet ссылка

 


Скачать .torrent

192 KB

Статус: проверено (by Snowden в 14-Июл-19 12:09)
Зарегистрирован: 14-Июл-19 10:46
Скачан: 4 раза
Размер: 307.22 GB | 
Поблагодарили:
Скачать Пейзажи времени / TimeScapes (Том Лоу) [2012, видовая документалистика, 4K UltraHD 2160p][CFHD] торрент
 


Похожие раздачи

Melitant

post 14-Июл-19 11:32 (спустя 46 минут)

picДля просмотра необходим CFHD кодек, который можно скачать здесь

newbie27

post 14-Июл-19 15:10 (спустя 3 часа)

Битрейт 908 мегабит?! Такое бывает? И зачем столько?

Melitant

post 14-Июл-19 16:56 (спустя 1 час 46 минут)

Ц Цитата:

Битрейт 908 мегабит?! Такое бывает? И зачем столько?
да. бывает wink наверно оценить возможности камер и производительность процессора giggle

GipeRus

post 14-Июл-19 17:32 (спустя 35 минут)

не знаю зачем, но качну.

skeenyfrost

post 14-Июл-19 18:29 (спустя 57 минут)

Размер: 307.22 GB
Жесть facepalm(' facepalm')

Текущее время: 17-Июл 14:23

Часовой пояс: GMT + 3



Вы не можете начинать темы
Вы не можете отвечать на сообщения
Вы не можете редактировать свои сообщения
Вы не можете удалять свои сообщения
Вы не можете голосовать в опросах
Вы не можете прикреплять файлы к сообщениям
Вы не можете скачивать файлы