Loading...
Error
 

Скачать торрент Рыбка Поньо на утёсе / Ponyo on the Cliff by the Sea / Gake no Ue no Ponyo (Хаяо Миядзаки) [2008, аниме, мультфильм, приключения, семейный, фэнтези, BDRip 1080p] [DUB] [Лицензия]

 
Автор Сообщение

Roman2013

post 13-Сен-19 02:35

Рыбка Поньо на утёсе / Ponyo on the Cliff by the Sea / Gake no Ue no Ponyo
«Добро пожаловать в мир, где возможно все.»
pic

Год выпуска: 2008
Страна: Япония
Жанр: Аниме, мультфильм, приключения, семейный, фэнтези
Продолжительность: 01:40:50
Перевод: Дублированный | Лицензия | RUSCICO
Субтитры: Русские
Режиссёр: Хаяо Миядзаки
В ролях: Томоко Ямагути, Кадзусигэ Нагасима, Юки Амами, Джордж Токоро, Юриа Нара, Хироки Дои, Руми Хиираги, Акико Яно, Кадзуко Ёсиюки, Томоко Нараока
Роли дублировали: Ольга Голованова, Александр Коврижных, Марина Бакина, Александр Груздев, Ольга Шорохова
Описание: Маленькая любопытная рыбка Поньо — дочь колдуна и прекрасной морской богини уплывает из дома, чтобы понаблюдать за жизнью людей. Поньо застревает в банке и оказывается выброшенной на берег. Ее подбирает пятилетний Сооскэ. Малыши привязываются друг к другу. И теперь у Поньо только одно желание — стать человеком!
Качество: BDRip 1080p
Формат: MKV
Видео кодек: AVC
Аудио кодек: AC3, DTS
Видео : 1920 x 1040 / (16:9) / 10600 kbps / 23.976 fps / 0.222 bpp / 8 bit
Аудио №1: Русский, RUSCICO: AC-3 / 6.0/ 48 kHz/ 448 Kbps
Аудио №2: Японский, 日本語: DTS / 6.0/ 48 kHz/ 1509 Kbps

Рейтинг
pic
Рыбка Поньо на утесе (2008) - Дублированный трейлер
MediaInfo
General
Unique ID : 192416148547102342406004302914396514347 (0x90C20091F3BE7B4DDB4BA13C1472682B)
Complete name : Ponyo.on.the.Cliff.by.the.Sea.2008.BDRip.1080.Rus.Jap.mkv
Format : Matroska
Format version : Version 4
File size : 8.88 GiB
Duration : 1 h 40 min
Overall bit rate : 12.6 Mb/s
Movie name : Ponyo.on.the.Cliff.by.the.Sea.2008.BDRip.1080.Rus.Jap.mkv
Encoded date : UTC 2019-09-12 23:03:40
Writing application : mkvmerge v37.0.0 ('Leave It') 64-bit
Writing library : libebml v1.3.9 + libmatroska v1.5.2
Attachments : CHUBBY.TTF / CWBTRIAL.ttf / laurencb.ttf / smdg.ttf / SPEAKOT-HEAVY.OTF / times.ttf

Video
ID : 1
Format : AVC
Format/Info : Advanced Video Codec
Format profile : [email protected]
Format settings : CABAC / 3 Ref Frames
Format settings, CABAC : Yes
Format settings, Reference frames : 3 frames
Codec ID : V_MPEG4/ISO/AVC
Duration : 1 h 40 min
Bit rate : 10.6 Mb/s
Width : 1 920 pixels
Height : 1 040 pixels
Display aspect ratio : 1.85:1
Frame rate mode : Constant
Frame rate : 23.976 FPS
Color space : YUV
Chroma subsampling : 4:2:0
Bit depth : 8 bits
Scan type : Progressive
Bits/(Pixel*Frame) : 0.222
Stream size : 7.50 GiB (84%)
Writing library : x264 core 00000000000000000
Encoding settings : 000000
Language : Japanese
Default : Yes
Forced : No

Audio #1
ID : 2
Format : AC-3
Format/Info : Audio Coding 3
Commercial name : Dolby Digital
Codec ID : A_AC3
Duration : 1 h 40 min
Bit rate mode : Constant
Bit rate : 448 kb/s
Channel(s) : 6 channels
Channel layout : L R C LFE Ls Rs
Sampling rate : 48.0 kHz
Frame rate : 31.250 FPS (1536 SPF)
Bit depth : 16 bits
Compression mode : Lossy
Stream size : 323 MiB (4%)
Title : RUSCICO
Language : Russian
Service kind : Complete Main
Default : Yes
Forced : No

Audio #2
ID : 3
Format : DTS ES XXCH
Format/Info : Digital Theater Systems
Commercial name : DTS-ES Discrete
Codec ID : A_DTS
Duration : 1 h 40 min
Bit rate mode : Constant
Bit rate : 1 509 kb/s
Channel(s) : 6 channels
Channel(s)_Original : 7 channels
Channel layout : C L R Ls Rs Cb LFE
Sampling rate : 48.0 kHz
Frame rate : 93.750 FPS (512 SPF)
Bit depth : 24 bits
Compression mode : Lossy
Stream size : 1.06 GiB (12%)
Language : Japanese
Default : No
Forced : No

Text
ID : 4
Format : ASS
Codec ID : S_TEXT/ASS
Codec ID/Info : Advanced Sub Station Alpha
Duration : 1 h 40 min
Bit rate : 93 b/s
Count of elements : 1059
Compression mode : Lossless
Stream size : 69.0 KiB (0%)
Language : Russian
Default : Yes
Forced : No
Скриншоты
Ponyo.on.the.Cliff.by.the.Sea.2008.BDRip.1080.Rus.Jap.mkv.torrent
 СЕРЕБРЯНАЯ РАЗДАЧА! СКАЧАННОЕ ЗАСЧИТЫВАЕТСЯ ТОЛЬКО НАПОЛОВИНУ! 
Вечный
Трекер: Зарегистрирован

magnet ссылка

 


Скачать .torrent

22 KB

Статус: проверено (by Snowden в 13-Сен-19 10:25)
Зарегистрирован: 13-Сен-19 02:35
Скачан: 25 раз
Размер: 8.88 GB | 
Поблагодарили:
Скачать Рыбка Поньо на утёсе / Ponyo on the Cliff by the Sea / Gake no Ue no Ponyo (Хаяо Миядзаки) [2008, аниме, мультфильм, приключения, семейный, фэнтези, BDRip 1080p] [DUB] [Лицензия] торрент
 


Похожие раздачи

Текущее время: 16-Сен 11:22

Часовой пояс: GMT + 3



Вы не можете начинать темы
Вы не можете отвечать на сообщения
Вы не можете редактировать свои сообщения
Вы не можете удалять свои сообщения
Вы не можете голосовать в опросах
Вы не можете прикреплять файлы к сообщениям
Вы не можете скачивать файлы