Loading...
Error
 

Скачать торрент Уральские пельмени (Бубновый тюз) (Анастастия Ширина, Леонид Коновалов) [2019 г., ТВ-шоу, юмор, сатира, развлекательный, WEBRip 1080p] | 13.09.2019

 
Автор Сообщение

Snowden

post 14-Сен-19 03:56


Уральские пельмени (Бубновый тюз)
«-»

pic
Год выхода: 2019
Страна: Россия
Жанр: ТВ-шоу, юмор, сатира, развлекательный
Продолжительность: 01:10:55
Перевод: Не требуется
Субтитры: Отсутствуют

Режиссер: Анастастия Ширина, Леонид Коновалов
В ролях: Дмитрий Брекоткин, Сергей Ершов, Сергей Исаев, Сергей Калугин, Вячеслав Мясников, Александр Попов, Андрей Рожков, Дмитрий Соколов, Максим Ярица, Юлия Михалкова, Илана Юрьева, Ксения Корнева, Данила Пятков, Артём Пушкин, Роман Постовалов

О фильме: Они оживают после третьего звонка! Они не знают, есть ли жизнь за авансценой! Их любимое женское имя - Мельпомена! А рассвет, это включение софитов! Они ждут ваших оваций в новой программе «Бубновый ТЮЗ»!

Качество: WEBRip 1080p
Формат: mkv
Видео кодек: AVC
Аудио кодек: AC3
Видео: 1920x1080, 25.000 fps, 4548 Кбит/с
Аудио: 192 kb/s, 2 ch, 48.0 KHz

Примечание: Релиз без рекламы!
MediaInfo

Код:

H:\USD\Бубновый тюз.Уральские пельмени. by.Алехаndr.mkv
   General
      Unique ID : 138574732774476934601271436278519794527 (0x684085D2321BF37519B02C6171D78B5F)
      Complete name : Бубновый тюз.Уральские пельмени. by.Алехаndr.mkv
      Format : Matroska
      Format version : Version 4 / Version 2
      File size : 2.40 GiB
      Duration : 1 h 10 min
      Overall bit rate : 4 836 kb/s
      Writing application : Lavf58.20.100
      Writing library : Lavf58.20.100
      ErrorDetectionType : Per level 1
   Video #1
      ID : 1
      Format : AVC
      Format/Info : Advanced Video Codec
      Format profile : [email protected]
      Format settings : CABAC / 3 Ref Frames
      Format settings, CABAC : Yes
      Format settings, ReFrames : 3 frames
      Codec ID : V_MPEG4/ISO/AVC
      Duration : 1 h 10 min
      Bit rate : 4 548 kb/s
      Width : 1 920 pixels
      Height : 1 080 pixels
      Display aspect ratio : 16:9
      Frame rate mode : Constant
      Frame rate : 25.000 FPS
      Color space : YUV
      Chroma subsampling : 4:2:0
      Bit depth : 8 bits
      Scan type : Progressive
      Bits/(Pixel*Frame) : 0.088
      Stream size : 2.25 GiB (94%)
      Default : Yes
      Forced : No
      Color range : Limited
      Color primaries : BT.709
      Transfer characteristics : BT.709
      Matrix coefficients : BT.709
   Audio #2
      ID : 2
      Format : AC-3
      Format/Info : Audio Coding 3
      Codec ID : A_AC3
      Duration : 1 h 10 min
      Bit rate mode : Constant
      Bit rate : 192 kb/s
      Channel(s) : 2 channels
      Channel positions : Front: L R
      Sampling rate : 48.0 kHz
      Frame rate : 31.250 FPS (1536 SPF)
      Bit depth : 16 bits
      Compression mode : Lossy
      Stream size : 97.4 MiB (4%)
      Service kind : Complete Main
      Default : Yes
      Forced : No
Рейтинг
pic pic pic
Доп. информация
Эфир от 13 сентября 2019 года
Скриншоты
.Уральские пельмени. by.Алехаndr.mkv.torrent
Трекер: Зарегистрирован

magnet ссылка

 


Скачать .torrent

12 KB

Статус: проверено (by Snowden в 14-Сен-19 03:56)
Зарегистрирован: 14-Сен-19 03:56
Скачан: 80 раз
Размер: 2.4 GB | 
Поблагодарили:
Скачать Уральские пельмени (Бубновый тюз) (Анастастия Ширина, Леонид Коновалов) [2019 г., ТВ-шоу, юмор, сатира, развлекательный, WEBRip 1080p] | 13.09.2019 торрент
 


Похожие раздачи

Kavardak

post 14-Сен-19 15:50 (спустя 11 часов)

Звук на один канал, описание другого концерта. Если не секрет где взяли видео на их ютуб канале нет этого концерта и на стс канале тоже нет.

Текущее время: 16-Сен 11:43

Часовой пояс: GMT + 3



Вы не можете начинать темы
Вы не можете отвечать на сообщения
Вы не можете редактировать свои сообщения
Вы не можете удалять свои сообщения
Вы не можете голосовать в опросах
Вы не можете прикреплять файлы к сообщениям
Вы не можете скачивать файлы