Loading...
Error
 

Скачать торрент Стальной алхимик: Братство | 1 сезон: 1-64 серии из 64 | Fullmetal Alchemist: Brotherhood (Ясухиро Ириэ, Икуро Сато, Киёмицу Сато) [2009-2010, Аниме, мультфильм, боевик, приключения, драма, фэнтези, BDRip 1080p] [HEVC] DUB СВ-Дубль | MVO STEPonee

 
Автор Сообщение

Ankiler

post 09-Ноя-19 00:56

pic
«Стальной алхимик: Братство | Fullmetal Alchemist: Brotherhood»

pic
- Год выхода: 2009-2010
- Страна: Япония
- Жанр: Аниме, мультфильм, боевик, приключения, драма, фэнтези
- Продолжительность: ~ 00:25:00
- Перевод: Дублированный [СВ-Дубль]
- Перевод: Любительский многоголосый [STEPonee]
- Субтитры: Russian
- Сезон: 1
- Серии: 1-64 из 64
- Режиссер: Ясухиро Ириэ, Икуро Сато, Киёмицу Сато
- В ролях: Роми Пак, Риэ Кугимия, Мэгуми Такамото, Синъитиро Мики, Фумико Орикаса, Кэндзи Уцуми, Кэйдзи Фудзивара, Юдзи Уэда, Бити Сато, Тэцуя Какихара, Кэндзи Хамада, Каори Надзука, Хидэкацу Сибата, Кэнта Миякэ, Кикуко Иноэ, Тэцу Сиратори, Минами Такаяма, Хироюки Ёсино
- О фильме: Лира Нарушив главный запрет Алхимии и попытавшись воскресить маму, талантливые братья Элрики заплатили высокую цену: младший, Альфонс, потерял тело, и теперь его душа прикреплена к стальным доспехам, а старший, Эдвард, лишился руки и ноги, поэтому ему приходится пользоваться протезами — автобронёй. Благодаря проявленным способностям Эд получил звание государственного алхимика и, таким образом, стал частью военной машины государства. Теперь у него есть шанс вернуть Альфонсу прежнее тело.

- Качество: BDRip 1080p
- Формат: MKV
- Видео кодек: HEVC
- Аудио кодек: AC3
- Видео: HEVC, 1920x1080 (16:9), 23.976 fps, 1 643 Kbps (0.033 bit/pixel)
- Аудио : 48.0 kHz, AC3 Dolby Digital, 2/0 (L,R) ch, ~192 kbps Russian | СВ-Дубль
- Аудио : 48.0 kHz, AC3 Dolby Digital, 2/0 (L,R) ch, ~192 kbps Russian | STEPonee
- Аудио : 48.0 kHz, AC3 Dolby Digital, 2/0 (L,R) ch, ~192 kbps Japanese
Рейтинг
pic
MediaInfo

Код:

Fullmetal Alchemist Brotherhood [1080p]/Fullmetal Alchemist Brotherhood 01.mkv
Format                                   : Matroska
Format version                           : Version 4 / Version 2
File size                                : 397 MiB
Duration                                 : 24mn 29s
Overall bit rate                         : 2 264 Kbps
Movie name                               : [Reaktor] Fullmetal Alchemist Brotherhood - E01
Encoded date                             : UTC 2018-04-17T01:12:37Z
Writing application                      : mkvmerge v31.0.0 ('Dolores In A Shoestand') 64-bit
Writing library                          : Lavf57.7.2
Attachements                             : Wunderlich-Medium.otf / Calligraphic-810-BT.ttf / A-OTF-SHINMGOPRO-MEDIUM.OTF / DFPHSMincho-W9.ttf
DURATION                                 : 00:24:15.860000000
NUMBER_OF_FRAMES                         : 353
NUMBER_OF_BYTES                          : 32585
_STATISTICS_WRITING_APP                  : mkvmerge v31.0.0 ('Dolores In A Shoestand') 64-bit
_STATISTICS_WRITING_DATE_UTC             : 2019-02-20 23:10:53
_STATISTICS_TAGS                         : BPS DURATION NUMBER_OF_FRAMES NUMBER_OF_BYTES

Video
ID                                       : 2
Format                                   : HEVC
Format/Info                              : High Efficiency Video Coding
Format profile                           : Main [email protected]
Codec ID                                 : V_MPEGH/ISO/HEVC
Duration                                 : 24mn 29s
Bit rate                                 : 1 643 Kbps
Width                                    : 1 920 pixels
Height                                   : 1 080 pixels
Display aspect ratio                     : 16:9
Frame rate mode                          : Constant
Frame rate                               : 23.976 fps
Color space                              : YUV
Chroma subsampling                       : 4:2:0
Bit depth                                : 10 bits
Bits/(Pixel*Frame)                       : 0.033
Stream size                              : 288 MiB (73%)
Writing library                          : x265 2.3:[Windows][GCC 5.3.1][64 bit] 10bit
Encoding settings                        : cpuid=1173503 / frame-threads=2 / numa-pools=4 / wpp / no-pmode / no-pme / no-psnr / no-ssim / log-level=2 / input-csp=1 / input-res=1920x1080 / interlace=0 / total-frames=0 / level-idc=0 / high-tier=1 / uhd-bd=0 / ref=3 / no-allow-non-conformance / no-repeat-headers / annexb / no-aud / no-hrd / info / hash=0 / no-temporal-layers / open-gop / min-keyint=24 / keyint=240 / bframes=4 / b-adapt=0 / b-pyramid / bframe-bias=0 / rc-lookahead=15 / lookahead-slices=6 / scenecut=40 / no-intra-refresh / ctu=64 / min-cu-size=8 / no-rect / no-amp / max-tu-size=32 / tu-inter-depth=1 / tu-intra-depth=1 / limit-tu=0 / rdoq-level=0 / dynamic-rd=0.00 / signhide / no-tskip / nr-intra=0 / nr-inter=0 / no-constrained-intra / strong-intra-smoothing / max-merge=2 / limit-refs=3 / no-limit-modes / me=1 / subme=2 / merange=57 / temporal-mvp / weightp / no-weightb / no-analyze-src-pics / deblock=0:0 / sao / no-sao-non-deblock / rd=2 / no-early-skip / rskip / fast-intra / no-tskip-fast / no-cu-lossless / no-b-intra / rdpenalty=0 / psy-rd=2.00 / psy-rdoq=0.00 / no-rd-refine / analysis-mode=0 / no-lossless / cbqpoffs=0 / crqpoffs=0 / rc=crf / crf=21.0 / qcomp=0.60 / qpstep=4 / stats-write=0 / stats-read=0 / ipratio=1.40 / pbratio=1.30 / aq-mode=1 / aq-strength=1.00 / cutree / zone-count=0 / no-strict-cbr / qg-size=32 / no-rc-grain / qpmax=69 / qpmin=0 / sar=1 / overscan=0 / videoformat=5 / range=0 / colorprim=1 / transfer=1 / colormatrix=1 / chromaloc=0 / display-window=0 / max-cll=0,0 / min-luma=0 / max-luma=1023 / log2-max-poc-lsb=8 / vui-timing-info / vui-hrd-info / slices=1 / opt-qp-pps / opt-ref-list-length-pps / no-multi-pass-opt-rps / scenecut-bias=0.05 / no-opt-cu-delta-qp / no-aq-motion / no-hdr
Default                                  : Yes
Forced                                   : No

Audio #1
ID                                       : 1
Format                                   : AC-3
Format/Info                              : Audio Coding 3
Mode extension                           : CM (complete main)
Format settings, Endianness              : Big
Codec ID                                 : A_AC3
Duration                                 : 24mn 29s
Bit rate mode                            : Constant
Bit rate                                 : 192 Kbps
Channel(s)                               : 2 channels
Channel positions                        : Front: L R
Sampling rate                            : 48.0 KHz
Bit depth                                : 16 bits
Compression mode                         : Lossy
Delay relative to video                  : -5ms
Stream size                              : 33.6 MiB (8%)
Language                                 : Russian
Default                                  : Yes
Forced                                   : No
DURATION                                 : 00:24:29.635000000
NUMBER_OF_FRAMES                         : 35236
NUMBER_OF_BYTES                          : 301898428
_STATISTICS_WRITING_APP                  : mkvmerge v31.0.0 ('Dolores In A Shoestand') 64-bit
_STATISTICS_WRITING_DATE_UTC             : 2019-02-20 23:10:53
_STATISTICS_TAGS                         : BPS DURATION NUMBER_OF_FRAMES NUMBER_OF_BYTES

Audio #2
ID                                       : 3
Format                                   : AC-3
Format/Info                              : Audio Coding 3
Mode extension                           : CM (complete main)
Format settings, Endianness              : Big
Codec ID                                 : A_AC3
Duration                                 : 24mn 29s
Bit rate mode                            : Constant
Bit rate                                 : 192 Kbps
Channel(s)                               : 2 channels
Channel positions                        : Front: L R
Sampling rate                            : 48.0 KHz
Bit depth                                : 16 bits
Compression mode                         : Lossy
Delay relative to video                  : -5ms
Stream size                              : 33.6 MiB (8%)
Language                                 : Russian
Default                                  : No
Forced                                   : No
DURATION                                 : 00:24:29.632000000
NUMBER_OF_FRAMES                         : 45926
NUMBER_OF_BYTES                          : 35271168
_STATISTICS_WRITING_APP                  : mkvmerge v31.0.0 ('Dolores In A Shoestand') 64-bit
_STATISTICS_WRITING_DATE_UTC             : 2019-02-20 23:10:53
_STATISTICS_TAGS                         : BPS DURATION NUMBER_OF_FRAMES NUMBER_OF_BYTES

Audio #3
ID                                       : 4
Format                                   : AC-3
Format/Info                              : Audio Coding 3
Mode extension                           : CM (complete main)
Format settings, Endianness              : Big
Codec ID                                 : A_AC3
Duration                                 : 24mn 29s
Bit rate mode                            : Constant
Bit rate                                 : 192 Kbps
Channel(s)                               : 2 channels
Channel positions                        : Front: L R
Sampling rate                            : 48.0 KHz
Bit depth                                : 16 bits
Compression mode                         : Lossy
Delay relative to video                  : -5ms
Stream size                              : 33.6 MiB (8%)
Title                                    : Japanese
Language                                 : Japanese
Default                                  : No
Forced                                   : No

Text
ID                                       : 5
Format                                   : ASS
Codec ID                                 : S_TEXT/ASS
Codec ID/Info                            : Advanced Sub Station Alpha
Compression mode                         : Lossless
Language                                 : Russian
Default                                  : Yes
Forced                                   : No

Menu
00:00:00.000                             : :Prologue
00:00:59.017                             : :OP
00:02:28.857                             : :Part A
00:10:55.155                             : :Part B
00:22:27.429                             : :ED
00:23:57.603                             : :Preview

Скриншоты
Внимание!: Раздача ведётся путём добавления новых серий
Внимание! Раздача ведётся путём добавления новых серий; при каждом добавлении создётся новый торрент. Чтобы начать докачку новой серии, пользователям необходимо сделать следующее:
(1) остановить скачивание,
(2) удалить старый торрент у себя из клиента (старые серии удалять не надо),
(3) скачать новый торрент и запустить его у себя в клиенте вместо старого, при этом указать клиенту путь в старую папку куда и должно происходить скачивание новых серий.

Ваш клиент при этом должен произвести хеширование (проверку) старой папки (если не производит сам - помогите ему сделать это), и будет докачивать только те серии которых у вас ещё нет. Старые серии при этом не удаляются, а продолжают раздаваться!

Eсли вы уже удалили старые серии, то предотвратить повторную закачку старых серий можно, отжав галочку в соответсвующих местах при запуске нового торрента. По возможности, желательно не удалять старые серии как можно дольше чтобы релизёр не столько продолжал раздавать старые серии, а смог сконцентрироваться на новых.


pic
Fullmetal Alchemist Brotherhood (1080p).torrent
 СЕРЕБРЯНАЯ РАЗДАЧА! СКАЧАННОЕ ЗАСЧИТЫВАЕТСЯ ТОЛЬКО НАПОЛОВИНУ! 
Вечный
Трекер: Зарегистрирован

magnet ссылка

 


Скачать .torrent

954 KB

Статус: проверено (by Snowden в 09-Ноя-19 14:29)
Зарегистрирован: 09-Ноя-19 00:56
Скачан: 50 раз
Размер: 23.74 GB | 
Поблагодарили:
Скачать Стальной алхимик: Братство | 1 сезон: 1-64 серии из 64 | Fullmetal Alchemist: Brotherhood (Ясухиро Ириэ, Икуро Сато, Киёмицу Сато) [2009-2010, Аниме, мультфильм, боевик, приключения, драма, фэнтези, BDRip 1080p] [HEVC] DUB СВ-Дубль | MVO STEPonee торрент
 


Похожие раздачи

FEAR_666

post 09-Ноя-19 10:17 (спустя 9 часов)

У братства нет второго сезона.Выходили 2 аниме сериала по этой манге. Первый 2003 года где то до середины поддерживался оригинала ,а потом пошел по своему пути. Второй же 2009 полностью был снят по оригиналу и был более жестким, чем "детский" первый.

Hollow

post 09-Ноя-19 12:06 (спустя 1 час 49 минут)

Забираю,спасибо

Текущее время: 15-Ноя 11:04

Часовой пояс: GMT + 3



Вы не можете начинать темы
Вы не можете отвечать на сообщения
Вы не можете редактировать свои сообщения
Вы не можете удалять свои сообщения
Вы не можете голосовать в опросах
Вы не можете прикреплять файлы к сообщениям
Вы не можете скачивать файлы