Loading...
Error
 

Скачать торрент Паразит: Учение о жизни / Kiseiju: Sei no kakuritsu (Кэнити Симидзу) [TV-1] [24 из 24] [2014, аниме, мультфильм, ужасы, драма, фантастика, BDRip 1080p] [HEVC] [DUB][СВ-Дубль] [MVO][KanSaI] [MVO][AniDUB]

 
Автор Сообщение

Roman2013

post 09-Ноя-19 17:35

Паразит: Учение о жизни / Parasyte: The Maxim / Kiseiju: Sei no kakuritsu
pic

Год выпуска: 2014
Страна: Япония
Студия: Madhouse Studios
Жанр: Аниме, мультфильм, ужасы, драма, фантастика
Продолжительность: 24 эпизода, по ~ 00:23:00
Перевод: Дублированный (СВ-Дубль)
Многоголосый закадровый (KanSaI)
Многоголосый закадровый (AniDUB)
Субтитры: Русские
Режиссёр: Кэнити Симидзу, Юки Инаба, Кэнъити Кавамура
Роли озвучивали: Масаки Аидзава, Такая Аояги, Дзюнъя Эноки, Иссэи Футамата, Синъя Хамадзоэ, Кана Ханадзава, Ая Хирано, Кадзухико Иноуэ, Акира Исида, Кэнъитиро Охаси
Описание:
Паразиты — создания, живущие за счёт своего носителя. Обладают совершенно нечеловеческой силой. Посланные небом они должны проникать в мозг человека для полной власти над носителем. Но кому как повезёт. Именно неудача одного паразита спасает жизнь школьника Синдзи Идзуми. Но и эта же неудача делает его носителем этого загадочного существа, обрекая Синдзи на постоянную борьбу за выживание с другими, более сильными паразитами.

Качество: BDRip 1080p
Формат: MKV
Видео кодек: HEVC (H.265)
Аудио кодек: AC-3, AAC
Видео : 1920 x 1080 / ~952 kbps / 23.976 fps / 0.019 bp / 10 bit
Аудио №1: Русский, СВ-Дубль: AC-3 / 2.0/ 48 kHz/ 192 Kbps
Аудио №2: Русский, KanSaI: AAC / 2.0/ 48 kHz/ 192 Kbps
Аудио №3: Русский, AniDUB: AAC / 2.0/ 48 kHz/ 192 Kbps
Аудио №4: Японский, 日本語: AAC / 2.0/ 48 kHz/ 100 Kbps

Рейтинг
pic Возрастное ограничение: 18+
Kiseijuu - Sei no Kakuritsu - 1 Trailer
MediaInfo
General
Unique ID : 257285387271341683605034123272183577719 (0xC18F5CF80C535D0836BB0BBCC6477C77)
Complete name : Kiseijuu.Sei.no.Kakuritsu.2014.TV1.HEVC.BDRIP.1080\Kiseijuu Sei no Kakuritsu 01.mkv
Format : Matroska
Format version : Version 4
File size : 268 MiB
Duration : 22 min 51 s
Overall bit rate : 1 638 kb/s
Movie name :
Encoded date : UTC 2019-11-09 12:52:46
Writing application : mkvmerge v37.0.0 ('Leave It') 64-bit
Writing library : libebml v1.3.9 + libmatroska v1.5.2
Attachments : Alpha54.ttf / ArtificeSSK.ttf / AVERIASANS-LIGHT.ttf / DAYROM.ttf / GandhiSans-Bold.otf / GandhiSans-BoldItalic.otf / helvetica-neue-bold.ttf / JandaEverydayCasual.ttf / Kreon-Bold.ttf / Kreon-Regular.ttf / OctemberScript.ttf / AVERIASANS-LIGHT.TTF

Video
ID : 1
Format : HEVC
Format/Info : High Efficiency Video Coding
Format profile : Main [email protected]@Main
Codec ID : V_MPEGH/ISO/HEVC
Duration : 22 min 51 s
Bit rate : 952 kb/s
Width : 1 920 pixels
Height : 1 080 pixels
Display aspect ratio : 16:9
Frame rate mode : Constant
Frame rate : 23.976 (24000/1001) FPS
Color space : YUV
Chroma subsampling : 4:2:0
Bit depth : 10 bits
Bits/(Pixel*Frame) : 0.019
Stream size : 156 MiB (58%)
Writing library : x265 2.4+27-e9e574bbed93:[Windows][GCC 6.3.0][64 bit] 10bit
Encoding settings : cpuid=1173503 / frame-threads=2 / numa-pools=4 / wpp / no-pmode / no-pme / no-psnr / no-ssim / log-level=2 / input-csp=1 / input-res=1920x1080 / interlace=0 / total-frames=32872 / level-idc=51 / high-tier=0 / uhd-bd=0 / ref=2 / no-allow-non-conformance / no-repeat-headers / annexb / no-aud / no-hrd / info / hash=1 / no-temporal-layers / open-gop / min-keyint=23 / keyint=250 / bframes=4 / b-adapt=2 / b-pyramid / bframe-bias=0 / rc-lookahead=15 / lookahead-slices=0 / scenecut=40 / no-intra-refresh / ctu=32 / min-cu-size=8 / no-rect / no-amp / max-tu-size=32 / tu-inter-depth=1 / tu-intra-depth=1 / limit-tu=0 / rdoq-level=0 / dynamic-rd=0.00 / no-ssim-rd / signhide / no-tskip / nr-intra=0 / nr-inter=0 / no-constrained-intra / strong-intra-smoothing / max-merge=2 / limit-refs=0 / no-limit-modes / me=3 / subme=2 / merange=57 / temporal-mvp / weightp / no-weightb / no-analyze-src-pics / deblock=0:0 / sao / no-sao-non-deblock / rd=2 / early-skip / no-rskip / fast-intra / no-tskip-fast / no-cu-lossless / no-b-intra / rdpenalty=0 / psy-rd=0.40 / psy-rdoq=0.00 / no-rd-refine / analysis-mode=0 / no-lossless / cbqpoffs=0 / crqpoffs=0 / rc=crf / crf=25.0 / qcomp=0.70 / qpstep=4 / stats-write=0 / stats-read=0 / vbv-maxrate=40000 / vbv-bufsize=40000 / vbv-init=0.9 / crf-max=0.0 / crf-min=0.0 / ipratio=1.40 / pbratio=1.30 / aq-mode=2 / aq-strength=0.60 / no-cutree / zone-count=0 / no-strict-cbr / qg-size=32 / no-rc-grain / qpmax=69 / qpmin=0 / sar=0 / overscan=0 / videoformat=5 / range=0 / colorprim=1 / transfer=1 / colormatrix=1 / chromaloc=0 / display-window=0 / max-cll=0,0 / min-luma=0 / max-luma=1023 / log2-max-poc-lsb=8 / vui-timing-info / vui-hrd-info / slices=1 / opt-qp-pps / opt-ref-list-length-pps / no-multi-pass-opt-rps / scenecut-bias=0.05 / no-opt-cu-delta-qp / no-aq-motion / no-hdr / no-hdr-opt / no-dhdr10-opt / refine-level=5 / no-limit-sao / ctu-info=0
Default : Yes
Forced : No
Color range : Limited
Color primaries : BT.709
Transfer characteristics : BT.709
Matrix coefficients : BT.709

Audio #1
ID : 2
Format : AC-3
Format/Info : Audio Coding 3
Commercial name : Dolby Digital
Codec ID : A_AC3
Duration : 22 min 50 s
Bit rate mode : Constant
Bit rate : 192 kb/s
Channel(s) : 2 channels
Channel layout : L R
Sampling rate : 48.0 kHz
Frame rate : 31.250 FPS (1536 SPF)
Bit depth : 16 bits
Compression mode : Lossy
Stream size : 31.4 MiB (12%)
Title : СВ-Дубль
Language : Russian
Service kind : Complete Main
Default : Yes
Forced : No

Audio #2
ID : 3
Format : AAC LC
Format/Info : Advanced Audio Codec Low Complexity
Codec ID : A_AAC-2
Duration : 22 min 50 s
Bit rate : 192 kb/s
Channel(s) : 2 channels
Channel layout : L R
Sampling rate : 48.0 kHz
Frame rate : 46.875 FPS (1024 SPF)
Compression mode : Lossy
Delay relative to video : 9 ms
Stream size : 31.4 MiB (12%)
Title : Kansai
Language : Russian
Default : No
Forced : No

Audio #3
ID : 4
Format : AAC LC
Format/Info : Advanced Audio Codec Low Complexity
Codec ID : A_AAC-2
Duration : 22 min 50 s
Bit rate : 192 kb/s
Channel(s) : 2 channels
Channel layout : L R
Sampling rate : 48.0 kHz
Frame rate : 46.875 FPS (1024 SPF)
Compression mode : Lossy
Stream size : 31.4 MiB (12%)
Title : AniDub
Language : Russian
Default : No
Forced : No

Audio #4
ID : 5
Format : AAC LC
Format/Info : Advanced Audio Codec Low Complexity
Codec ID : A_AAC-2
Duration : 22 min 51 s
Bit rate : 100 kb/s
Channel(s) : 2 channels
Channel layout : L R
Sampling rate : 48.0 kHz
Frame rate : 46.875 FPS (1024 SPF)
Compression mode : Lossy
Delay relative to video : 20 ms
Stream size : 16.4 MiB (6%)
Title : Japanese Stereo
Language : Japanese
Default : No
Forced : No

Text
ID : 6
Format : ASS
Codec ID : S_TEXT/ASS
Codec ID/Info : Advanced Sub Station Alpha
Duration : 22 min 45 s
Bit rate : 350 b/s
Count of elements : 647
Compression mode : Lossless
Stream size : 58.5 KiB (0%)
Language : Russian
Default : Yes
Forced : No
Скриншоты
Kiseijuu.Sei.no.Kakuritsu.2014.TV1.HEVC.BDRIP.1080.torrent
Трекер: Зарегистрирован

magnet ссылка

 


Скачать .torrent

16 KB

Статус: проверено (by Snowden в 09-Ноя-19 17:53)
Зарегистрирован: 09-Ноя-19 17:35
Скачан: 45 раз
Размер: 5.76 GB | 
Поблагодарили:
Скачать Паразит: Учение о жизни / Kiseiju: Sei no kakuritsu (Кэнити Симидзу) [TV-1] [24 из 24] [2014, аниме, мультфильм, ужасы, драма, фантастика, BDRip 1080p] [HEVC] [DUB][СВ-Дубль] [MVO][KanSaI] [MVO][AniDUB] торрент
 


Похожие раздачи

Tereck

post 09-Ноя-19 19:59 (спустя 2 часа 24 минуты)

У этого мультика, только один сезон ?

Neraks

post 09-Ноя-19 20:58 (спустя 58 минут)

Ц Tereck писал(а):

У этого мультика, только один сезон ?
Да. Насколько Я помню тут сняли всю мангу.

Bobrovschi

post 09-Ноя-19 23:46 (спустя 2 часа 47 минут)

Японский веном

Hanzo666

post 10-Ноя-19 01:55 (спустя 2 часа 8 минут)

Bobrovschi
Больше смахивает на "The thing".

Текущее время: 23-Ноя 01:42

Часовой пояс: GMT + 3



Вы не можете начинать темы
Вы не можете отвечать на сообщения
Вы не можете редактировать свои сообщения
Вы не можете удалять свои сообщения
Вы не можете голосовать в опросах
Вы не можете прикреплять файлы к сообщениям
Вы не можете скачивать файлы