Loading...
Error
 

Скачать торрент (Europop, Dance) Ace Of Base - Gold (3CD) - 2019 [FLAC, image +.cue, lossless]

 
Автор Сообщение

trygg

post 09-Ноя-19 22:16


Ace Of Base - Gold (3CD)


pic
Год издания: 2019
Страна: Sweden pic
Жанр: Europop, Dance
Продолжительность: 02:58:05
Лейбл издания: Crimson
Страна-выпуска диска: EU pic
Номер по каталогу: CRIMCD648
Формат: FLAC
Битрейт аудио: Lossless
Тип рипа: image +.cue
Наличие сканов в содержимом раздачи: да

pic
Трэклист
pic
CD 1 | 00:55:13
pic
01. The Sign (3:11)
02. All That She Wants (3:32)
03. Wheel Of Fortune (3:43)
04. Lucky In Love (2:54)
05. Beautiful Life (3:41)
06. Happy Nation (Radio Edit) (3:34)
07. Life Is A Flower (3:47)
08. Don't Turn Around (3:53)
09. Hallo Hallo (2:53)
10. Always Have, Always Will (3:46)
11. Cruel Summer (Big Bonus Mix) (4:08)
12. Unspeakable (3:16)
13. C'est La Vie (Always 21) (3:28)
14. Living In Danger (Single Edit) (3:13)
15. Beautiful Morning (3:02)
16. Da Capo (3:13)
CD 2 | 01:13:26
pic
01. Wheel Of Fortune (2009) (3:45)
02. Don't Turn Around (2009) (3:07)
03. The Sign (The Remix) (5:42)
04. Cruel Summer (Soul Poets House Bust) (3:42)
05. Never Gonna Say I'm Sorry (Sweetbox Funky Mix) (6:48)
06. Life Is A Flower (Soul Poets Night Club Mix) (5:20)
07. All That She Wants (Madness Version) (3:34)
08. Lucky Love (Raggasol Version) (2:55)
09. Travel To Romantis (Love To Infinity Master Mix) (7:22)
10. C'est La Vie (Always 21) (Remix) (3:57)
11. Happy Nation (Moody Gold Mix) (4:02)
12. Hallo Hallo (Dub) (4:48)
13. Living In Danger (D-House Mix Short Version) (4:05)
14. Beautiful Life (Lenny B's House Of Joy Club Mix) (6:58)
15. Megamix (Long Version) (7:20)
CD 3 | 00:49:27
pic
01. Would You Believe (2:49)
02. Go Go Go (3:30)
03. Into The Blue Of Night (4:12)
04. Don't Stop (2:48)
05. Make My Day (2:55)
06. Mercy Mercy (3:37)
07. No Good Lover (3:34)
08. Summer Days (3:47)
09. Giving It Up (Remake) (2:47)
10. Come To Me (3:55)
11. Prime Time (3:15)
12. Look Around Me (3:15)
13. Pole Position (3:21)
14. Sunset In Southern California (3:11)
15. Moment Of Magic (2:30)

pic
Лог создания рипа
CD 1

Код:

Exact Audio Copy V1.0 beta 3 from 29. August 2011

EAC extraction logfile from 30. October 2019, 13:29

Ace Of Base / Gold CD1

Used drive  : PIONEER BD-RW   BDR-TD03   Adapter: 0  ID: 1

Read mode               : Secure
Utilize accurate stream : Yes
Defeat audio cache      : Yes
Make use of C2 pointers : No

Read offset correction                      : 667
Overread into Lead-In and Lead-Out          : No
Fill up missing offset samples with silence : Yes
Delete leading and trailing silent blocks   : No
Null samples used in CRC calculations       : Yes
Used interface                              : Native Win32 interface for Win NT & 2000

Used output format              : User Defined Encoder
Selected bitrate                : 768 kBit/s
Quality                         : High
Add ID3 tag                     : No
Command line compressor         : C:\Program Files (x86)\Exact Audio Copy\FLAC\FLAC.EXE
Additional command line options : -V -8 -T "Date=%year%" -T "Genre=%genre%" %source%

TOC of the extracted CD

     Track |   Start  |  Length  | Start sector | End sector
    ---------------------------------------------------------
        1  |  0:00.00 |  3:11.18 |         0    |    14342
        2  |  3:11.18 |  3:32.20 |     14343    |    30262
        3  |  6:43.38 |  3:42.68 |     30263    |    46980
        4  | 10:26.31 |  2:53.65 |     46981    |    60020
        5  | 13:20.21 |  3:41.00 |     60021    |    76595
        6  | 17:01.21 |  3:34.00 |     76596    |    92645
        7  | 20:35.21 |  3:46.44 |     92646    |   109639
        8  | 24:21.65 |  3:52.73 |    109640    |   127112
        9  | 28:14.63 |  2:52.45 |    127113    |   140057
       10  | 31:07.33 |  3:45.67 |    140058    |   156999
       11  | 34:53.25 |  4:07.45 |    157000    |   175569
       12  | 39:00.70 |  3:15.47 |    175570    |   190241
       13  | 42:16.42 |  3:28.33 |    190242    |   205874
       14  | 45:45.00 |  3:13.20 |    205875    |   220369
       15  | 48:58.20 |  3:01.48 |    220370    |   233992
       16  | 51:59.68 |  3:13.10 |    233993    |   248477

Range status and errors

Selected range

     Filename C:\Users\Deris\Desktop\kpnemo.eu\AcofBaGold\CD1\Ace Of Base - Gold CD1.wav

     Peak level 94.3 %
     Extraction speed 3.3 X
     Range quality 99.9 %
     Test CRC D73B30F2
     Copy CRC D73B30F2
     Copy OK

No errors occurred

AccurateRip summary

Track  1  not present in database
Track  2  not present in database
Track  3  not present in database
Track  4  not present in database
Track  5  not present in database
Track  6  not present in database
Track  7  not present in database
Track  8  not present in database
Track  9  not present in database
Track 10  not present in database
Track 11  not present in database
Track 12  not present in database
Track 13  not present in database
Track 14  not present in database
Track 15  not present in database
Track 16  not present in database

None of the tracks are present in the AccurateRip database

End of status report
CD 2

Код:

Exact Audio Copy V1.0 beta 3 from 29. August 2011

EAC extraction logfile from 30. October 2019, 23:35

Ace Of Base / Gold CD2

Used drive  : PIONEER BD-RW   BDR-TD03   Adapter: 0  ID: 1

Read mode               : Secure
Utilize accurate stream : Yes
Defeat audio cache      : Yes
Make use of C2 pointers : No

Read offset correction                      : 667
Overread into Lead-In and Lead-Out          : No
Fill up missing offset samples with silence : Yes
Delete leading and trailing silent blocks   : No
Null samples used in CRC calculations       : Yes
Used interface                              : Native Win32 interface for Win NT & 2000

Used output format              : User Defined Encoder
Selected bitrate                : 768 kBit/s
Quality                         : High
Add ID3 tag                     : No
Command line compressor         : C:\Program Files (x86)\Exact Audio Copy\FLAC\FLAC.EXE
Additional command line options : -V -8 -T "Date=%year%" -T "Genre=%genre%" %source%

TOC of the extracted CD

     Track |   Start  |  Length  | Start sector | End sector
    ---------------------------------------------------------
        1  |  0:00.00 |  3:44.54 |         0    |    16853
        2  |  3:44.54 |  3:06.58 |     16854    |    30861
        3  |  6:51.37 |  5:42.32 |     30862    |    56543
        4  | 12:33.69 |  3:41.70 |     56544    |    73188
        5  | 16:15.64 |  6:48.18 |     73189    |   103806
        6  | 23:04.07 |  5:19.52 |    103807    |   127783
        7  | 28:23.59 |  3:33.61 |    127784    |   143819
        8  | 31:57.45 |  2:55.23 |    143820    |   156967
        9  | 34:52.68 |  7:22.08 |    156968    |   190125
       10  | 42:15.01 |  3:57.36 |    190126    |   207936
       11  | 46:12.37 |  4:01.73 |    207937    |   226084
       12  | 50:14.35 |  4:48.13 |    226085    |   247697
       13  | 55:02.48 |  4:05.18 |    247698    |   266090
       14  | 59:07.66 |  6:57.41 |    266091    |   297406
       15  | 66:05.32 |  7:20.07 |    297407    |   330413

Range status and errors

Selected range

     Filename C:\Users\Deris\Desktop\kpnemo.eu\AcofBaGold\CD2\Ace Of Base - Gold CD2.wav

     Peak level 94.3 %
     Extraction speed 2.1 X
     Range quality 100.0 %
     Test CRC 36E34D1C
     Copy CRC 36E34D1C
     Copy OK

No errors occurred

AccurateRip summary

Track  1  not present in database
Track  2  not present in database
Track  3  not present in database
Track  4  not present in database
Track  5  not present in database
Track  6  not present in database
Track  7  not present in database
Track  8  not present in database
Track  9  not present in database
Track 10  not present in database
Track 11  not present in database
Track 12  not present in database
Track 13  not present in database
Track 14  not present in database
Track 15  not present in database

None of the tracks are present in the AccurateRip database

End of status report
CD 3

Код:

Exact Audio Copy V1.0 beta 3 from 29. August 2011

EAC extraction logfile from 31. October 2019, 1:46

Ace Of Base / Gold CD3

Used drive  : PIONEER BD-RW   BDR-TD03   Adapter: 0  ID: 1

Read mode               : Secure
Utilize accurate stream : Yes
Defeat audio cache      : Yes
Make use of C2 pointers : No

Read offset correction                      : 667
Overread into Lead-In and Lead-Out          : No
Fill up missing offset samples with silence : Yes
Delete leading and trailing silent blocks   : No
Null samples used in CRC calculations       : Yes
Used interface                              : Native Win32 interface for Win NT & 2000

Used output format              : User Defined Encoder
Selected bitrate                : 768 kBit/s
Quality                         : High
Add ID3 tag                     : No
Command line compressor         : C:\Program Files (x86)\Exact Audio Copy\FLAC\FLAC.EXE
Additional command line options : -V -8 -T "Date=%year%" -T "Genre=%genre%" %source%

TOC of the extracted CD

     Track |   Start  |  Length  | Start sector | End sector
    ---------------------------------------------------------
        1  |  0:00.00 |  2:48.53 |         0    |    12652
        2  |  2:48.53 |  3:30.32 |     12653    |    28434
        3  |  6:19.10 |  4:11.67 |     28435    |    47326
        4  | 10:31.02 |  2:47.71 |     47327    |    59922
        5  | 13:18.73 |  2:55.10 |     59923    |    73057
        6  | 16:14.08 |  3:37.34 |     73058    |    89366
        7  | 19:51.42 |  3:34.30 |     89367    |   105446
        8  | 23:25.72 |  3:46.51 |    105447    |   122447
        9  | 27:12.48 |  2:46.61 |    122448    |   134958
       10  | 29:59.34 |  3:55.27 |    134959    |   152610
       11  | 33:54.61 |  3:15.31 |    152611    |   167266
       12  | 37:10.17 |  3:14.46 |    167267    |   181862
       13  | 40:24.63 |  3:21.00 |    181863    |   196937
       14  | 43:45.63 |  3:10.57 |    196938    |   211244
       15  | 46:56.45 |  2:30.19 |    211245    |   222513

Range status and errors

Selected range

     Filename C:\Users\Deris\Desktop\kpnemo.eu\AcofBaGold\CD3\Ace Of Base - Gold CD3.wav

     Peak level 88.4 %
     Extraction speed 2.4 X
     Range quality 100.0 %
     Test CRC F140C937
     Copy CRC F140C937
     Copy OK

No errors occurred

AccurateRip summary

Track  1  not present in database
Track  2  not present in database
Track  3  not present in database
Track  4  not present in database
Track  5  not present in database
Track  6  not present in database
Track  7  not present in database
Track  8  not present in database
Track  9  not present in database
Track 10  not present in database
Track 11  not present in database
Track 12  not present in database
Track 13  not present in database
Track 14  not present in database
Track 15  not present in database

None of the tracks are present in the AccurateRip database

End of status report
Индексная карта (non-compilant .cue)
CD 1

Код:

REM GENRE Pop
REM DATE 2019
REM DISCID D80CF110
REM COMMENT "ExactAudioCopy v1.0b3"
PERFORMER "Ace Of Base"
TITLE "Gold CD1"
FILE "Ace Of Base - Gold CD1.flac" WAVE
  TRACK 01 AUDIO
    TITLE "The Sign"
    PERFORMER "Ace Of Base"
    FLAGS DCP
    INDEX 01 00:00:00
  TRACK 02 AUDIO
    TITLE "All That She Wants"
    PERFORMER "Ace Of Base"
    FLAGS DCP
    INDEX 00 03:11:16
    INDEX 01 03:11:18
  TRACK 03 AUDIO
    TITLE "Wheel Of Fortune"
    PERFORMER "Ace Of Base"
    FLAGS DCP
    INDEX 00 06:43:36
    INDEX 01 06:43:38
  TRACK 04 AUDIO
    TITLE "Lucky In Love"
    PERFORMER "Ace Of Base"
    FLAGS DCP
    INDEX 00 10:26:30
    INDEX 01 10:26:31
  TRACK 05 AUDIO
    TITLE "Beautiful Life"
    PERFORMER "Ace Of Base"
    FLAGS DCP
    INDEX 00 13:20:19
    INDEX 01 13:20:21
  TRACK 06 AUDIO
    TITLE "Happy Nation (Radio Edit)"
    PERFORMER "Ace Of Base"
    FLAGS DCP
    INDEX 00 17:01:19
    INDEX 01 17:01:21
  TRACK 07 AUDIO
    TITLE "Life Is A Flower"
    PERFORMER "Ace Of Base"
    FLAGS DCP
    INDEX 00 20:35:19
    INDEX 01 20:35:21
  TRACK 08 AUDIO
    TITLE "Don't Turn Around"
    PERFORMER "Ace Of Base"
    FLAGS DCP
    INDEX 00 24:21:63
    INDEX 01 24:21:65
  TRACK 09 AUDIO
    TITLE "Hallo Hallo"
    PERFORMER "Ace Of Base"
    FLAGS DCP
    INDEX 00 28:14:61
    INDEX 01 28:14:63
  TRACK 10 AUDIO
    TITLE "Always Have, Always Will"
    PERFORMER "Ace Of Base"
    FLAGS DCP
    INDEX 00 31:07:31
    INDEX 01 31:07:33
  TRACK 11 AUDIO
    TITLE "Cruel Summer (Big Bonus Mix)"
    PERFORMER "Ace Of Base"
    FLAGS DCP
    INDEX 00 34:53:23
    INDEX 01 34:53:25
  TRACK 12 AUDIO
    TITLE "Unspeakable"
    PERFORMER "Ace Of Base"
    FLAGS DCP
    INDEX 00 39:00:68
    INDEX 01 39:00:70
  TRACK 13 AUDIO
    TITLE "C'est La Vie (Always 21)"
    PERFORMER "Ace Of Base"
    FLAGS DCP
    INDEX 00 42:16:41
    INDEX 01 42:16:42
  TRACK 14 AUDIO
    TITLE "Living In Danger (Single Edit)"
    PERFORMER "Ace Of Base"
    FLAGS DCP
    INDEX 01 45:45:00
  TRACK 15 AUDIO
    TITLE "Beautiful Morning"
    PERFORMER "Ace Of Base"
    FLAGS DCP
    INDEX 00 48:58:18
    INDEX 01 48:58:20
  TRACK 16 AUDIO
    TITLE "Da Capo"
    PERFORMER "Ace Of Base"
    FLAGS DCP
    INDEX 00 51:59:66
    INDEX 01 51:59:68
CD 2

Код:

REM GENRE Pop
REM DATE 2019
REM DISCID E511350F
REM COMMENT "ExactAudioCopy v1.0b3"
PERFORMER "Ace Of Base"
TITLE "Gold CD2"
FILE "Ace Of Base - Gold CD2.flac" WAVE
  TRACK 01 AUDIO
    TITLE "Wheel Of Fortune (2009)"
    PERFORMER "Ace Of Base"
    FLAGS DCP
    INDEX 01 00:00:00
  TRACK 02 AUDIO
    TITLE "Don't Turn Around (2009)"
    PERFORMER "Ace Of Base"
    FLAGS DCP
    INDEX 01 03:44:54
  TRACK 03 AUDIO
    TITLE "The Sign (The Remix)"
    PERFORMER "Ace Of Base"
    FLAGS DCP
    INDEX 01 06:51:37
  TRACK 04 AUDIO
    TITLE "Cruel Summer (Soul Poets House Bust)"
    PERFORMER "Ace Of Base"
    FLAGS DCP
    INDEX 01 12:33:69
  TRACK 05 AUDIO
    TITLE "Never Gonna Say I'm Sorry (Sweetbox Funky Mix)"
    PERFORMER "Ace Of Base"
    FLAGS DCP
    INDEX 01 16:15:64
  TRACK 06 AUDIO
    TITLE "Life Is A Flower (Soul Poets Night Club Mix)"
    PERFORMER "Ace Of Base"
    FLAGS DCP
    INDEX 01 23:04:07
  TRACK 07 AUDIO
    TITLE "All That She Wants (Madness Version)"
    PERFORMER "Ace Of Base"
    FLAGS DCP
    INDEX 01 28:23:59
  TRACK 08 AUDIO
    TITLE "Lucky Love (Raggasol Version)"
    PERFORMER "Ace Of Base"
    FLAGS DCP
    INDEX 01 31:57:45
  TRACK 09 AUDIO
    TITLE "Travel To Romantis (Love To Infinity Master Mix)"
    PERFORMER "Ace Of Base"
    FLAGS DCP
    INDEX 01 34:52:68
  TRACK 10 AUDIO
    TITLE "C'est La Vie (Always 21) (Remix)"
    PERFORMER "Ace Of Base"
    FLAGS DCP
    INDEX 01 42:15:01
  TRACK 11 AUDIO
    TITLE "Happy Nation (Moody Gold Mix)"
    PERFORMER "Ace Of Base"
    FLAGS DCP
    INDEX 01 46:12:37
  TRACK 12 AUDIO
    TITLE "Hallo Hallo (Dub)"
    PERFORMER "Ace Of Base"
    FLAGS DCP
    INDEX 01 50:14:35
  TRACK 13 AUDIO
    TITLE "Living In Danger (D-House Mix Short Version)"
    PERFORMER "Ace Of Base"
    FLAGS DCP
    INDEX 01 55:02:48
  TRACK 14 AUDIO
    TITLE "Beautiful Life (Lenny B's House Of Joy Club Mix)"
    PERFORMER "Ace Of Base"
    FLAGS DCP
    INDEX 01 59:07:66
  TRACK 15 AUDIO
    TITLE "Megamix (Long Version)"
    PERFORMER "Ace Of Base"
    FLAGS DCP
    INDEX 01 66:05:32
CD 3

Код:

REM GENRE Pop
REM DATE 2019
REM DISCID B80B960F
REM COMMENT "ExactAudioCopy v1.0b3"
PERFORMER "Ace Of Base"
TITLE "Gold CD3"
FILE "Ace Of Base - Gold CD3.flac" WAVE
  TRACK 01 AUDIO
    TITLE "Would You Believe"
    PERFORMER "Ace Of Base"
    FLAGS DCP
    INDEX 01 00:00:00
  TRACK 02 AUDIO
    TITLE "Go Go Go"
    PERFORMER "Ace Of Base"
    FLAGS DCP
    INDEX 01 02:48:53
  TRACK 03 AUDIO
    TITLE "Into The Blue Of Night"
    PERFORMER "Ace Of Base"
    FLAGS DCP
    INDEX 01 06:19:10
  TRACK 04 AUDIO
    TITLE "Don't Stop"
    PERFORMER "Ace Of Base"
    FLAGS DCP
    INDEX 01 10:31:02
  TRACK 05 AUDIO
    TITLE "Make My Day"
    PERFORMER "Ace Of Base"
    FLAGS DCP
    INDEX 01 13:18:73
  TRACK 06 AUDIO
    TITLE "Mercy Mercy"
    PERFORMER "Ace Of Base"
    FLAGS DCP
    INDEX 01 16:14:08
  TRACK 07 AUDIO
    TITLE "No Good Lover"
    PERFORMER "Ace Of Base"
    FLAGS DCP
    INDEX 01 19:51:42
  TRACK 08 AUDIO
    TITLE "Summer Days"
    PERFORMER "Ace Of Base"
    FLAGS DCP
    INDEX 01 23:25:72
  TRACK 09 AUDIO
    TITLE "Giving It Up (Remake)"
    PERFORMER "Ace Of Base"
    FLAGS DCP
    INDEX 01 27:12:48
  TRACK 10 AUDIO
    TITLE "Come To Me"
    PERFORMER "Ace Of Base"
    FLAGS DCP
    INDEX 01 29:59:34
  TRACK 11 AUDIO
    TITLE "Prime Time"
    PERFORMER "Ace Of Base"
    FLAGS DCP
    INDEX 01 33:54:61
  TRACK 12 AUDIO
    TITLE "Look Around Me"
    PERFORMER "Ace Of Base"
    FLAGS DCP
    INDEX 01 37:10:17
  TRACK 13 AUDIO
    TITLE "Pole Position"
    PERFORMER "Ace Of Base"
    FLAGS DCP
    INDEX 01 40:24:63
  TRACK 14 AUDIO
    TITLE "Sunset In Southern California"
    PERFORMER "Ace Of Base"
    FLAGS DCP
    INDEX 01 43:45:63
  TRACK 15 AUDIO
    TITLE "Moment Of Magic"
    PERFORMER "Ace Of Base"
    FLAGS DCP
    INDEX 01 46:56:45

pic
для ознакомления:


pic
pic
Ace Of Base - Gold (2019) FLAC_.torrent
Трекер: Зарегистрирован

magnet ссылка

 


Скачать .torrent

14 KB

Статус: проверено (by E IL o T IR i X в 09-Ноя-19 23:43)
Зарегистрирован: 09-Ноя-19 22:16
Скачан: 10 раз
Размер: 1.26 GB | 
Поблагодарили:
Скачать (Europop, Dance) Ace Of Base - Gold (3CD) - 2019 [FLAC, image +.cue, lossless] торрент
 


Похожие раздачи

Текущее время: 15-Ноя 10:31

Часовой пояс: GMT + 3



Вы не можете начинать темы
Вы не можете отвечать на сообщения
Вы не можете редактировать свои сообщения
Вы не можете удалять свои сообщения
Вы не можете голосовать в опросах
Вы не можете прикреплять файлы к сообщениям
Вы не можете скачивать файлы