Loading...
Error
 

Скачать торрент (Rock, Pop Rock) Freddie Mercury - Never Boring (3CD Box Set Mercury Records) - 2019 [FLAC, image +.cue, lossless]

 
Автор Сообщение

trygg

post 09-Ноя-19 22:21


Freddie Mercury - Never Boring (3CD Box Set)


pic
Год издания: 2019
Страна: Kensington, London, England pic
Жанр: Rock, Pop Rock
Продолжительность: 02;13;39
Лейбл издания: Mercury Records
Страна-выпуска диска: Czech Republic pic
Номер по каталогу: 0602577410499
Формат: FLAC
Битрейт аудио: Lossless
Тип рипа: image +.cue
Наличие сканов в содержимом раздачи: да

pic
Трэклист
pic
CD 1 - Never Boring | 00:48:36
pic
01. The Great Pretender (3:27)
02. I Was Born To Love You (3:38)
03. Barcelona (5:42)
04. In My Defence (3:52)
05. Love Kills (4:29)
06. How Can I Go On (3:58)
07. Love Me Like There’s No Tomorrow (3:45)
08. Living On My Own (Radio Mix) (3:37)
09. The Golden Boy (5:12)
10. Time Waits For No One (3:19)
11. She Blows Hot And Cold (3:25)
12. Made In Heaven (4:11)
CD 2 - Mr. Bad Guy (Special Edition) | 00:40:50
pic
01. Let's Turn It On (3:43)
02. Made In Heaven (4:07)
03. I Was Born To Love You (3:39)
04. Foolin' Around (3:30)
05. Your Kind Of Lover (3:35)
06. Mr. Bad Guy (4:10)
07. Man Made Paradise (4:10)
08. There Must Be More To Life Than This (3:02)
09. Living On My Own (3:24)
10. My Love Is Dangerous (3:44)
11. Love Me Like There's No Tomorrow (3:47)
CD 3 - Barcelona (Special Edition) | 00:44:13
pic
01. Barcelona (5:45)
02. La Japonaise (4:52)
03. The Fallen Priest (5:47)
04. Ensueno (4:23)
05. The Golden Boy (6:04)
06. Guide Me Home (2:50)
07. How Can I Go On (3:50)
08. Exercises In Free Love (3:57)
09. Overture Piccante (6:45)

pic
Лог создания рипа
CD 1

Код:

Exact Audio Copy V1.3 from 2. September 2016

EAC extraction logfile from 25. October 2019, 20:16

Freddie Mercury / Never Boring

Used drive  : PLEXTOR BD-R  PX-B950SA   Adapter: 1  ID: 1

Read mode               : Secure
Utilize accurate stream : Yes
Defeat audio cache      : Yes
Make use of C2 pointers : No

Read offset correction                      : 6
Overread into Lead-In and Lead-Out          : No
Fill up missing offset samples with silence : Yes
Delete leading and trailing silent blocks   : No
Null samples used in CRC calculations       : Yes
Used interface                              : Native Win32 interface for Win NT & 2000

Used output format : Internal WAV Routines
Sample format      : 44.100 Hz; 16 Bit; Stereo

TOC of the extracted CD

     Track |   Start  |  Length  | Start sector | End sector
    ---------------------------------------------------------
        1  |  0:00.00 |  3:26.50 |         0    |    15499
        2  |  3:26.50 |  3:38.22 |     15500    |    31871
        3  |  7:04.72 |  5:42.00 |     31872    |    57521
        4  | 12:46.72 |  3:52.18 |     57522    |    74939
        5  | 16:39.15 |  4:29.13 |     74940    |    95127
        6  | 21:08.28 |  3:58.26 |     95128    |   113003
        7  | 25:06.54 |  3:45.22 |    113004    |   129900
        8  | 28:52.01 |  3:37.19 |    129901    |   146194
        9  | 32:29.20 |  5:12.05 |    146195    |   169599
       10  | 37:41.25 |  3:18.44 |    169600    |   184493
       11  | 40:59.69 |  3:25.06 |    184494    |   199874
       12  | 44:25.00 |  4:11.06 |    199875    |   218705

Range status and errors

Selected range

     Filename C:\Users\Alex\Desktop\Freddie Mercury\2019 Never Boring (5-Disc Box Set Mercury Records)\CD1 2019 Never Boring\Freddie Mercury - Never Boring.wav

     Peak level 100.0 %
     Extraction speed 7.0 X
     Range quality 100.0 %
     Test CRC 5EF7A35D
     Copy CRC 5EF7A35D
     Copy OK

No errors occurred

AccurateRip summary

Track  1  not present in database
Track  2  not present in database
Track  3  not present in database
Track  4  not present in database
Track  5  not present in database
Track  6  not present in database
Track  7  not present in database
Track  8  not present in database
Track  9  not present in database
Track 10  not present in database
Track 11  not present in database
Track 12  not present in database

None of the tracks are present in the AccurateRip database

End of status report
CD 2

Код:

Exact Audio Copy V1.3 from 2. September 2016

EAC extraction logfile from 25. October 2019, 19:42

Freddie Mercury / Mr. Bad Guy (Special Edition)

Used drive  : PLEXTOR BD-R  PX-B950SA   Adapter: 1  ID: 1

Read mode               : Secure
Utilize accurate stream : Yes
Defeat audio cache      : Yes
Make use of C2 pointers : No

Read offset correction                      : 6
Overread into Lead-In and Lead-Out          : No
Fill up missing offset samples with silence : Yes
Delete leading and trailing silent blocks   : No
Null samples used in CRC calculations       : Yes
Used interface                              : Native Win32 interface for Win NT & 2000

Used output format : Internal WAV Routines
Sample format      : 44.100 Hz; 16 Bit; Stereo

TOC of the extracted CD

     Track |   Start  |  Length  | Start sector | End sector
    ---------------------------------------------------------
        1  |  0:00.00 |  3:43.01 |         0    |    16725
        2  |  3:43.01 |  4:06.62 |     16726    |    35237
        3  |  7:49.63 |  3:39.23 |     35238    |    51685
        4  | 11:29.11 |  3:29.62 |     51686    |    67422
        5  | 14:58.73 |  3:34.71 |     67423    |    83543
        6  | 18:33.69 |  4:10.00 |     83544    |   102293
        7  | 22:43.69 |  4:09.71 |    102294    |   121039
        8  | 26:53.65 |  3:01.38 |    121040    |   134652
        9  | 29:55.28 |  3:23.56 |    134653    |   149933
       10  | 33:19.09 |  3:43.43 |    149934    |   166701
       11  | 37:02.52 |  3:47.20 |    166702    |   183746

Range status and errors

Selected range

     Filename C:\Users\Alex\Desktop\Freddie Mercury\2019 Never Boring (5-Disc Box Set Mercury Records)\CD2 1985 Mr. Bad Guy (Special Edition)\Freddie Mercury - Mr. Bad Guy (Special Edition).wav

     Peak level 100.0 %
     Extraction speed 6.7 X
     Range quality 100.0 %
     Test CRC 25A0B4B0
     Copy CRC 25A0B4B0
     Copy OK

No errors occurred

AccurateRip summary

Track  1  not present in database
Track  2  not present in database
Track  3  not present in database
Track  4  not present in database
Track  5  not present in database
Track  6  not present in database
Track  7  not present in database
Track  8  not present in database
Track  9  not present in database
Track 10  not present in database
Track 11  not present in database

None of the tracks are present in the AccurateRip database

End of status report
CD 3

Код:

Exact Audio Copy V1.3 from 2. September 2016

EAC extraction logfile from 25. October 2019, 19:16

Freddie Mercury / Barcelona (Special Edition)

Used drive  : PLEXTOR BD-R  PX-B950SA   Adapter: 1  ID: 1

Read mode               : Secure
Utilize accurate stream : Yes
Defeat audio cache      : Yes
Make use of C2 pointers : No

Read offset correction                      : 6
Overread into Lead-In and Lead-Out          : No
Fill up missing offset samples with silence : Yes
Delete leading and trailing silent blocks   : No
Null samples used in CRC calculations       : Yes
Used interface                              : Native Win32 interface for Win NT & 2000

Used output format : Internal WAV Routines
Sample format      : 44.100 Hz; 16 Bit; Stereo

TOC of the extracted CD

     Track |   Start  |  Length  | Start sector | End sector
    ---------------------------------------------------------
        1  |  0:00.00 |  5:44.50 |         0    |    25849
        2  |  5:44.50 |  4:52.33 |     25850    |    47782
        3  | 10:37.08 |  5:46.54 |     47783    |    73786
        4  | 16:23.62 |  4:22.53 |     73787    |    93489
        5  | 20:46.40 |  6:03.71 |     93490    |   120785
        6  | 26:50.36 |  2:50.31 |    120786    |   133566
        7  | 29:40.67 |  3:49.51 |    133567    |   150792
        8  | 33:30.43 |  3:57.27 |    150793    |   168594
        9  | 37:27.70 |  6:44.45 |    168595    |   198939

Range status and errors

Selected range

     Filename C:\Users\Alex\Desktop\Freddie Mercury\2019 Never Boring (5-Disc Box Set Mercury Records)\CD3 1988 Barcelona (Special Edition)\Freddie Mercury - Barcelona (Special Edition).wav

     Peak level 100.0 %
     Extraction speed 6.7 X
     Range quality 100.0 %
     Test CRC CFF411AD
     Copy CRC CFF411AD
     Copy OK

No errors occurred

AccurateRip summary

Track  1  not present in database
Track  2  not present in database
Track  3  not present in database
Track  4  not present in database
Track  5  not present in database
Track  6  not present in database
Track  7  not present in database
Track  8  not present in database
Track  9  not present in database

None of the tracks are present in the AccurateRip database

End of status report
Индексная карта (non-compilant .cue)
CD 1

Код:

REM GENRE "Rock / Pop / Pop Rock"
REM DATE 2019
REM DISCID 950B640C
REM COMMENT "ExactAudioCopy v1.3"
PERFORMER "Freddie Mercury"
TITLE "Never Boring"
REM COMPOSER "Freddie Mercury"
FILE "Freddie Mercury - Never Boring.flac" WAVE
  TRACK 01 AUDIO
    TITLE "The Great Pretender"
    PERFORMER "Freddie Mercury"
    REM COMPOSER "Freddie Mercury"
    INDEX 01 00:00:00
  TRACK 02 AUDIO
    TITLE "I Was Born To Love You"
    PERFORMER "Freddie Mercury"
    REM COMPOSER "Freddie Mercury"
    INDEX 01 03:26:50
  TRACK 03 AUDIO
    TITLE "Barcelona"
    PERFORMER "Freddie Mercury"
    REM COMPOSER "Freddie Mercury"
    INDEX 01 07:04:72
  TRACK 04 AUDIO
    TITLE "In My Defence"
    PERFORMER "Freddie Mercury"
    REM COMPOSER "Freddie Mercury"
    INDEX 00 12:46:40
    INDEX 01 12:46:72
  TRACK 05 AUDIO
    TITLE "Love Kills"
    PERFORMER "Freddie Mercury"
    REM COMPOSER "Freddie Mercury"
    INDEX 01 16:39:15
  TRACK 06 AUDIO
    TITLE "How Can I Go On"
    PERFORMER "Freddie Mercury"
    REM COMPOSER "Freddie Mercury"
    INDEX 01 21:08:28
  TRACK 07 AUDIO
    TITLE "Love Me Like There’s No Tomorrow"
    PERFORMER "Freddie Mercury"
    REM COMPOSER "Freddie Mercury"
    INDEX 01 25:06:54
  TRACK 08 AUDIO
    TITLE "Living On My Own (Radio Mix)"
    PERFORMER "Freddie Mercury"
    REM COMPOSER "Freddie Mercury"
    INDEX 01 28:52:01
  TRACK 09 AUDIO
    TITLE "The Golden Boy"
    PERFORMER "Freddie Mercury"
    REM COMPOSER "Freddie Mercury"
    INDEX 01 32:29:20
  TRACK 10 AUDIO
    TITLE "Time Waits For No One"
    PERFORMER "Freddie Mercury"
    REM COMPOSER "Freddie Mercury"
    INDEX 00 37:40:35
    INDEX 01 37:41:25
  TRACK 11 AUDIO
    TITLE "She Blows Hot And Cold"
    PERFORMER "Freddie Mercury"
    REM COMPOSER "Freddie Mercury"
    INDEX 01 40:59:69
  TRACK 12 AUDIO
    TITLE "Made In Heaven"
    PERFORMER "Freddie Mercury"
    REM COMPOSER "Freddie Mercury"
    INDEX 01 44:25:00
CD 2

Код:

REM GENRE "Rock / Pop / Pop Rock"
REM DATE 1985
REM DISCID 7909910B
REM COMMENT "ExactAudioCopy v1.3"
PERFORMER "Freddie Mercury"
TITLE "Mr. Bad Guy (Special Edition)"
REM COMPOSER "Freddie Mercury"
FILE "Freddie Mercury - Mr. Bad Guy (Special Edition).flac" WAVE
  TRACK 01 AUDIO
    TITLE "Let's Turn It On"
    PERFORMER "Freddie Mercury"
    REM COMPOSER "Freddie Mercury"
    INDEX 01 00:00:00
  TRACK 02 AUDIO
    TITLE "Made In Heaven"
    PERFORMER "Freddie Mercury"
    REM COMPOSER "Freddie Mercury"
    INDEX 01 03:43:01
  TRACK 03 AUDIO
    TITLE "I Was Born To Love You"
    PERFORMER "Freddie Mercury"
    REM COMPOSER "Freddie Mercury"
    INDEX 00 07:49:10
    INDEX 01 07:49:63
  TRACK 04 AUDIO
    TITLE "Foolin' Around"
    PERFORMER "Freddie Mercury"
    REM COMPOSER "Freddie Mercury"
    INDEX 01 11:29:11
  TRACK 05 AUDIO
    TITLE "Your Kind Of Lover"
    PERFORMER "Freddie Mercury"
    REM COMPOSER "Freddie Mercury"
    INDEX 00 14:57:59
    INDEX 01 14:58:73
  TRACK 06 AUDIO
    TITLE "Mr. Bad Guy"
    PERFORMER "Freddie Mercury"
    REM COMPOSER "Freddie Mercury"
    INDEX 00 18:31:65
    INDEX 01 18:33:69
  TRACK 07 AUDIO
    TITLE "Man Made Paradise"
    PERFORMER "Freddie Mercury"
    REM COMPOSER "Freddie Mercury"
    INDEX 01 22:43:69
  TRACK 08 AUDIO
    TITLE "There Must Be More To Life Than This"
    PERFORMER "Freddie Mercury"
    REM COMPOSER "Freddie Mercury"
    INDEX 01 26:53:65
  TRACK 09 AUDIO
    TITLE "Living On My Own"
    PERFORMER "Freddie Mercury"
    REM COMPOSER "Freddie Mercury"
    INDEX 00 29:52:47
    INDEX 01 29:55:28
  TRACK 10 AUDIO
    TITLE "My Love Is Dangerous"
    PERFORMER "Freddie Mercury"
    REM COMPOSER "Freddie Mercury"
    INDEX 00 33:18:33
    INDEX 01 33:19:09
  TRACK 11 AUDIO
    TITLE "Love Me Like There's No Tomorrow"
    PERFORMER "Freddie Mercury"
    REM COMPOSER "Freddie Mercury"
    INDEX 00 37:00:06
    INDEX 01 37:02:52
CD 3

Код:

REM GENRE "Rock / Pop / Pop Rock"
REM DATE 1988
REM DISCID 780A5C09
REM COMMENT "ExactAudioCopy v1.3"
CATALOG 0602577410475
PERFORMER "Freddie Mercury"
TITLE "Barcelona (Special Edition)"
REM COMPOSER "Freddie Mercury"
FILE "Range.wav" WAVE
  TRACK 01 AUDIO
    TITLE "Barcelona"
    PERFORMER "Freddie Mercury"
    REM COMPOSER "Freddie Mercury"
    ISRC GBUM71204522
    INDEX 01 00:00:00
  TRACK 02 AUDIO
    TITLE "La Japonaise"
    PERFORMER "Freddie Mercury"
    REM COMPOSER "Freddie Mercury"
    ISRC GBUM71204523
    INDEX 01 05:44:50
  TRACK 03 AUDIO
    TITLE "The Fallen Priest"
    PERFORMER "Freddie Mercury"
    REM COMPOSER "Freddie Mercury"
    ISRC GBUM71204524
    INDEX 01 10:37:08
  TRACK 04 AUDIO
    TITLE "Ensueno"
    PERFORMER "Freddie Mercury"
    REM COMPOSER "Freddie Mercury"
    ISRC GBUM71204525
    INDEX 01 16:23:62
  TRACK 05 AUDIO
    TITLE "The Golden Boy"
    PERFORMER "Freddie Mercury"
    REM COMPOSER "Freddie Mercury"
    ISRC GBUM71204526
    INDEX 01 20:46:40
  TRACK 06 AUDIO
    TITLE "Guide Me Home"
    PERFORMER "Freddie Mercury"
    REM COMPOSER "Freddie Mercury"
    ISRC GBUM71204527
    INDEX 01 26:50:36
  TRACK 07 AUDIO
    TITLE "How Can I Go On"
    PERFORMER "Freddie Mercury"
    REM COMPOSER "Freddie Mercury"
    ISRC GBUM71204528
    INDEX 01 29:40:67
  TRACK 08 AUDIO
    TITLE "Exercises In Free Love"
    PERFORMER "Freddie Mercury"
    REM COMPOSER "Freddie Mercury"
    ISRC GBUM71204529
    INDEX 01 33:30:43
  TRACK 09 AUDIO
    TITLE "Overture Piccante"
    PERFORMER "Freddie Mercury"
    REM COMPOSER "Freddie Mercury"
    ISRC GBUM71204530
    INDEX 01 37:27:70

pic
Дополнительная информация:
Не хочешь качать больше! Всё просто. Сними "галочку" с папки covers и можно уменьшить размер загрузки на 2,4 Гб.

pic


pic
pic
Freddie Mercury - 2019 - Never Boring (3CD + Blu-ray + DVD Box Set Mercury Records).torrent
Трекер: Зарегистрирован

magnet ссылка

 


Скачать .torrent

25 KB

Статус: проверено (by E IL o T IR i X в 09-Ноя-19 23:44)
Зарегистрирован: 09-Ноя-19 22:21
Скачан: 20 раз
Размер: 3.24 GB | 
Поблагодарили:
Скачать (Rock, Pop Rock) Freddie Mercury - Never Boring (3CD Box Set Mercury Records) - 2019 [FLAC, image +.cue, lossless] торрент
 


Похожие раздачи

Текущее время: 15-Ноя 10:30

Часовой пояс: GMT + 3



Вы не можете начинать темы
Вы не можете отвечать на сообщения
Вы не можете редактировать свои сообщения
Вы не можете удалять свои сообщения
Вы не можете голосовать в опросах
Вы не можете прикреплять файлы к сообщениям
Вы не можете скачивать файлы