Loading...
Error
 

Скачать торрент (Russian Rock) Машина времени - 50 (Box Set, 5CD, Remastered) - 2019 [FLAC, image +.cue, Lossless]

 
Автор Сообщение

trygg

post 03-Дек-19 13:52


Машина времени - 50 (Box Set, 5CD, Remastered)


pic
Год издания: 2019
Страна: Russia pic
Жанр: Russian Rock
Продолжительность: 04:00:21
Лейбл издания: Sintez Records
Страна-выпуска диска: Russia pic
Номер по каталогу: SDCD 00120/1-5
Формат: FLAC
Битрейт аудио: Lossless
Тип рипа: image + .cue
Наличие сканов в содержимом раздачи: да

pic
Трэклист
pic
CD 1 | 00:44:30
pic
01. Марионетки (Remastered 2019) (4:16)
02. Наш дом (Remastered 2019) (3:36)
03. Флаг над замком (Remastered 2019) (2:51)
04. Снег (Remastered 2019) (2:58)
05. Солдат (Remastered 2019) (1:41)
06. Хрустальный город (Remastered 2019) (6:05)
07. День гнева (Remastered 2019) (1:53)
08. День рождения (Remastered 2019) (3:59)
09. Ты или я (Remastered 2019) (4:24)
10. Люди в лодках (Remastered 2019) (3:36)
11. Кого ты хотел удивить (Remastered 2019) (5:00)
12. Пока горит свеча (Remastered 2019) (4:12)
CD 2 | 00:47:33
pic
01. Поворот (Remastered 2019) (3:46)
02. Музыка под снегом (Remastered 2019) (4:30)
03. Скачки (Remastered 2019) (3:15)
04. Она идёт по жизни смеясь (Remastered 2019) (2:21)
05. Костёр (Remastered 2019) (3:47)
06. За тех, кто в море (Remastered 2019) (3:34)
07. Разговор в поезде (Remastered 2019) (2:23)
08. Если бы мы были взрослей (Remastered 2019) (3:46)
09. Я сюда ещё вернусь (Remastered 2019) (5:16)
10. В добрый час (Remastered 2019) (3:31)
11. Ночь (Remastered 2019) (4:51)
12. Время (Remastered 2019) (4:14)
13. Синяя птица (Remastered 2019) (2:18)
CD 3 | 00:47:36
pic
01. Скворец (Remastered 2019) (3:51)
02. Право (Remastered 2019) (3:05)
03. Кафе Лира (Remastered 2019) (3:45)
04. Барьер (Remastered 2019) (4:18)
05. Будет день (Remastered 2019) (3:28)
06. Между тем, что было и тем, что будет (Remastered 2019) (4:15)
07. Закрытые двери (Remastered 2019) (5:04)
08. Знаю только я (Remastered 2019) (3:39)
09. Старый корабль (Remastered 2019) (3:16)
10. Три окна (Remastered 2019) (6:01)
11. Морской закон (Remastered 2019) (3:55)
12. Рыбка в банке (Remastered 2019) (2:58)
CD 4 | 00:52:08
pic
01. Однажды мир прогнётся под нас (Remastered 2019) (3:19)
02. Он играет на похоронах и танцах (Remastered 2019) (3:42)
03. Место где свет (Remastered 2019) (4:27)
04. Мой друг лучше всех играет блюз (Remastered 2019) (4:09)
05. Звёзды не ездят в метро (Remastered 2019) (6:39)
06. Спускаясь к великой реке (Remastered 2019) (3:38)
07. Дорога в небо (Remastered 2019) (4:23)
08. Картонные крылья любви (Remastered 2019) (4:33)
09. Он был старше её (Remastered 2019) (3:36)
10. Улетай (Remastered 2019) (3:36)
11. Мы расходимся по домам (Remastered 2019) (3:48)
12. Пой (Remastered 2019) (6:18)
CD 5 | 00:48:33
pic
01. Брошенный богом мир (Remastered 2019) (3:29)
02. Вверх (Remastered 2019) (5:29)
03. Лифт (Remastered 2019) (3:54)
04. Мама (Remastered 2019) (4:33)
05. Крысы (Remastered 2019) (3:16)
06. Сорок лет тому назад (Remastered 2019) (3:36)
07. Оставайся собой (Remastered 2019) (3:21)
08. Чужие среди чужих (Remastered 2019) (2:36)
09. Однажды (Remastered 2019) (4:18)
10. То, что всегда с тобой (Remastered 2019) (4:59)
11. Все корабли сегодня вернутся домой (Remastered 2019) (4:27)
12. Пой песню, пой, дульсимер (Remastered 2019) (4:35)

pic
Лог создания рипа
CD 1

Код:

Exact Audio Copy V1.3 from 2. September 2016

Отчёт EAC об извлечении, выполненном 01. декабря 2019, 20:19

Машина Времени / 50 CD-1

Дисковод: PLEXTOR DVDR   PX-755A   Adapter: 1  ID: 1

Режим чтения                 : Достоверность
Использование точного потока : Да
Отключение кэша аудио        : Да
Использование указателей C2  : Нет

Коррекция смещения при чтении                     : 30
Способность читать области Lead-in и Lead-out     : Нет
Заполнение пропущенных сэмплов тишиной            : Да
Удаление блоков с тишиной в начале и конце        : Нет
При вычислениях CRC использовались нулевые сэмплы : Да
Интерфейс                                         : Встроенный Win32-интерфейс для Win NT/2000

Выходной формат          : Пользовательский кодировщик
Выбранный битрейт        : 128 kBit/s
Качество                 : Высокий
Добавление ID3-тега      : Нет
Утилита сжатия           : C:\Program Files (x86)\Exact Audio Copy\Flac\flac.exe
Дополнительные параметры : -V -8 -T "Date=%year%" -T "Genre=%genre%" %source%

TOC извлечённого CD

     Трек |   Старт  | Длительность | Начальный сектор | Конечный сектор
    ---------------------------------------------------------------------
       1  |  0:00.00 |    4:17.54   |           0      |      19328
       2  |  4:17.54 |    3:37.23   |       19329      |      35626
       3  |  7:55.02 |    2:53.03   |       35627      |      48604
       4  | 10:48.05 |    2:59.27   |       48605      |      62056
       5  | 13:47.32 |    1:43.01   |       62057      |      69782
       6  | 15:30.33 |    6:07.12   |       69783      |      97319
       7  | 21:37.45 |    1:54.55   |       97320      |     105924
       8  | 23:32.25 |    4:00.33   |      105925      |     123957
       9  | 27:32.58 |    4:25.30   |      123958      |     143862
      10  | 31:58.13 |    3:37.67   |      143863      |     160204
      11  | 35:36.05 |    5:01.70   |      160205      |     182849
      12  | 40:38.00 |    4:11.43   |      182850      |     201717

Характеристики диапазона извлечения и сообщения об ошибках

Выбранный диапазон

     Имя файла D:\РАЗДАЧА\Машина времени - 50\CD-1\Машина Времени - 50 CD-1.wav

     Пиковый уровень 99.2 %
     Скорость извлечения 6.8 X
     Качество диапазона 99.9 %
     CRC теста 277B1FC4
     CRC копии 277B1FC4
     Копирование... OK

Ошибок не произошло

AccurateRip: сводка

Трек  1  отсутствует в базе данных
Трек  2  отсутствует в базе данных
Трек  3  отсутствует в базе данных
Трек  4  отсутствует в базе данных
Трек  5  отсутствует в базе данных
Трек  6  отсутствует в базе данных
Трек  7  отсутствует в базе данных
Трек  8  отсутствует в базе данных
Трек  9  отсутствует в базе данных
Трек 10  отсутствует в базе данных
Трек 11  отсутствует в базе данных
Трек 12  отсутствует в базе данных

Ни одного трека нет в базе AccurateRip

Конец отчёта
CD 2

Код:

Exact Audio Copy V1.3 from 2. September 2016

Отчёт EAC об извлечении, выполненном 01. декабря 2019, 20:29

Машина Времени / 50 CD-2

Дисковод: PLEXTOR DVDR   PX-755A   Adapter: 1  ID: 1

Режим чтения                 : Достоверность
Использование точного потока : Да
Отключение кэша аудио        : Да
Использование указателей C2  : Нет

Коррекция смещения при чтении                     : 30
Способность читать области Lead-in и Lead-out     : Нет
Заполнение пропущенных сэмплов тишиной            : Да
Удаление блоков с тишиной в начале и конце        : Нет
При вычислениях CRC использовались нулевые сэмплы : Да
Интерфейс                                         : Встроенный Win32-интерфейс для Win NT/2000

Выходной формат          : Пользовательский кодировщик
Выбранный битрейт        : 128 kBit/s
Качество                 : Высокий
Добавление ID3-тега      : Нет
Утилита сжатия           : C:\Program Files (x86)\Exact Audio Copy\Flac\flac.exe
Дополнительные параметры : -V -8 -T "Date=%year%" -T "Genre=%genre%" %source%

TOC извлечённого CD

     Трек |   Старт  | Длительность | Начальный сектор | Конечный сектор
    ---------------------------------------------------------------------
       1  |  0:00.00 |    3:48.00   |           0      |      17099
       2  |  3:48.00 |    4:31.64   |       17100      |      37488
       3  |  8:19.64 |    3:16.71   |       37489      |      52259
       4  | 11:36.60 |    2:22.62   |       52260      |      62971
       5  | 13:59.47 |    3:48.69   |       62972      |      80140
       6  | 17:48.41 |    3:36.10   |       80141      |      96350
       7  | 21:24.51 |    2:25.21   |       96351      |     107246
       8  | 23:49.72 |    3:47.31   |      107247      |     124302
       9  | 27:37.28 |    5:18.18   |      124303      |     148170
      10  | 32:55.46 |    3:32.21   |      148171      |     164091
      11  | 36:27.67 |    4:52.34   |      164092      |     186025
      12  | 41:20.26 |    4:15.61   |      186026      |     205211
      13  | 45:36.12 |    2:18.11   |      205212      |     215572

Характеристики диапазона извлечения и сообщения об ошибках

Выбранный диапазон

     Имя файла D:\РАЗДАЧА\Машина времени - 50\CD-2\Машина Времени - 50 CD-2.wav

     Пиковый уровень 99.2 %
     Скорость извлечения 7.6 X
     Качество диапазона 100.0 %
     CRC теста 67AD876A
     CRC копии 67AD876A
     Копирование... OK

Ошибок не произошло

AccurateRip: сводка

Трек  1  отсутствует в базе данных
Трек  2  отсутствует в базе данных
Трек  3  отсутствует в базе данных
Трек  4  отсутствует в базе данных
Трек  5  отсутствует в базе данных
Трек  6  отсутствует в базе данных
Трек  7  отсутствует в базе данных
Трек  8  отсутствует в базе данных
Трек  9  отсутствует в базе данных
Трек 10  отсутствует в базе данных
Трек 11  отсутствует в базе данных
Трек 12  отсутствует в базе данных
Трек 13  отсутствует в базе данных

Ни одного трека нет в базе AccurateRip

Конец отчёта
CD 3

Код:

Exact Audio Copy V1.3 from 2. September 2016

Отчёт EAC об извлечении, выполненном 01. декабря 2019, 20:42

Машина Времени / 50 CD-3

Дисковод: PLEXTOR DVDR   PX-755A   Adapter: 1  ID: 1

Режим чтения                 : Достоверность
Использование точного потока : Да
Отключение кэша аудио        : Да
Использование указателей C2  : Нет

Коррекция смещения при чтении                     : 30
Способность читать области Lead-in и Lead-out     : Нет
Заполнение пропущенных сэмплов тишиной            : Да
Удаление блоков с тишиной в начале и конце        : Нет
При вычислениях CRC использовались нулевые сэмплы : Да
Интерфейс                                         : Встроенный Win32-интерфейс для Win NT/2000

Выходной формат          : Пользовательский кодировщик
Выбранный битрейт        : 128 kBit/s
Качество                 : Высокий
Добавление ID3-тега      : Нет
Утилита сжатия           : C:\Program Files (x86)\Exact Audio Copy\Flac\flac.exe
Дополнительные параметры : -V -8 -T "Date=%year%" -T "Genre=%genre%" %source%

TOC извлечённого CD

     Трек |   Старт  | Длительность | Начальный сектор | Конечный сектор
    ---------------------------------------------------------------------
       1  |  0:00.00 |    3:52.49   |           0      |      17448
       2  |  3:52.49 |    3:06.65   |       17449      |      31463
       3  |  6:59.39 |    3:46.61   |       31464      |      48474
       4  | 10:46.25 |    4:19.68   |       48475      |      67967
       5  | 15:06.18 |    3:30.20   |       67968      |      83737
       6  | 18:36.38 |    4:17.07   |       83738      |     103019
       7  | 22:53.45 |    5:06.48   |      103020      |     126017
       8  | 28:00.18 |    3:41.14   |      126018      |     142606
       9  | 31:41.32 |    3:18.06   |      142607      |     157462
      10  | 34:59.38 |    6:03.15   |      157463      |     184702
      11  | 41:02.53 |    3:56.16   |      184703      |     202418
      12  | 44:58.69 |    2:58.14   |      202419      |     215782

Характеристики диапазона извлечения и сообщения об ошибках

Выбранный диапазон

     Имя файла D:\РАЗДАЧА\Машина времени - 50\CD-3\Машина Времени - 50 CD-3.wav

     Пиковый уровень 99.8 %
     Скорость извлечения 6.9 X
     Качество диапазона 99.9 %
     CRC теста CD9E73A4
     CRC копии CD9E73A4
     Копирование... OK

Ошибок не произошло

AccurateRip: сводка

Трек  1  отсутствует в базе данных
Трек  2  отсутствует в базе данных
Трек  3  отсутствует в базе данных
Трек  4  отсутствует в базе данных
Трек  5  отсутствует в базе данных
Трек  6  отсутствует в базе данных
Трек  7  отсутствует в базе данных
Трек  8  отсутствует в базе данных
Трек  9  отсутствует в базе данных
Трек 10  отсутствует в базе данных
Трек 11  отсутствует в базе данных
Трек 12  отсутствует в базе данных

Ни одного трека нет в базе AccurateRip

Конец отчёта
CD 4

Код:

Exact Audio Copy V1.3 from 2. September 2016

Отчёт EAC об извлечении, выполненном 01. декабря 2019, 20:48

Машина Времени / 50 CD-4

Дисковод: PLEXTOR DVDR   PX-755A   Adapter: 1  ID: 1

Режим чтения                 : Достоверность
Использование точного потока : Да
Отключение кэша аудио        : Да
Использование указателей C2  : Нет

Коррекция смещения при чтении                     : 30
Способность читать области Lead-in и Lead-out     : Нет
Заполнение пропущенных сэмплов тишиной            : Да
Удаление блоков с тишиной в начале и конце        : Нет
При вычислениях CRC использовались нулевые сэмплы : Да
Интерфейс                                         : Встроенный Win32-интерфейс для Win NT/2000

Выходной формат          : Пользовательский кодировщик
Выбранный битрейт        : 128 kBit/s
Качество                 : Высокий
Добавление ID3-тега      : Нет
Утилита сжатия           : C:\Program Files (x86)\Exact Audio Copy\Flac\flac.exe
Дополнительные параметры : -V -8 -T "Date=%year%" -T "Genre=%genre%" %source%

TOC извлечённого CD

     Трек |   Старт  | Длительность | Начальный сектор | Конечный сектор
    ---------------------------------------------------------------------
       1  |  0:00.00 |    3:20.59   |           0      |      15058
       2  |  3:20.59 |    3:43.70   |       15059      |      31853
       3  |  7:04.54 |    4:29.05   |       31854      |      52033
       4  | 11:33.59 |    4:10.41   |       52034      |      70824
       5  | 15:44.25 |    6:41.06   |       70825      |     100905
       6  | 22:25.31 |    3:39.25   |      100906      |     117355
       7  | 26:04.56 |    4:24.41   |      117356      |     137196
       8  | 30:29.22 |    4:35.03   |      137197      |     157824
       9  | 35:04.25 |    3:38.11   |      157825      |     174185
      10  | 38:42.36 |    3:38.14   |      174186      |     190549
      11  | 42:20.50 |    3:49.40   |      190550      |     207764
      12  | 46:10.15 |    6:17.60   |      207765      |     236099

Характеристики диапазона извлечения и сообщения об ошибках

Выбранный диапазон

     Имя файла D:\РАЗДАЧА\Машина времени - 50\CD-4\Машина Времени - 50 CD-4.wav

     Пиковый уровень 99.4 %
     Скорость извлечения 8.0 X
     Качество диапазона 99.9 %
     CRC теста 9D4758E5
     CRC копии 9D4758E5
     Копирование... OK

Ошибок не произошло

AccurateRip: сводка

Трек  1  отсутствует в базе данных
Трек  2  отсутствует в базе данных
Трек  3  отсутствует в базе данных
Трек  4  отсутствует в базе данных
Трек  5  отсутствует в базе данных
Трек  6  отсутствует в базе данных
Трек  7  отсутствует в базе данных
Трек  8  отсутствует в базе данных
Трек  9  отсутствует в базе данных
Трек 10  отсутствует в базе данных
Трек 11  отсутствует в базе данных
Трек 12  отсутствует в базе данных

Ни одного трека нет в базе AccurateRip

Конец отчёта
CD 5

Код:

Exact Audio Copy V1.3 from 2. September 2016

Отчёт EAC об извлечении, выполненном 01. декабря 2019, 20:59

Машина Времени / 50 CD-5

Дисковод: PLEXTOR DVDR   PX-755A   Adapter: 1  ID: 1

Режим чтения                 : Достоверность
Использование точного потока : Да
Отключение кэша аудио        : Да
Использование указателей C2  : Нет

Коррекция смещения при чтении                     : 30
Способность читать области Lead-in и Lead-out     : Нет
Заполнение пропущенных сэмплов тишиной            : Да
Удаление блоков с тишиной в начале и конце        : Нет
При вычислениях CRC использовались нулевые сэмплы : Да
Интерфейс                                         : Встроенный Win32-интерфейс для Win NT/2000

Выходной формат          : Пользовательский кодировщик
Выбранный битрейт        : 128 kBit/s
Качество                 : Высокий
Добавление ID3-тега      : Нет
Утилита сжатия           : C:\Program Files (x86)\Exact Audio Copy\Flac\flac.exe
Дополнительные параметры : -V -8 -T "Date=%year%" -T "Genre=%genre%" %source%

TOC извлечённого CD

     Трек |   Старт  | Длительность | Начальный сектор | Конечный сектор
    ---------------------------------------------------------------------
       1  |  0:00.00 |    3:30.46   |           0      |      15795
       2  |  3:30.46 |    5:30.56   |       15796      |      40601
       3  |  9:01.27 |    3:55.53   |       40602      |      58279
       4  | 12:57.05 |    4:34.73   |       58280      |      78902
       5  | 17:32.03 |    3:17.55   |       78903      |      93732
       6  | 20:49.58 |    3:37.47   |       93733      |     110054
       7  | 24:27.30 |    3:22.57   |      110055      |     125261
       8  | 27:50.12 |    2:37.50   |      125262      |     137086
       9  | 30:27.62 |    4:19.73   |      137087      |     156584
      10  | 34:47.60 |    5:00.70   |      156585      |     179154
      11  | 39:48.55 |    4:28.65   |      179155      |     199319
      12  | 44:17.45 |    4:35.07   |      199320      |     219951

Характеристики диапазона извлечения и сообщения об ошибках

Выбранный диапазон

     Имя файла D:\РАЗДАЧА\Машина времени - 50\CD-5\Машина Времени - 50 CD-5.wav

     Пиковый уровень 99.7 %
     Скорость извлечения 7.9 X
     Качество диапазона 100.0 %
     CRC теста B541107C
     CRC копии B541107C
     Копирование... OK

Ошибок не произошло

AccurateRip: сводка

Трек  1  отсутствует в базе данных
Трек  2  отсутствует в базе данных
Трек  3  отсутствует в базе данных
Трек  4  отсутствует в базе данных
Трек  5  отсутствует в базе данных
Трек  6  отсутствует в базе данных
Трек  7  отсутствует в базе данных
Трек  8  отсутствует в базе данных
Трек  9  отсутствует в базе данных
Трек 10  отсутствует в базе данных
Трек 11  отсутствует в базе данных
Трек 12  отсутствует в базе данных

Ни одного трека нет в базе AccurateRip

Конец отчёта
Индексная карта (non-compilant .cue)
CD 1

Код:

REM GENRE Miscellaneous
REM DATE 2019
REM DISCID A30A810C
REM COMMENT "ExactAudioCopy v1.3"
PERFORMER "Машина Времени"
TITLE "50 CD-1"
REM COMPOSER ""
FILE "Машина Времени - 50 CD-1.flac" WAVE
  TRACK 01 AUDIO
    TITLE "Марионетки [Remastered 2019]"
    PERFORMER "Машина Времени"
    REM COMPOSER ""
    INDEX 01 00:00:00
  TRACK 02 AUDIO
    TITLE "Наш дом [Remastered 2019]"
    PERFORMER "Машина Времени"
    REM COMPOSER ""
    INDEX 00 04:15:71
    INDEX 01 04:17:54
  TRACK 03 AUDIO
    TITLE "Флаг над замком [Remastered 2019]"
    PERFORMER "Машина Времени"
    REM COMPOSER ""
    INDEX 00 07:53:19
    INDEX 01 07:55:02
  TRACK 04 AUDIO
    TITLE "Снег [Remastered 2019]"
    PERFORMER "Машина Времени"
    REM COMPOSER ""
    INDEX 00 10:46:22
    INDEX 01 10:48:05
  TRACK 05 AUDIO
    TITLE "Солдат [Remastered 2019]"
    PERFORMER "Машина Времени"
    REM COMPOSER ""
    INDEX 00 13:45:49
    INDEX 01 13:47:32
  TRACK 06 AUDIO
    TITLE "Хрустальный город [Remastered 2019]"
    PERFORMER "Машина Времени"
    REM COMPOSER ""
    INDEX 00 15:28:50
    INDEX 01 15:30:33
  TRACK 07 AUDIO
    TITLE "День гнева [Remastered 2019]"
    PERFORMER "Машина Времени"
    REM COMPOSER ""
    INDEX 00 21:35:62
    INDEX 01 21:37:45
  TRACK 08 AUDIO
    TITLE "День рождения [Remastered 2019]"
    PERFORMER "Машина Времени"
    REM COMPOSER ""
    INDEX 00 23:30:42
    INDEX 01 23:32:25
  TRACK 09 AUDIO
    TITLE "Ты или я [Remastered 2019]"
    PERFORMER "Машина Времени"
    REM COMPOSER ""
    INDEX 00 27:31:00
    INDEX 01 27:32:58
  TRACK 10 AUDIO
    TITLE "Люди в лодках [Remastered 2019]"
    PERFORMER "Машина Времени"
    REM COMPOSER ""
    INDEX 00 31:56:30
    INDEX 01 31:58:13
  TRACK 11 AUDIO
    TITLE "Кого ты хотел удивить [Remastered 2019]"
    PERFORMER "Машина Времени"
    REM COMPOSER ""
    INDEX 00 35:34:22
    INDEX 01 35:36:05
  TRACK 12 AUDIO
    TITLE "Пока горит свеча [Remastered 2019]"
    PERFORMER "Машина Времени"
    REM COMPOSER ""
    INDEX 00 40:36:17
    INDEX 01 40:38:00
CD 2

Код:

REM GENRE Rock
REM DATE 2019
REM DISCID B80B3A0D
REM COMMENT "ExactAudioCopy v1.3"
PERFORMER "Машина Времени"
TITLE "50 CD-2"
REM COMPOSER ""
FILE "Машина Времени - 50 CD-2.flac" WAVE
  TRACK 01 AUDIO
    TITLE "Поворот [Remastered 2019]"
    PERFORMER "Машина Времени"
    REM COMPOSER ""
    INDEX 01 00:00:00
  TRACK 02 AUDIO
    TITLE "Музыка под снегом [Remastered 2019]"
    PERFORMER "Машина Времени"
    REM COMPOSER ""
    INDEX 00 03:46:17
    INDEX 01 03:48:00
  TRACK 03 AUDIO
    TITLE "Скачки [Remastered 2019]"
    PERFORMER "Машина Времени"
    REM COMPOSER ""
    INDEX 00 08:18:06
    INDEX 01 08:19:64
  TRACK 04 AUDIO
    TITLE "Она идёт по жизни смеясь [Remastered 2019]"
    PERFORMER "Машина Времени"
    REM COMPOSER ""
    INDEX 00 11:35:02
    INDEX 01 11:36:60
  TRACK 05 AUDIO
    TITLE "Костёр [Remastered 2019]"
    PERFORMER "Машина Времени"
    REM COMPOSER ""
    INDEX 00 13:57:64
    INDEX 01 13:59:47
  TRACK 06 AUDIO
    TITLE "За тех, кто в море [Remastered 2019]"
    PERFORMER "Машина Времени"
    REM COMPOSER ""
    INDEX 00 17:46:58
    INDEX 01 17:48:41
  TRACK 07 AUDIO
    TITLE "Разговор в поезде [Remastered 2019]"
    PERFORMER "Машина Времени"
    REM COMPOSER ""
    INDEX 00 21:22:68
    INDEX 01 21:24:51
  TRACK 08 AUDIO
    TITLE "Если бы мы были взрослей [Remastered 2019]"
    PERFORMER "Машина Времени"
    REM COMPOSER ""
    INDEX 00 23:48:14
    INDEX 01 23:49:72
  TRACK 09 AUDIO
    TITLE "Я сюда ещё вернусь [Remastered 2019]"
    PERFORMER "Машина Времени"
    REM COMPOSER ""
    INDEX 00 27:35:45
    INDEX 01 27:37:28
  TRACK 10 AUDIO
    TITLE "В добрый час [Remastered 2019]"
    PERFORMER "Машина Времени"
    REM COMPOSER ""
    INDEX 00 32:53:63
    INDEX 01 32:55:46
  TRACK 11 AUDIO
    TITLE "Ночь [Remastered 2019]"
    PERFORMER "Машина Времени"
    REM COMPOSER ""
    INDEX 00 36:26:09
    INDEX 01 36:27:67
  TRACK 12 AUDIO
    TITLE "Время [Remastered 2019]"
    PERFORMER "Машина Времени"
    REM COMPOSER ""
    INDEX 00 41:18:43
    INDEX 01 41:20:26
  TRACK 13 AUDIO
    TITLE "Синяя птица [Remastered 2019]"
    PERFORMER "Машина Времени"
    REM COMPOSER ""
    INDEX 00 45:34:29
    INDEX 01 45:36:12
CD 3

Код:

REM GENRE Rock
REM DATE 2019
REM DISCID 8B0B3D0C
REM COMMENT "ExactAudioCopy v1.3"
PERFORMER "Машина Времени"
TITLE "50 CD-3"
REM COMPOSER ""
FILE "Машина Времени - 50 CD-3.flac" WAVE
  TRACK 01 AUDIO
    TITLE "Скворец [Remastered 2019]"
    PERFORMER "Машина Времени"
    REM COMPOSER ""
    INDEX 01 00:00:00
  TRACK 02 AUDIO
    TITLE "Право [Remastered 2019]"
    PERFORMER "Машина Времени"
    REM COMPOSER ""
    INDEX 00 03:50:66
    INDEX 01 03:52:49
  TRACK 03 AUDIO
    TITLE "Кафе Лира [Remastered 2019]"
    PERFORMER "Машина Времени"
    REM COMPOSER ""
    INDEX 00 06:57:56
    INDEX 01 06:59:39
  TRACK 04 AUDIO
    TITLE "Барьер [Remastered 2019]"
    PERFORMER "Машина Времени"
    REM COMPOSER ""
    INDEX 00 10:44:42
    INDEX 01 10:46:25
  TRACK 05 AUDIO
    TITLE "Будет день [Remastered 2019]"
    PERFORMER "Машина Времени"
    REM COMPOSER ""
    INDEX 00 15:04:35
    INDEX 01 15:06:18
  TRACK 06 AUDIO
    TITLE "Между тем, что было и тем, что будет [Remastered 2019]"
    PERFORMER "Машина Времени"
    REM COMPOSER ""
    INDEX 00 18:34:55
    INDEX 01 18:36:38
  TRACK 07 AUDIO
    TITLE "Закрытые двери [Remastered 2019]"
    PERFORMER "Машина Времени"
    REM COMPOSER ""
    INDEX 00 22:51:62
    INDEX 01 22:53:45
  TRACK 08 AUDIO
    TITLE "Знаю только я [Remastered 2019]"
    PERFORMER "Машина Времени"
    REM COMPOSER ""
    INDEX 00 27:57:20
    INDEX 01 28:00:18
  TRACK 09 AUDIO
    TITLE "Старый корабль [Remastered 2019]"
    PERFORMER "Машина Времени"
    REM COMPOSER ""
    INDEX 00 31:39:49
    INDEX 01 31:41:32
  TRACK 10 AUDIO
    TITLE "Три окна [Remastered 2019]"
    PERFORMER "Машина Времени"
    REM COMPOSER ""
    INDEX 00 34:57:55
    INDEX 01 34:59:38
  TRACK 11 AUDIO
    TITLE "Морской закон [Remastered 2019]"
    PERFORMER "Машина Времени"
    REM COMPOSER ""
    INDEX 00 41:00:70
    INDEX 01 41:02:53
  TRACK 12 AUDIO
    TITLE "Рыбка в банке [Remastered 2019]"
    PERFORMER "Машина Времени"
    REM COMPOSER ""
    INDEX 00 44:57:11
    INDEX 01 44:58:69
CD 4

Код:

REM GENRE Miscellaneous
REM DATE 2019
REM DISCID 9A0C4C0C
REM COMMENT "ExactAudioCopy v1.3"
PERFORMER "Машина Времени"
TITLE "50 CD-4"
REM COMPOSER ""
FILE "Машина Времени - 50 CD-4.flac" WAVE
  TRACK 01 AUDIO
    TITLE "Однажды мир прогнётся под нас (Remastered 2019)"
    PERFORMER "Машина Времени"
    REM COMPOSER ""
    INDEX 01 00:00:00
  TRACK 02 AUDIO
    TITLE "Он играет на похоронах и танцах (Remastered 2019)"
    PERFORMER "Машина Времени"
    REM COMPOSER ""
    INDEX 00 03:19:01
    INDEX 01 03:20:59
  TRACK 03 AUDIO
    TITLE "Место где свет (Remastered 2019)"
    PERFORMER "Машина Времени"
    REM COMPOSER ""
    INDEX 00 07:02:71
    INDEX 01 07:04:54
  TRACK 04 AUDIO
    TITLE "Мой друг лучше всех играет блюз (Remastered 2019)"
    PERFORMER "Машина Времени"
    REM COMPOSER ""
    INDEX 00 11:32:01
    INDEX 01 11:33:59
  TRACK 05 AUDIO
    TITLE "Звёзды не ездят в метро (Remastered 2019)"
    PERFORMER "Машина Времени"
    REM COMPOSER ""
    INDEX 00 15:42:42
    INDEX 01 15:44:25
  TRACK 06 AUDIO
    TITLE "Спускаясь к великой реке (Remastered 2019)"
    PERFORMER "Машина Времени"
    REM COMPOSER ""
    INDEX 00 22:23:48
    INDEX 01 22:25:31
  TRACK 07 AUDIO
    TITLE "Дорога в небо (Remastered 2019)"
    PERFORMER "Машина Времени"
    REM COMPOSER ""
    INDEX 00 26:02:73
    INDEX 01 26:04:56
  TRACK 08 AUDIO
    TITLE "Картонные крылья любви (Remastered 2019)"
    PERFORMER "Машина Времени"
    REM COMPOSER ""
    INDEX 00 30:27:39
    INDEX 01 30:29:22
  TRACK 09 AUDIO
    TITLE "Он был старше её (Remastered 2019)"
    PERFORMER "Машина Времени"
    REM COMPOSER ""
    INDEX 00 35:02:42
    INDEX 01 35:04:25
  TRACK 10 AUDIO
    TITLE "Улетай (Remastered 2019)"
    PERFORMER "Машина Времени"
    REM COMPOSER ""
    INDEX 00 38:40:53
    INDEX 01 38:42:36
  TRACK 11 AUDIO
    TITLE "Мы расходимся по домам (Remastered 2019)"
    PERFORMER "Машина Времени"
    REM COMPOSER ""
    INDEX 00 42:18:67
    INDEX 01 42:20:50
  TRACK 12 AUDIO
    TITLE "Пой (Remastered 2019)"
    PERFORMER "Машина Времени"
    REM COMPOSER ""
    INDEX 00 46:08:32
    INDEX 01 46:10:15
CD 5

Код:

REM GENRE Miscellaneous
REM DATE 2019
REM DISCID AC0B740C
REM COMMENT "ExactAudioCopy v1.3"
PERFORMER "Машина Времени"
TITLE "50 CD-5"
REM COMPOSER ""
FILE "Машина Времени - 50 CD-5.flac" WAVE
  TRACK 01 AUDIO
    TITLE "Брошенный богом мир [Remastered 2019]"
    PERFORMER "Машина Времени"
    REM COMPOSER ""
    INDEX 01 00:00:00
  TRACK 02 AUDIO
    TITLE "Вверх [Remastered 2019]"
    PERFORMER "Машина Времени"
    REM COMPOSER ""
    INDEX 00 03:28:63
    INDEX 01 03:30:46
  TRACK 03 AUDIO
    TITLE "Лифт [Remastered 2019]"
    PERFORMER "Машина Времени"
    REM COMPOSER ""
    INDEX 00 08:59:44
    INDEX 01 09:01:27
  TRACK 04 AUDIO
    TITLE "Мама [Remastered 2019]"
    PERFORMER "Машина Времени"
    REM COMPOSER ""
    INDEX 00 12:55:22
    INDEX 01 12:57:05
  TRACK 05 AUDIO
    TITLE "Крысы [Remastered 2019]"
    PERFORMER "Машина Времени"
    REM COMPOSER ""
    INDEX 00 17:30:20
    INDEX 01 17:32:03
  TRACK 06 AUDIO
    TITLE "Сорок лет тому назад [Remastered 2019]"
    PERFORMER "Машина Времени"
    REM COMPOSER ""
    INDEX 00 20:48:00
    INDEX 01 20:49:58
  TRACK 07 AUDIO
    TITLE "Оставайся собой [Remastered 2019]"
    PERFORMER "Машина Времени"
    REM COMPOSER ""
    INDEX 00 24:25:47
    INDEX 01 24:27:30
  TRACK 08 AUDIO
    TITLE "Чужие среди чужих [Remastered 2019]"
    PERFORMER "Машина Времени"
    REM COMPOSER ""
    INDEX 00 27:48:29
    INDEX 01 27:50:12
  TRACK 09 AUDIO
    TITLE "Однажды [Remastered 2019]"
    PERFORMER "Машина Времени"
    REM COMPOSER ""
    INDEX 00 30:26:04
    INDEX 01 30:27:62
  TRACK 10 AUDIO
    TITLE "То, что всегда с тобой [Remastered 2019]"
    PERFORMER "Машина Времени"
    REM COMPOSER ""
    INDEX 00 34:46:02
    INDEX 01 34:47:60
  TRACK 11 AUDIO
    TITLE "Все корабли сегодня вернутся домой [Remastered 2019]"
    PERFORMER "Машина Времени"
    REM COMPOSER ""
    INDEX 00 39:46:72
    INDEX 01 39:48:55
  TRACK 12 AUDIO
    TITLE "Пой песню, пой, дульсимер [Remastered 2019]"
    PERFORMER "Машина Времени"
    REM COMPOSER ""
    INDEX 00 44:15:62
    INDEX 01 44:17:45
pic
Информация о группе:
Участники группы по годам:

1969

Андрей Макаревич
Игорь Мазаев
Юрий Борзов
Александр Иванов
Павел Рубен
Сергей Кавагоэ

1970

Андрей Макаревич
Игорь Мазаев
Юрий Борзов
Сергей Кавагоэ

1971

Андрей Макаревич
Юрий Борзов
Сергей Кавагоэ
Александр Кутиков (осень)
Максим Капитановский (зима)

1972 - 1973

Андрей Макаревич
Сергей Кавагоэ
Александр Кутиков
Игорь Саульский (время от времени)
Эдуард Азрилевич
Александр Микоян
Юрий Фокин

1974

Андрей Макаревич
Сергей Кавагоэ
Александр Кутиков
Игорь Дегтярюк (время от времени)
Юрий Фокин
Александр Микоян
Николай Ширяев

1975

Андрей Макаревич
Сергей Кавагоэ
Александр Кутиков
Алексей Романов (в начале года)
Николай Ларин (недолго)
Евгений Маргулис (со второй половины года)

1976

Андрей Макаревич
Сергей Кавагоэ
Евгений Маргулис
Юрий Ильченко (со второй половины года)
Сергей Асташов (недолго)

1977

Андрей Макаревич
Сергей Кавагоэ
Евгений Маргулис
Евгений Легусов
Сергей Велицкий

1978

Андрей Макаревич
Сергей Кавагоэ
Евгений Маргулис
Евгений Легусов
Сергей Кузьминок
Александр Бутузов

1979 (до апреля)

Андрей Макаревич
Сергей Кавагоэ
Евгений Маргулис
Александр Воронов
Александр Бутузов

1979 (с мая)

Андрей Макаревич
Александр Кутиков
Валерий Ефремов
Петр Подгородецкий
Александр Бутузов

1981

Андрей Макаревич
Александр Кутиков
Валерий Ефремов
Петр Подгородецкий

1982 (конец года)

Андрей Макаревич
Александр Кутиков
Валерий Ефремов
Александр Зайцев
Сергей Рыженко

1984

Андрей Макаревич
Александр Кутиков
Валерий Ефремов
Александр Зайцев

1990

Андрей Макаревич
Александр Кутиков
Валерий Ефремов
Евгений Маргулис
Петр Подгородецкий

2000

Андрей Макаревич
Александр Кутиков
Валерий Ефремов
Евгений Маргулис
Андрей Державин

2004

Андрей Макаревич
Александр Кутиков
Валерий Ефремов
Евгений Маргулис
Андрей Державин
Александр Дитковский (сессионный музыкант)
Сергей Остроумов (сессионный музыкант)

2012

Андрей Макаревич
Александр Кутиков
Валерий Ефремов
Андрей Державин
Игорь Хомич (сессионный музыкант)
Александр Дитковский (сессионный музыкант)
Сергей Остроумов (сессионный музыкант)

2017

Андрей Макаревич
Александр Кутиков
Валерий Ефремов
Игорь Хомич (сессионный музыкант)
Александр Левочкин (сессионный музыкант)
Александр Дитковский (сессионный музыкант)
Сергей Остроумов (сессионный музыкант)


pic
pic
50 (2019) image-cue.torrent
Трекер: Зарегистрирован

magnet ссылка

 


Скачать .torrent

22 KB

Статус: проверено (by E IL o T IR i X в 03-Дек-19 23:27)
Зарегистрирован: 03-Дек-19 13:52
Скачан: 16 раз
Размер: 1.62 GB | 
Поблагодарили:
Скачать (Russian Rock) Машина времени - 50 (Box Set, 5CD, Remastered) - 2019 [FLAC, image +.cue, Lossless] торрент
 


Похожие раздачи

Текущее время: 10-Дек 21:57

Часовой пояс: GMT + 3



Вы не можете начинать темы
Вы не можете отвечать на сообщения
Вы не можете редактировать свои сообщения
Вы не можете удалять свои сообщения
Вы не можете голосовать в опросах
Вы не можете прикреплять файлы к сообщениям
Вы не можете скачивать файлы