Loading...
Error
 

Скачать торрент (Power Metal / Progressive Metal / Metal) Darkwater - Human (2019) [FLAC, (tracks+.cue), lossless]

 
Автор Сообщение

Слава2312

post 04-Дек-19 14:17

pic


pic

Жанр: Power Metal / Progressive Metal / Metal
Год издания данного носителя: 2019
Страна-производитель носителя: Sweden
Лейбл: Ulterium Records
Каталоговый номер: ULTCD042
Аудио кодек: FLAC
Тип рипа: tracks+.cue
Битрейт аудио: lossless
Продолжительность: 01:16:09
Источник (релизер): RED
Полиграфия: нет
Для ознакомления:
pic pic pic pic
Треклист:
[06:20] 01. Darkwater - A New Beginning
[07:28] 02. Darkwater - In Front of You
[01:26] 03. Darkwater - Alive, Pt. I
[07:22] 04. Darkwater - Alive, Pt. II
[11:32] 05. Darkwater - Reflection of a Mind
[06:46] 06. Darkwater - Insomnia
[08:04] 07. Darkwater - The Journey
[08:15] 08. Darkwater - Burdens
[09:47] 09. Darkwater - Turning Pages
[09:09] 10. Darkwater - Light of Dawn
AUDIOCHECKER

Код:



AUDIOCHECKER v2.0 beta (build 457) - by Dester
~~~~~~~~~~~~~~~~~~~~~~~~~~~~~~~~~~
-=== НЕ РЕДАКТИРУЙТЕ ЭТОТ ФАЙЛ! ===-

Путь: ...\Darkwater - Human [2019] Flac

01 -=- 01 A New Beginning.flac -=- CDDA (100%)
02 -=- 02 In Front of You.flac -=- CDDA (100%)
03 -=- 03 Alive, Pt. I.flac -=- CDDA (100%)
04 -=- 04 Alive, Pt. II.flac -=- CDDA (99%)
05 -=- 05 Reflection of a Mind.flac -=- CDDA (100%)
06 -=- 06 Insomnia.flac -=- CDDA (99%)
07 -=- 07 The Journey.flac -=- CDDA (100%)
08 -=- 08 Burdens.flac -=- CDDA (100%)
09 -=- 09 Turning Pages.flac -=- CDDA (100%)
10 -=- 10 Light of Dawn.flac -=- CDDA (100%)

Сводка 99,80% CDDA

265079796

Отчёт об извлечении

Код:



X Lossless Decoder version 20181019 (151.1)

XLD extraction logfile from 2019-03-17 10:25:38 +0000

Darkwater / Human

Used drive : MATSHITA BD-MLT UJ240AF (revision 1.00)
Media type : Pressed CD

Ripper mode             : XLD Secure Ripper
Disable audio cache     : OK for the drive with a cache less than 1375KiB
Make use of C2 pointers : NO
Read offset correction  : 103
Max retry count         : 20
Gap status              : Analyzed, Appended (except HTOA)

TOC of the extracted CD
     Track |   Start  |  Length  | Start sector | End sector
    ---------------------------------------------------------
        1  | 00:00:00 | 06:20:19 |         0    |    28518   
        2  | 06:20:19 | 07:28:26 |     28519    |    62144   
        3  | 13:48:45 | 01:25:65 |     62145    |    68584   
        4  | 15:14:35 | 07:21:44 |     68585    |   101703   
        5  | 22:36:04 | 11:31:58 |    101704    |   153586   
        6  | 34:07:62 | 06:46:06 |    153587    |   184042   
        7  | 40:53:68 | 08:03:46 |    184043    |   220313   
        8  | 48:57:39 | 08:15:14 |    220314    |   257452   
        9  | 57:12:53 | 09:47:19 |    257453    |   301496   
       10  | 66:59:72 | 09:08:63 |    301497    |   342659   

AccurateRip Summary
    Disc not found in AccurateRip DB.

All Tracks
    Album gain               : -9.15 dB
    Peak                     : 0.988678
    Statistics
        Read error                           : 0
        Jitter error (maybe fixed)           : 0
        Retry sector count                   : 0
        Damaged sector count                 : 0

Track 01
    Filename : /Users/imac/Working Folder/XLD/Darkwater - Human (2019) [FLAC]/01 A New Beginning.flac
               /Users/imac/Working Folder/XLD/Darkwater - Human (2019) [MP3-320]/01 A New Beginning.mp3
               /Users/imac/Working Folder/XLD/Darkwater - Human (2019) [MP3-V0]/01 A New Beginning.mp3
               /Users/imac/Working Folder/XLD/Darkwater - Human (2019) [MP3-V2]/01 A New Beginning.mp3
    Pre-gap length : 00:02:00

    Track gain               : -9.21 dB
    Peak                     : 0.958984
    CRC32 hash (test run)    : 2AB7ED25
    CRC32 hash               : 2AB7ED25
    CRC32 hash (skip zero)   : EEFA12A7
    AccurateRip v1 signature : 140AAABA
    AccurateRip v2 signature : 33014A34
        ->Track not present in AccurateRip database.
    Statistics
        Read error                           : 0
        Jitter error (maybe fixed)           : 0
        Retry sector count                   : 0
        Damaged sector count                 : 0

Track 02
    Filename : /Users/imac/Working Folder/XLD/Darkwater - Human (2019) [FLAC]/02 In Front of You.flac
               /Users/imac/Working Folder/XLD/Darkwater - Human (2019) [MP3-320]/02 In Front of You.mp3
               /Users/imac/Working Folder/XLD/Darkwater - Human (2019) [MP3-V0]/02 In Front of You.mp3
               /Users/imac/Working Folder/XLD/Darkwater - Human (2019) [MP3-V2]/02 In Front of You.mp3

    Track gain               : -8.90 dB
    Peak                     : 0.956085
    CRC32 hash (test run)    : 8BF4C8BB
    CRC32 hash               : 8BF4C8BB
    CRC32 hash (skip zero)   : 32000254
    AccurateRip v1 signature : 2C3EE7D6
    AccurateRip v2 signature : 8096BAA1
        ->Track not present in AccurateRip database.
    Statistics
        Read error                           : 0
        Jitter error (maybe fixed)           : 0
        Retry sector count                   : 0
        Damaged sector count                 : 0

Track 03
    Filename : /Users/imac/Working Folder/XLD/Darkwater - Human (2019) [FLAC]/03 Alive, Pt. I.flac
               /Users/imac/Working Folder/XLD/Darkwater - Human (2019) [MP3-320]/03 Alive, Pt. I.mp3
               /Users/imac/Working Folder/XLD/Darkwater - Human (2019) [MP3-V0]/03 Alive, Pt. I.mp3
               /Users/imac/Working Folder/XLD/Darkwater - Human (2019) [MP3-V2]/03 Alive, Pt. I.mp3

    Track gain               : -2.49 dB
    Peak                     : 0.684387
    CRC32 hash (test run)    : 332DC524
    CRC32 hash               : 332DC524
    CRC32 hash (skip zero)   : A523FEDE
    AccurateRip v1 signature : B446BB07
    AccurateRip v2 signature : 6204FAE6
        ->Track not present in AccurateRip database.
    Statistics
        Read error                           : 0
        Jitter error (maybe fixed)           : 0
        Retry sector count                   : 0
        Damaged sector count                 : 0

Track 04
    Filename : /Users/imac/Working Folder/XLD/Darkwater - Human (2019) [FLAC]/04 Alive, Pt. II.flac
               /Users/imac/Working Folder/XLD/Darkwater - Human (2019) [MP3-320]/04 Alive, Pt. II.mp3
               /Users/imac/Working Folder/XLD/Darkwater - Human (2019) [MP3-V0]/04 Alive, Pt. II.mp3
               /Users/imac/Working Folder/XLD/Darkwater - Human (2019) [MP3-V2]/04 Alive, Pt. II.mp3

    Track gain               : -9.12 dB
    Peak                     : 0.956787
    CRC32 hash (test run)    : C39CAAC0
    CRC32 hash               : C39CAAC0
    CRC32 hash (skip zero)   : 4131CAB7
    AccurateRip v1 signature : 9789C8BF
    AccurateRip v2 signature : 27FCD7A2
        ->Track not present in AccurateRip database.
    Statistics
        Read error                           : 0
        Jitter error (maybe fixed)           : 0
        Retry sector count                   : 0
        Damaged sector count                 : 0

Track 05
    Filename : /Users/imac/Working Folder/XLD/Darkwater - Human (2019) [FLAC]/05 Reflection of a Mind.flac
               /Users/imac/Working Folder/XLD/Darkwater - Human (2019) [MP3-320]/05 Reflection of a Mind.mp3
               /Users/imac/Working Folder/XLD/Darkwater - Human (2019) [MP3-V0]/05 Reflection of a Mind.mp3
               /Users/imac/Working Folder/XLD/Darkwater - Human (2019) [MP3-V2]/05 Reflection of a Mind.mp3

    Track gain               : -9.04 dB
    Peak                     : 0.956818
    CRC32 hash (test run)    : 31708C63
    CRC32 hash               : 31708C63
    CRC32 hash (skip zero)   : 9544404A
    AccurateRip v1 signature : 70D377F6
    AccurateRip v2 signature : 06367235
        ->Track not present in AccurateRip database.
    Statistics
        Read error                           : 0
        Jitter error (maybe fixed)           : 0
        Retry sector count                   : 0
        Damaged sector count                 : 0

Track 06
    Filename : /Users/imac/Working Folder/XLD/Darkwater - Human (2019) [FLAC]/06 Insomnia.flac
               /Users/imac/Working Folder/XLD/Darkwater - Human (2019) [MP3-320]/06 Insomnia.mp3
               /Users/imac/Working Folder/XLD/Darkwater - Human (2019) [MP3-V0]/06 Insomnia.mp3
               /Users/imac/Working Folder/XLD/Darkwater - Human (2019) [MP3-V2]/06 Insomnia.mp3

    Track gain               : -9.26 dB
    Peak                     : 0.956360
    CRC32 hash (test run)    : F79657C6
    CRC32 hash               : F79657C6
    CRC32 hash (skip zero)   : 2E24F2ED
    AccurateRip v1 signature : 4924F09C
    AccurateRip v2 signature : 77A86A2D
        ->Track not present in AccurateRip database.
    Statistics
        Read error                           : 0
        Jitter error (maybe fixed)           : 0
        Retry sector count                   : 0
        Damaged sector count                 : 0

Track 07
    Filename : /Users/imac/Working Folder/XLD/Darkwater - Human (2019) [FLAC]/07 The Journey.flac
               /Users/imac/Working Folder/XLD/Darkwater - Human (2019) [MP3-320]/07 The Journey.mp3
               /Users/imac/Working Folder/XLD/Darkwater - Human (2019) [MP3-V0]/07 The Journey.mp3
               /Users/imac/Working Folder/XLD/Darkwater - Human (2019) [MP3-V2]/07 The Journey.mp3

    Track gain               : -9.85 dB
    Peak                     : 0.988678
    CRC32 hash (test run)    : B68F3535
    CRC32 hash               : B68F3535
    CRC32 hash (skip zero)   : 9F473786
    AccurateRip v1 signature : 3AA4553F
    AccurateRip v2 signature : 6939647A
        ->Track not present in AccurateRip database.
    Statistics
        Read error                           : 0
        Jitter error (maybe fixed)           : 0
        Retry sector count                   : 0
        Damaged sector count                 : 0

Track 08
    Filename : /Users/imac/Working Folder/XLD/Darkwater - Human (2019) [FLAC]/08 Burdens.flac
               /Users/imac/Working Folder/XLD/Darkwater - Human (2019) [MP3-320]/08 Burdens.mp3
               /Users/imac/Working Folder/XLD/Darkwater - Human (2019) [MP3-V0]/08 Burdens.mp3
               /Users/imac/Working Folder/XLD/Darkwater - Human (2019) [MP3-V2]/08 Burdens.mp3

    Track gain               : -9.50 dB
    Peak                     : 0.956573
    CRC32 hash (test run)    : 3F115081
    CRC32 hash               : 3F115081
    CRC32 hash (skip zero)   : 2742DCC4
    AccurateRip v1 signature : A5A9E435
    AccurateRip v2 signature : E5B06CE5
        ->Track not present in AccurateRip database.
    Statistics
        Read error                           : 0
        Jitter error (maybe fixed)           : 0
        Retry sector count                   : 0
        Damaged sector count                 : 0

Track 09
    Filename : /Users/imac/Working Folder/XLD/Darkwater - Human (2019) [FLAC]/09 Turning Pages.flac
               /Users/imac/Working Folder/XLD/Darkwater - Human (2019) [MP3-320]/09 Turning Pages.mp3
               /Users/imac/Working Folder/XLD/Darkwater - Human (2019) [MP3-V0]/09 Turning Pages.mp3
               /Users/imac/Working Folder/XLD/Darkwater - Human (2019) [MP3-V2]/09 Turning Pages.mp3

    Track gain               : -9.01 dB
    Peak                     : 0.956665
    CRC32 hash (test run)    : 4468D8CD
    CRC32 hash               : 4468D8CD
    CRC32 hash (skip zero)   : 5AE103A6
    AccurateRip v1 signature : 35E2D3BD
    AccurateRip v2 signature : 0495878F
        ->Track not present in AccurateRip database.
    Statistics
        Read error                           : 0
        Jitter error (maybe fixed)           : 0
        Retry sector count                   : 0
        Damaged sector count                 : 0

Track 10
    Filename : /Users/imac/Working Folder/XLD/Darkwater - Human (2019) [FLAC]/10 Light of Dawn.flac
               /Users/imac/Working Folder/XLD/Darkwater - Human (2019) [MP3-320]/10 Light of Dawn.mp3
               /Users/imac/Working Folder/XLD/Darkwater - Human (2019) [MP3-V0]/10 Light of Dawn.mp3
               /Users/imac/Working Folder/XLD/Darkwater - Human (2019) [MP3-V2]/10 Light of Dawn.mp3

    Track gain               : -8.94 dB
    Peak                     : 0.955994
    CRC32 hash (test run)    : 078CCB19
    CRC32 hash               : 078CCB19
    CRC32 hash (skip zero)   : 4B6A64E0
    AccurateRip v1 signature : 3FDEDEF9
    AccurateRip v2 signature : 86835494
        ->Track not present in AccurateRip database.
    Statistics
        Read error                           : 0
        Jitter error (maybe fixed)           : 0
        Retry sector count                   : 0
        Damaged sector count                 : 0

No errors occurred

End of status report

-----BEGIN XLD SIGNATURE-----
C2fUTTeqfc6AjM4kfxafCl8jJkCIsoCZ0s6MwKibvwrmVBx_U0gxh2CoA5bD_KNgO1if66QY4ofxX_9CC8dEz6XifsYidZEEIK36yEW
-----END XLD SIGNATURE-----

Текст .cue (файл разметки)

Код:



TITLE "Human"
PERFORMER "Darkwater"
CATALOG 0750253122942
REM GENRE "Progressive Metal"
REM DATE "2019"
REM DISCNUMBER 1
REM TOTALDISCS 1
REM DISCID 8611D80A
REM REPLAYGAIN_ALBUM_GAIN -9.15 dB
REM REPLAYGAIN_ALBUM_PEAK 0.988678
FILE "01 A New Beginning.flac" WAVE
  TRACK 01 AUDIO
    TITLE "A New Beginning"
    PERFORMER "Darkwater"
    ISRC SEXEN1900101
    REM REPLAYGAIN_TRACK_GAIN -9.21 dB
    REM REPLAYGAIN_TRACK_PEAK 0.958984
    INDEX 01 00:00:00
FILE "02 In Front of You.flac" WAVE
  TRACK 02 AUDIO
    TITLE "In Front of You"
    PERFORMER "Darkwater"
    ISRC SEXEN1900102
    REM REPLAYGAIN_TRACK_GAIN -8.90 dB
    REM REPLAYGAIN_TRACK_PEAK 0.956085
    INDEX 01 00:00:00
FILE "03 Alive, Pt. I.flac" WAVE
  TRACK 03 AUDIO
    TITLE "Alive, Pt. I"
    PERFORMER "Darkwater"
    ISRC SEXEN1900103
    REM REPLAYGAIN_TRACK_GAIN -2.49 dB
    REM REPLAYGAIN_TRACK_PEAK 0.684387
    INDEX 01 00:00:00
FILE "04 Alive, Pt. II.flac" WAVE
  TRACK 04 AUDIO
    TITLE "Alive, Pt. II"
    PERFORMER "Darkwater"
    ISRC SEXEN1900104
    REM REPLAYGAIN_TRACK_GAIN -9.12 dB
    REM REPLAYGAIN_TRACK_PEAK 0.956787
    INDEX 01 00:00:00
FILE "05 Reflection of a Mind.flac" WAVE
  TRACK 05 AUDIO
    TITLE "Reflection of a Mind"
    PERFORMER "Darkwater"
    ISRC SEXEN1900105
    REM REPLAYGAIN_TRACK_GAIN -9.04 dB
    REM REPLAYGAIN_TRACK_PEAK 0.956818
    INDEX 01 00:00:00
FILE "06 Insomnia.flac" WAVE
  TRACK 06 AUDIO
    TITLE "Insomnia"
    PERFORMER "Darkwater"
    ISRC SEXEN1900106
    REM REPLAYGAIN_TRACK_GAIN -9.26 dB
    REM REPLAYGAIN_TRACK_PEAK 0.956360
    INDEX 01 00:00:00
FILE "07 The Journey.flac" WAVE
  TRACK 07 AUDIO
    TITLE "The Journey"
    PERFORMER "Darkwater"
    ISRC SEXEN1900107
    REM REPLAYGAIN_TRACK_GAIN -9.85 dB
    REM REPLAYGAIN_TRACK_PEAK 0.988678
    INDEX 01 00:00:00
FILE "08 Burdens.flac" WAVE
  TRACK 08 AUDIO
    TITLE "Burdens"
    PERFORMER "Darkwater"
    ISRC SEXEN1900108
    REM REPLAYGAIN_TRACK_GAIN -9.50 dB
    REM REPLAYGAIN_TRACK_PEAK 0.956573
    INDEX 01 00:00:00
FILE "09 Turning Pages.flac" WAVE
  TRACK 09 AUDIO
    TITLE "Turning Pages"
    PERFORMER "Darkwater"
    ISRC SEXEN1900109
    REM REPLAYGAIN_TRACK_GAIN -9.01 dB
    REM REPLAYGAIN_TRACK_PEAK 0.956665
    INDEX 01 00:00:00
FILE "10 Light of Dawn.flac" WAVE
  TRACK 10 AUDIO
    TITLE "Light of Dawn"
    PERFORMER "Darkwater"
    ISRC SEXEN1900110
    REM REPLAYGAIN_TRACK_GAIN -8.94 dB
    REM REPLAYGAIN_TRACK_PEAK 0.955994
    INDEX 01 00:00:00

Замер динамического диапазона (DR)

Код:



foobar2000 1.4.1 / Замер динамического диапазона (DR) 1.1.1
Дата отчёта:    2019-12-04 15:06:28

--------------------------------------------------------------------------------
Анализ:   Darkwater / Human
--------------------------------------------------------------------------------

DR         Пики         RMS           Продолжительность трека
--------------------------------------------------------------------------------
DR7       -0.36 дБ    -9.17 дБ      6:20 01-A New Beginning
DR7       -0.39 дБ    -9.26 дБ      7:28 02-In Front of You
DR9       -3.29 дБ   -15.44 дБ      1:26 03-Alive, Pt. I
DR7       -0.38 дБ    -9.06 дБ      7:22 04-Alive, Pt. II
DR7       -0.38 дБ    -9.17 дБ     11:32 05-Reflection of a Mind
DR7       -0.39 дБ    -8.97 дБ      6:46 06-Insomnia
DR7       -0.10 дБ    -8.16 дБ      8:04 07-The Journey
DR6       -0.39 дБ    -8.99 дБ      8:15 08-Burdens
DR7       -0.38 дБ    -9.28 дБ      9:47 09-Turning Pages
DR7       -0.39 дБ    -9.52 дБ      9:09 10-Light of Dawn
--------------------------------------------------------------------------------

Количество треков:  10
Реальные значения DR:  DR7

Частота:      44100 Гц
Каналов:      2
Разрядность:     16
Битрейт:      1011 кбит/с
Кодек:      FLAC
================================================================================

Спектрограммы
Darkwater - Human (2019) Flac.torrent
Трекер: Зарегистрирован

magnet ссылка

 


Скачать .torrent

12 KB

Статус: проверено (by E IL o T IR i X в 04-Дек-19 14:26)
Зарегистрирован: 04-Дек-19 14:17
Скачан: 13 раз
Размер: 558 MB | 
Поблагодарили:
Скачать (Power Metal / Progressive Metal / Metal) Darkwater - Human (2019) [FLAC, (tracks+.cue), lossless] торрент
 


Похожие раздачи

Текущее время: 16-Дек 07:22

Часовой пояс: GMT + 3



Вы не можете начинать темы
Вы не можете отвечать на сообщения
Вы не можете редактировать свои сообщения
Вы не можете удалять свои сообщения
Вы не можете голосовать в опросах
Вы не можете прикреплять файлы к сообщениям
Вы не можете скачивать файлы