Loading...
Error
 
Мини-чат
 

Скачать торрент (Pop) ABBA - The Essential Collectioon (1972-1982, 2CD) - 2012 [FLAC, image +.cue, lossless]



 
Автор Сообщение

trygg

post 12-Дек-19 12:30


ABBA - The Essential Collectioon (1972-1982, 2CD)


pic
Год издания: 2012
Страна: Sweden pic
Жанр: Pop
Продолжительность: 02:34:52
Лейбл издания: Polar
Страна-выпуска диска: EU pic
Номер по каталогу: 00602537005772
Формат: FLAC
Битрейт аудио: Lossless
Тип рипа: image +.cue
Наличие сканов в содержимом раздачи: да

pic
Трэклист
CD 1 | 01:18:34
pic
01. People Need Love (2:48)
02. He is Your Brother (3:21)
03. Ring Ring (3:06)
04. Love Isn't Easy (But It Sure is Hard Enough) (2:55)
05. Waterloo (2:46)
06. Honey, Honey (2:56)
07. So Long (3:07)
08. I Do, I Do, I Do, I Do, I Do (3:18)
09. S.O.S. (3:23)
10. Mamma Mia (3:34)
11. Bang-a-Boomerang (3:05)
12. Fernando (4:15)
13. Dancing Queen (3:53)
14. Money, Money, Money (3:10)
15. Knowing Me, Knowing You (4:05)
16. That's Me (3:18)
17. The Name of the Game (4:55)
18. Take a Chance On Me (4:09)
19. Eagle (4:28)
20. One Man, One Woman (4:34)
21. Thank You For the Music (3:52)
22. Summer Night City (3:37)
CD 2 | 01:16:18
pic
01. Chiquitita (5:28)
02. Does Your Mother Know (3:16)
03. Voulez-Vous (5:10)
04. Angel Eyes (4:24)
05. Gimme! Gimme! Gimme! (A Man After Midnight) (4:52)
06. I Have a Dream (4:44)
07. The Winner Takes It All (4:57)
08. Super Trouper (4:12)
09. On and On and On (3:41)
10. Lay All Your Love On Me (4:36)
11. Happy New Year (4:25)
12. One of Us (3:58)
13. When All is Said and Done (3:20)
14. Head Over Heels (3:49)
15. The Visitors (5:47)
16. The Day Before You Came (5:50)
17. Under Attack (3:50)

pic
Лог создания рипа
CD 1

Код:

Exact Audio Copy V1.0 beta 3 from 29. August 2011

Отчёт EAC об извлечении, выполненном 10. ноября 2019, 15:36

ABBA / The Essential Collection (Disc 1)

Дисковод: PIONEER DVD-RW  DVR-221L   Adapter: 3  ID: 0

Режим чтения                 : Достоверность
Использование точного потока : Да
Отключение кэша аудио        : Да
Использование указателей C2  : Нет

Коррекция смещения при чтении                     : 6
Способность читать области Lead-in и Lead-out     : Нет
Заполнение пропущенных сэмплов тишиной            : Да
Удаление блоков с тишиной в начале и конце        : Нет
При вычислениях CRC использовались нулевые сэмплы : Да
Интерфейс                                         : Встроенный Win32-интерфейс для Win NT/2000

Выходной формат          : Пользовательский кодировщик
Выбранный битрейт        : 768 kBit/s
Качество                 : Высокий
Добавление ID3-тега      : Нет
Утилита сжатия           : C:\Program Files (x86)\Exact Audio Copy\FLAC\FLAC.EXE
Дополнительные параметры : -6 -V -T "ARTIST=%artist%" -T "TITLE=%title%" -T "ALBUM=%albumtitle%" -T "DATE=%year%" -T "TRACKNUMBER=%tracknr%" -T "GENRE=%genre%" -T "COMMENT=%comment%" -T "BAND=%albuminterpret%" -T "ALBUMARTIST=%albuminterpret%" -T "COMPOSER=%composer%" %haslyrics%--tag-from-file=LYRICS="%lyricsfile%"%haslyrics% -T "DISCNUMBER=%cdnumber%" -T "TOTALDISCS=%totalcds%" -T "TOTALTRACKS=%numtracks%" %hascover%--picture="%coverfile%"%hascover% %source% -o %dest%

TOC извлечённого CD

     Трек |   Старт  | Длительность | Начальный сектор | Конечный сектор
    ---------------------------------------------------------------------
       1  |  0:00.00 |    2:47.46   |           0      |      12570
       2  |  2:47.46 |    3:20.44   |       12571      |      27614
       3  |  6:08.15 |    3:05.63   |       27615      |      41552
       4  |  9:14.03 |    2:55.08   |       41553      |      54685
       5  | 12:09.11 |    2:46.32   |       54686      |      67167
       6  | 14:55.43 |    2:56.06   |       67168      |      80373
       7  | 17:51.49 |    3:06.58   |       80374      |      94381
       8  | 20:58.32 |    3:18.18   |       94382      |     109249
       9  | 24:16.50 |    3:23.36   |      109250      |     124510
      10  | 27:40.11 |    3:33.52   |      124511      |     140537
      11  | 31:13.63 |    3:04.66   |      140538      |     154403
      12  | 34:18.54 |    4:15.29   |      154404      |     173557
      13  | 38:34.08 |    3:53.33   |      173558      |     191065
      14  | 42:27.41 |    3:09.48   |      191066      |     205288
      15  | 45:37.14 |    4:04.50   |      205289      |     223638
      16  | 49:41.64 |    3:18.11   |      223639      |     238499
      17  | 53:00.00 |    4:54.55   |      238500      |     260604
      18  | 57:54.55 |    4:08.74   |      260605      |     279278
      19  | 62:03.54 |    4:28.36   |      279279      |     299414
      20  | 66:32.15 |    4:33.41   |      299415      |     319930
      21  | 71:05.56 |    3:51.67   |      319931      |     337322
      22  | 74:57.48 |    3:36.41   |      337323      |     353563

Характеристики диапазона извлечения и сообщения об ошибках

Выбранный диапазон

     Имя файла E:\торрент\ABBA THE essential collectioon 2012\CD1\ABBA - The Essential Collection (Disc 1).wav

     Подозрительная позиция 1:16:44
     Подозрительная позиция 1:17:42
     Подозрительная позиция 1:17:52
     Подозрительная позиция 1:17:55
     Подозрительная позиция 1:18:20

     Пиковый уровень 98.6 %
     Скорость извлечения 1.5 X
     Качество диапазона 99.8 %
     CRC теста 1AA481FC
     CRC копии 4E5FAE5C
     Копирование завершено

Были ошибки

AccurateRip: сводка

Трек  1  : извлечено точно (доверие 59)  [75C11ED2]  (AR v2)
Трек  2  : извлечено точно (доверие 58)  [467F098C]  (AR v2)
Трек  3  : извлечено точно (доверие 59)  [FEBC6623]  (AR v2)
Трек  4  : извлечено точно (доверие 59)  [73CC1DD8]  (AR v2)
Трек  5  : извлечено точно (доверие 60)  [6D567D66]  (AR v2)
Трек  6  : извлечено точно (доверие 58)  [2EE3B3F4]  (AR v2)
Трек  7  : извлечено точно (доверие 58)  [22578949]  (AR v2)
Трек  8  : извлечено точно (доверие 59)  [66BD8129]  (AR v2)
Трек  9  : извлечено точно (доверие 60)  [61A9C5D6]  (AR v2)
Трек 10  : извлечено точно (доверие 60)  [619AFC2C]  (AR v2)
Трек 11  : извлечено точно (доверие 59)  [3847CFA5]  (AR v2)
Трек 12  : извлечено точно (доверие 58)  [EB15845C]  (AR v2)
Трек 13  : извлечено точно (доверие 60)  [9004D161]  (AR v2)
Трек 14  : извлечено точно (доверие 58)  [38C64071]  (AR v2)
Трек 15  : извлечено точно (доверие 59)  [F09008ED]  (AR v2)
Трек 16  : извлечено точно (доверие 59)  [E0321244]  (AR v2)
Трек 17  : извлечено точно (доверие 58)  [861B7A52]  (AR v2)
Трек 18  : извлечено точно (доверие 59)  [19CBE264]  (AR v2)
Трек 19  : извлечено точно (доверие 58)  [47863DD1]  (AR v2)
Трек 20  : извлечено точно (доверие 56)  [A7263C1E]  (AR v2)
Трек 21  точность не определена (достоверность 57)  [1A3D473D], AccurateRip вернул [8B32E88C]  (AR v2)
Трек 22  точность не определена (достоверность 57)  [1FDBE575], AccurateRip вернул [8DBB5B98]  (AR v2)

20 трек(и) скопированы точно
 2 трек(и) не удалось проверить на точность

Некоторые треки не прошли проверку на точность

Конец отчёта
CD 2

Код:

Exact Audio Copy V1.0 beta 3 from 29. August 2011

Отчёт EAC об извлечении, выполненном 4. ноября 2019, 19:19

ABBA / The Essential Collection (Disc 2)

Дисковод: PIONEER DVD-RW  DVR-221L   Adapter: 3  ID: 0

Режим чтения                 : Достоверность
Использование точного потока : Да
Отключение кэша аудио        : Да
Использование указателей C2  : Нет

Коррекция смещения при чтении                     : 6
Способность читать области Lead-in и Lead-out     : Нет
Заполнение пропущенных сэмплов тишиной            : Да
Удаление блоков с тишиной в начале и конце        : Нет
При вычислениях CRC использовались нулевые сэмплы : Да
Интерфейс                                         : Встроенный Win32-интерфейс для Win NT/2000

Выходной формат          : Пользовательский кодировщик
Выбранный битрейт        : 768 kBit/s
Качество                 : Высокий
Добавление ID3-тега      : Нет
Утилита сжатия           : C:\Program Files (x86)\Exact Audio Copy\FLAC\FLAC.EXE
Дополнительные параметры : -6 -V -T "ARTIST=%artist%" -T "TITLE=%title%" -T "ALBUM=%albumtitle%" -T "DATE=%year%" -T "TRACKNUMBER=%tracknr%" -T "GENRE=%genre%" -T "COMMENT=%comment%" -T "BAND=%albuminterpret%" -T "ALBUMARTIST=%albuminterpret%" -T "COMPOSER=%composer%" %haslyrics%--tag-from-file=LYRICS="%lyricsfile%"%haslyrics% -T "DISCNUMBER=%cdnumber%" -T "TOTALDISCS=%totalcds%" -T "TOTALTRACKS=%numtracks%" %hascover%--picture="%coverfile%"%hascover% %source% -o %dest%

TOC извлечённого CD

     Трек |   Старт  | Длительность | Начальный сектор | Конечный сектор
    ---------------------------------------------------------------------
       1  |  0:00.00 |    5:27.65   |           0      |      24589
       2  |  5:27.65 |    3:16.13   |       24590      |      39302
       3  |  8:44.03 |    5:09.48   |       39303      |      62525
       4  | 13:53.51 |    4:23.45   |       62526      |      82295
       5  | 18:17.21 |    4:52.04   |       82296      |     104199
       6  | 23:09.25 |    4:44.20   |      104200      |     125519
       7  | 27:53.45 |    4:56.46   |      125520      |     147765
       8  | 32:50.16 |    4:12.06   |      147766      |     166671
       9  | 37:02.22 |    3:41.36   |      166672      |     183282
      10  | 40:43.58 |    4:36.24   |      183283      |     204006
      11  | 45:20.07 |    4:25.15   |      204007      |     223896
      12  | 49:45.22 |    3:57.54   |      223897      |     241725
      13  | 53:43.01 |    3:20.23   |      241726      |     256748
      14  | 57:03.24 |    3:48.45   |      256749      |     273893
      15  | 60:51.69 |    5:46.66   |      273894      |     299909
      16  | 66:38.60 |    5:49.61   |      299910      |     326145
      17  | 72:28.46 |    3:49.43   |      326146      |     343363

Характеристики диапазона извлечения и сообщения об ошибках

Выбранный диапазон

     Имя файла E:\торрент\ABBA the essential collectioon 2012\ABBA - The Essential Collection (Disc 2).wav

     Пиковый уровень 87.2 %
     Скорость извлечения 2.2 X
     Качество диапазона 100.0 %
     CRC теста F25C11CE
     CRC копии F25C11CE
     Копирование... OK

Ошибок не произошло

AccurateRip: сводка

Трек  1  : извлечено точно (доверие 57)  [21FB581F]  (AR v2)
Трек  2  : извлечено точно (доверие 58)  [791A7966]  (AR v2)
Трек  3  : извлечено точно (доверие 58)  [86B84125]  (AR v2)
Трек  4  : извлечено точно (доверие 58)  [AED91690]  (AR v2)
Трек  5  : извлечено точно (доверие 57)  [B175041C]  (AR v2)
Трек  6  : извлечено точно (доверие 57)  [3B8264D5]  (AR v2)
Трек  7  : извлечено точно (доверие 58)  [A98F2E60]  (AR v2)
Трек  8  : извлечено точно (доверие 57)  [2646EA93]  (AR v2)
Трек  9  : извлечено точно (доверие 57)  [7A6AE6A8]  (AR v2)
Трек 10  : извлечено точно (доверие 57)  [56258F76]  (AR v2)
Трек 11  : извлечено точно (доверие 56)  [ABD2132D]  (AR v2)
Трек 12  : извлечено точно (доверие 56)  [AAC3210E]  (AR v2)
Трек 13  : извлечено точно (доверие 56)  [41BD071F]  (AR v2)
Трек 14  : извлечено точно (доверие 56)  [E9849F31]  (AR v2)
Трек 15  : извлечено точно (доверие 56)  [EB283D52]  (AR v2)
Трек 16  : извлечено точно (доверие 57)  [53E13733]  (AR v2)
Трек 17  : извлечено точно (доверие 56)  [34D11CFE]  (AR v2)

Все треки извлечены точно

Конец отчёта
Индексная карта (non-compilant .cue)
CD 1

Код:

REM GENRE Pop/Rock
REM DATE 2012
REM DISCID 66126A16
REM COMMENT "ExactAudioCopy v1.0b3"
PERFORMER "ABBA"
TITLE "The Essential Collection (Disc 1)"
FILE "ABBA - The Essential Collection (Disc 1).flac" WAVE
  TRACK 01 AUDIO
    TITLE "People Need Love"
    PERFORMER "ABBA"
    INDEX 01 00:00:00
  TRACK 02 AUDIO
    TITLE "He is Your Brother"
    PERFORMER "ABBA"
    INDEX 01 02:47:46
  TRACK 03 AUDIO
    TITLE "Ring Ring "
    PERFORMER "ABBA"
    INDEX 00 06:06:40
    INDEX 01 06:08:15
  TRACK 04 AUDIO
    TITLE "Love Isn't Easy (But It Sure is Hard Enough)"
    PERFORMER "ABBA"
    INDEX 01 09:14:03
  TRACK 05 AUDIO
    TITLE "Waterloo"
    PERFORMER "ABBA"
    INDEX 01 12:09:11
  TRACK 06 AUDIO
    TITLE "Honey, Honey"
    PERFORMER "ABBA"
    INDEX 01 14:55:43
  TRACK 07 AUDIO
    TITLE "So Long"
    PERFORMER "ABBA"
    INDEX 00 17:49:48
    INDEX 01 17:51:49
  TRACK 08 AUDIO
    TITLE "I Do, I Do, I Do, I Do, I Do"
    PERFORMER "ABBA"
    INDEX 01 20:58:32
  TRACK 09 AUDIO
    TITLE "S.O.S."
    PERFORMER "ABBA"
    INDEX 00 24:15:63
    INDEX 01 24:16:50
  TRACK 10 AUDIO
    TITLE "Mamma Mia"
    PERFORMER "ABBA"
    INDEX 01 27:40:11
  TRACK 11 AUDIO
    TITLE "Bang-a-Boomerang"
    PERFORMER "ABBA"
    INDEX 01 31:13:63
  TRACK 12 AUDIO
    TITLE "Fernando"
    PERFORMER "ABBA"
    INDEX 01 34:18:54
  TRACK 13 AUDIO
    TITLE "Dancing Queen"
    PERFORMER "ABBA"
    INDEX 01 38:34:08
  TRACK 14 AUDIO
    TITLE "Money, Money, Money"
    PERFORMER "ABBA"
    INDEX 01 42:27:41
  TRACK 15 AUDIO
    TITLE "Knowing Me, Knowing You"
    PERFORMER "ABBA"
    INDEX 00 45:36:31
    INDEX 01 45:37:14
  TRACK 16 AUDIO
    TITLE "That's Me"
    PERFORMER "ABBA"
    INDEX 00 49:40:70
    INDEX 01 49:41:64
  TRACK 17 AUDIO
    TITLE "The Name of the Game"
    PERFORMER "ABBA"
    INDEX 00 52:59:03
    INDEX 01 53:00:00
  TRACK 18 AUDIO
    TITLE "Take a Chance On Me"
    PERFORMER "ABBA"
    INDEX 01 57:54:55
  TRACK 19 AUDIO
    TITLE "Eagle"
    PERFORMER "ABBA"
    INDEX 01 62:03:54
  TRACK 20 AUDIO
    TITLE "One Man, One Woman"
    PERFORMER "ABBA"
    INDEX 00 66:31:12
    INDEX 01 66:32:15
  TRACK 21 AUDIO
    TITLE "Thank You For the Music"
    PERFORMER "ABBA"
    INDEX 00 71:04:39
    INDEX 01 71:05:56
  TRACK 22 AUDIO
    TITLE "Summer Night City"
    PERFORMER "ABBA"
    INDEX 00 74:56:33
    INDEX 01 74:57:48
CD 2

Код:

REM GENRE Pop/Rock
REM DATE 2012
REM DISCID EF11E211
REM COMMENT "ExactAudioCopy v1.0b3"
PERFORMER "ABBA"
TITLE "The Essential Collection (Disc 2)"
FILE "ABBA - The Essential Collection (Disc 2).flac" WAVE
  TRACK 01 AUDIO
    TITLE "Chiquitita"
    PERFORMER "ABBA"
    INDEX 01 00:00:00
  TRACK 02 AUDIO
    TITLE "Does Your Mother Know"
    PERFORMER "ABBA"
    INDEX 01 05:27:65
  TRACK 03 AUDIO
    TITLE "Voulez-Vous"
    PERFORMER "ABBA"
    INDEX 00 08:43:08
    INDEX 01 08:44:03
  TRACK 04 AUDIO
    TITLE "Angel Eyes"
    PERFORMER "ABBA"
    INDEX 01 13:53:51
  TRACK 05 AUDIO
    TITLE "Gimme! Gimme! Gimme! (A Man After Midnight)"
    PERFORMER "ABBA"
    INDEX 00 18:16:13
    INDEX 01 18:17:21
  TRACK 06 AUDIO
    TITLE "I Have a Dream"
    PERFORMER "ABBA"
    INDEX 00 23:07:55
    INDEX 01 23:09:25
  TRACK 07 AUDIO
    TITLE "The Winner Takes It All"
    PERFORMER "ABBA"
    INDEX 01 27:53:45
  TRACK 08 AUDIO
    TITLE "Super Trouper"
    PERFORMER "ABBA"
    INDEX 00 32:48:69
    INDEX 01 32:50:16
  TRACK 09 AUDIO
    TITLE "On and On and On"
    PERFORMER "ABBA"
    INDEX 01 37:02:22
  TRACK 10 AUDIO
    TITLE "Lay All Your Love On Me"
    PERFORMER "ABBA"
    INDEX 00 40:42:44
    INDEX 01 40:43:58
  TRACK 11 AUDIO
    TITLE "Happy New Year"
    PERFORMER "ABBA"
    INDEX 00 45:19:16
    INDEX 01 45:20:07
  TRACK 12 AUDIO
    TITLE "One of Us"
    PERFORMER "ABBA"
    INDEX 00 49:44:12
    INDEX 01 49:45:22
  TRACK 13 AUDIO
    TITLE "When All is Said and Done"
    PERFORMER "ABBA"
    INDEX 01 53:43:01
  TRACK 14 AUDIO
    TITLE "Head Over Heels"
    PERFORMER "ABBA"
    INDEX 00 57:01:56
    INDEX 01 57:03:24
  TRACK 15 AUDIO
    TITLE "The Visitors"
    PERFORMER "ABBA"
    INDEX 01 60:51:69
  TRACK 16 AUDIO
    TITLE "The Day Before You Came"
    PERFORMER "ABBA"
    INDEX 01 66:38:60
  TRACK 17 AUDIO
    TITLE "Under Attack"
    PERFORMER "ABBA"
    INDEX 01 72:28:46

pic
для ознакомления:


pic
pic

ABBA THE essential collectioon ( 2CD ) 2012.torrent
Трекер: Зарегистрирован

magnet ссылка

 


Скачать .torrent

12 KB

Статус: проверено (by ilyash_rekviem в 12-Дек-19 13:13)
Зарегистрирован: 12-Дек-19 12:30
Скачан: 29 раз
Размер: 1.05 GB | 
Поблагодарили:
Скачать (Pop) ABBA - The Essential Collectioon (1972-1982, 2CD) - 2012 [FLAC, image +.cue, lossless] торрент
 


Похожие раздачи

Текущее время: 26-Ноя 03:23

Часовой пояс: GMT + 3



Вы не можете начинать темы
Вы не можете отвечать на сообщения
Вы не можете редактировать свои сообщения
Вы не можете удалять свои сообщения
Вы не можете голосовать в опросах
Вы не можете прикреплять файлы к сообщениям
Вы не можете скачивать файлы