Loading...
Error
 
Мини-чат
 

Скачать торрент (Disco, Funk, Soul, Pop) VA - Boney M. & Friends (Top 40, 2CD) - 2017 [FLAC, image +.cue, lossless]



 
Автор Сообщение

trygg

post 13-Дек-19 16:03


VA - Boney M. & Friends (Top 40, 2CD)


pic
Год издания: 2017
Страна: International pic
Жанр: Disco, Funk, Soul, Pop
Продолжительность:
Лейбл издания: Sony Music
Страна-выпуска диска: EU pic
Номер по каталогу: 8985457082
Формат: FLAC
Битрейт аудио: Lossless
Тип рипа: image +.cue
Наличие сканов в содержимом раздачи: да

pic
Трэклист
pic
CD 1 | 01:18:19
pic
pic
01. Boney M. - Rivers Of Babylon (4:09)
02. Boney M. - Sunny (3:59)
03. Eruption Ft. Precious Wilson - I Can Stand The Rain (3:08)
04. Boney M. - Daddy Cool (3:29)
05. Milli Vanilli - Girl I'm Gonna Miss You (4:33)
06. Boney M. - Rasputin (4:28)
07. La Bouche - Be My Lover (4:02)
08. No Mercy - Please Don't Go (4:19)
09. Boney M. - Hooray! Hooray! It's A Holi-Holiday (3:57)
10. Gilla - Bend Me Shape Me (3:48)
11. Boney M. - Belfast (3:30)
12. La Bouche - Fallin' In Love (3:09)
13. Milli Vanilli - Girl You Know It's True (3:19)
14. Boney M. - I See A Boat On The River (4:43)
15. No Mercy - When I Die (4:31)
16. Milli Vanilli - Blame It On The Rain (4:06)
17. Boney M. - We Kill The World (Don't Kill The World) (4:31)
18. Eruption - Party Party (2:32)
19. Gilla - We Gotta Get Out Of This Place (4:39)
20. Boney M. And Bobby Farrell With The School-Rebels - Happy Song (3:28)
CD 2 | 01:18:50
pic
pic
01. Boney M. - Ma Baker (4:08)
02. Boney M. - Brown Girl In The Ring (4:04)
03. Eruption - One Way Ticket (3:34)
04. Milli Vanilli - Baby Don't Forget My Number (4:11)
05. Boney M. - El Lute (4:01)
06. La Bouche - I Love To Love (4:04)
07. Boney M. - Malaika (3:28)
08. No Mercy - Where Do You Go (4:33)
09. Boney M. - Baby Do You Wanna Bump (3:11)
10. Gilla - Help Help! (3:09)
11. Boney M. - Kalimba De Luna (4:15)
12. Precious Wilson - Cr-Cr-Cr-Cry To Me (3:51)
13. Milli Vanilli - All Or Nothing (the US remix) (4:33)
14. Boney M. - I'm Born Again (3:27)
15. No Mercy - Kiss You All Over (4:31)
16. Boney M. - Children Of Paradise (4:30)
17. La Bouche - Sweet Dreams (Ola Ola E) (3:26)
18. Milli Vanilli - Keep On Running (3:25)
19. Boney M. - Mary's Boy Child (4:32)
20. Far Corporation - Stairway To Heaven (3:58)

pic
Лог создания рипа
CD 1

Код:

Exact Audio Copy V1.3 from 2. September 2016

EAC extraction logfile from 7. November 2019, 8:55

Boney M. & Friends / Top 40 - Boney M. & Friends CD 1

Used drive  : ATAPI   iHAS122   C   Adapter: 1  ID: 0

Read mode               : Secure
Utilize accurate stream : Yes
Defeat audio cache      : Yes
Make use of C2 pointers : No

Read offset correction                      : 6
Overread into Lead-In and Lead-Out          : No
Fill up missing offset samples with silence : Yes
Delete leading and trailing silent blocks   : No
Null samples used in CRC calculations       : Yes
Used interface                              : Native Win32 interface for Win NT & 2000

Used output format : Internal WAV Routines
Sample format      : 44.100 Hz; 16 Bit; Stereo

TOC of the extracted CD

     Track |   Start  |  Length  | Start sector | End sector
    ---------------------------------------------------------
        1  |  0:00.00 |  4:08.64 |         0    |    18663
        2  |  4:08.64 |  3:59.13 |     18664    |    36601
        3  |  8:08.02 |  3:08.26 |     36602    |    50727
        4  | 11:16.28 |  3:29.05 |     50728    |    66407
        5  | 14:45.33 |  4:33.21 |     66408    |    86903
        6  | 19:18.54 |  4:28.17 |     86904    |   107020
        7  | 23:46.71 |  4:01.56 |    107021    |   125151
        8  | 27:48.52 |  4:18.46 |    125152    |   144547
        9  | 32:07.23 |  3:56.62 |    144548    |   162309
       10  | 36:04.10 |  3:48.19 |    162310    |   179428
       11  | 39:52.29 |  3:29.49 |    179429    |   195152
       12  | 43:22.03 |  3:08.53 |    195153    |   209305
       13  | 46:30.56 |  3:19.14 |    209306    |   224244
       14  | 49:49.70 |  4:42.52 |    224245    |   245446
       15  | 54:32.47 |  4:30.65 |    245447    |   265761
       16  | 59:03.37 |  4:05.43 |    265762    |   284179
       17  | 63:09.05 |  4:31.21 |    284180    |   304525
       18  | 67:40.26 |  2:31.40 |    304526    |   315890
       19  | 70:11.66 |  4:38.74 |    315891    |   336814
       20  | 74:50.65 |  3:28.34 |    336815    |   352448

Range status and errors

Selected range

     Filename C:\Users\Desktop\Boney M. & Friends - Top 40 - Boney M. & Friends CD 1.wav

     Peak level 96.6 %
     Extraction speed 3.7 X
     Range quality 100.0 %
     Test CRC 67D5F364
     Copy CRC 67D5F364
     Copy OK

No errors occurred

AccurateRip summary

Track  1  accurately ripped (confidence 4)  [779C681A]  (AR v2)
Track  2  accurately ripped (confidence 4)  [8A24EDA3]  (AR v2)
Track  3  accurately ripped (confidence 4)  [43F30BD0]  (AR v2)
Track  4  accurately ripped (confidence 4)  [D9984CFC]  (AR v2)
Track  5  accurately ripped (confidence 4)  [F885B2C7]  (AR v2)
Track  6  accurately ripped (confidence 4)  [93B7048B]  (AR v2)
Track  7  accurately ripped (confidence 4)  [C74FF269]  (AR v2)
Track  8  accurately ripped (confidence 4)  [4487E3B9]  (AR v2)
Track  9  accurately ripped (confidence 4)  [793D1A3A]  (AR v2)
Track 10  accurately ripped (confidence 4)  [5FD6449B]  (AR v2)
Track 11  accurately ripped (confidence 4)  [768A5AB9]  (AR v2)
Track 12  accurately ripped (confidence 4)  [3C188976]  (AR v2)
Track 13  accurately ripped (confidence 4)  [C32182B4]  (AR v2)
Track 14  accurately ripped (confidence 4)  [90842C1B]  (AR v2)
Track 15  accurately ripped (confidence 4)  [63A56B09]  (AR v2)
Track 16  accurately ripped (confidence 4)  [BBBB051A]  (AR v2)
Track 17  accurately ripped (confidence 4)  [554C1231]  (AR v2)
Track 18  accurately ripped (confidence 4)  [F006282D]  (AR v2)
Track 19  accurately ripped (confidence 4)  [5F8A8A5C]  (AR v2)
Track 20  accurately ripped (confidence 4)  [D2DFAE61]  (AR v2)

All tracks accurately ripped

End of status report
CD 2

Код:

Exact Audio Copy V1.3 from 2. September 2016

EAC extraction logfile from 7. November 2019, 9:17

Boney M. & Friends / Top 40 - Boney M. & Friends CD 2

Used drive  : ATAPI   iHAS122   C   Adapter: 1  ID: 0

Read mode               : Secure
Utilize accurate stream : Yes
Defeat audio cache      : Yes
Make use of C2 pointers : No

Read offset correction                      : 6
Overread into Lead-In and Lead-Out          : No
Fill up missing offset samples with silence : Yes
Delete leading and trailing silent blocks   : No
Null samples used in CRC calculations       : Yes
Used interface                              : Native Win32 interface for Win NT & 2000

Used output format : Internal WAV Routines
Sample format      : 44.100 Hz; 16 Bit; Stereo

TOC of the extracted CD

     Track |   Start  |  Length  | Start sector | End sector
    ---------------------------------------------------------
        1  |  0:00.00 |  4:08.37 |         0    |    18636
        2  |  4:08.37 |  4:03.43 |     18637    |    36904
        3  |  8:12.05 |  3:33.47 |     36905    |    52926
        4  | 11:45.52 |  4:10.66 |     52927    |    71742
        5  | 15:56.43 |  4:01.12 |     71743    |    89829
        6  | 19:57.55 |  4:03.61 |     89830    |   108115
        7  | 24:01.41 |  3:28.25 |    108116    |   123740
        8  | 27:29.66 |  4:33.09 |    123741    |   144224
        9  | 32:03.00 |  3:10.45 |    144225    |   158519
       10  | 35:13.45 |  3:08.44 |    158520    |   172663
       11  | 38:22.14 |  4:15.09 |    172664    |   191797
       12  | 42:37.23 |  3:51.04 |    191798    |   209126
       13  | 46:28.27 |  4:32.42 |    209127    |   229568
       14  | 51:00.69 |  3:26.49 |    229569    |   245067
       15  | 54:27.43 |  4:30.60 |    245068    |   265377
       16  | 58:58.28 |  4:30.25 |    265378    |   285652
       17  | 63:28.53 |  3:26.01 |    285653    |   301103
       18  | 66:54.54 |  3:25.19 |    301104    |   316497
       19  | 70:19.73 |  4:32.18 |    316498    |   336915
       20  | 74:52.16 |  3:57.56 |    336916    |   354746

Range status and errors

Selected range

     Filename C:\Users\Desktop\Boney M. & Friends - Top 40 - Boney M. & Friends CD 2.wav

     Peak level 100.0 %
     Extraction speed 8.4 X
     Range quality 100.0 %
     Test CRC F2D90E02
     Copy CRC F2D90E02
     Copy OK

No errors occurred

AccurateRip summary

Track  1  accurately ripped (confidence 4)  [976F8E16]  (AR v2)
Track  2  accurately ripped (confidence 4)  [F7B6EFEC]  (AR v2)
Track  3  accurately ripped (confidence 4)  [56A85092]  (AR v2)
Track  4  accurately ripped (confidence 4)  [8EBAC847]  (AR v2)
Track  5  accurately ripped (confidence 4)  [FD834F3A]  (AR v2)
Track  6  accurately ripped (confidence 4)  [DDB68980]  (AR v2)
Track  7  accurately ripped (confidence 4)  [F0D65263]  (AR v2)
Track  8  accurately ripped (confidence 4)  [BF3EBE55]  (AR v2)
Track  9  accurately ripped (confidence 4)  [24613CAB]  (AR v2)
Track 10  accurately ripped (confidence 4)  [0F457A2A]  (AR v2)
Track 11  accurately ripped (confidence 4)  [228024BC]  (AR v2)
Track 12  accurately ripped (confidence 4)  [145AAC98]  (AR v2)
Track 13  accurately ripped (confidence 4)  [A9A9F82B]  (AR v2)
Track 14  accurately ripped (confidence 4)  [F11071A1]  (AR v2)
Track 15  accurately ripped (confidence 4)  [49039354]  (AR v2)
Track 16  accurately ripped (confidence 4)  [C882CC8B]  (AR v2)
Track 17  accurately ripped (confidence 4)  [AF70A778]  (AR v2)
Track 18  accurately ripped (confidence 4)  [E3476CF3]  (AR v2)
Track 19  accurately ripped (confidence 4)  [2CA861DB]  (AR v2)
Track 20  accurately ripped (confidence 4)  [B87B493B]  (AR v2)

All tracks accurately ripped

End of status report
Индексная карта (non-compilant .cue)
CD 1

Код:

REM GENRE Disco
REM DATE 2017
REM DISCID 31125B14
REM COMMENT "ExactAudioCopy v1.3"
PERFORMER "Boney M. & Friends"
TITLE "Top 40 - Boney M. & Friends CD 1"
REM COMPOSER ""
FILE "Boney M. & Friends - Top 40 - Boney M. & Friends CD 1.flac" WAVE
  TRACK 01 AUDIO
    TITLE "Rivers Of Babylon"
    PERFORMER "Boney M."
    REM COMPOSER ""
    INDEX 01 00:00:00
  TRACK 02 AUDIO
    TITLE "Sunny"
    PERFORMER "Boney M."
    REM COMPOSER ""
    INDEX 00 04:06:64
    INDEX 01 04:08:64
  TRACK 03 AUDIO
    TITLE "I Can Stand The Rain"
    PERFORMER "Eruption Ft. Precious Wilson"
    REM COMPOSER ""
    INDEX 00 08:06:02
    INDEX 01 08:08:02
  TRACK 04 AUDIO
    TITLE "Daddy Cool"
    PERFORMER "Boney M."
    REM COMPOSER ""
    INDEX 00 11:14:28
    INDEX 01 11:16:28
  TRACK 05 AUDIO
    TITLE "Girl I'm Gonna Miss You"
    PERFORMER "Milli Vanilli"
    REM COMPOSER ""
    INDEX 00 14:43:33
    INDEX 01 14:45:33
  TRACK 06 AUDIO
    TITLE "Rasputin"
    PERFORMER "Boney M."
    REM COMPOSER ""
    INDEX 00 19:16:54
    INDEX 01 19:18:54
  TRACK 07 AUDIO
    TITLE "Be My Lover"
    PERFORMER "La Bouche"
    REM COMPOSER ""
    INDEX 00 23:44:71
    INDEX 01 23:46:71
  TRACK 08 AUDIO
    TITLE "Please Don't Go"
    PERFORMER "No Mercy"
    REM COMPOSER ""
    INDEX 00 27:46:52
    INDEX 01 27:48:52
  TRACK 09 AUDIO
    TITLE "Hooray! Hooray! It's A Holi-Holiday"
    PERFORMER "Boney M."
    REM COMPOSER ""
    INDEX 00 32:05:23
    INDEX 01 32:07:23
  TRACK 10 AUDIO
    TITLE "Bend Me Shape Me"
    PERFORMER "Gilla"
    REM COMPOSER ""
    INDEX 00 36:02:10
    INDEX 01 36:04:10
  TRACK 11 AUDIO
    TITLE "Belfast"
    PERFORMER "Boney M."
    REM COMPOSER ""
    INDEX 00 39:50:29
    INDEX 01 39:52:29
  TRACK 12 AUDIO
    TITLE "Fallin' In Love"
    PERFORMER "La Bouche"
    REM COMPOSER ""
    INDEX 00 43:20:03
    INDEX 01 43:22:03
  TRACK 13 AUDIO
    TITLE "Girl You Know It's True"
    PERFORMER "Milli Vanilli"
    REM COMPOSER ""
    INDEX 00 46:28:56
    INDEX 01 46:30:56
  TRACK 14 AUDIO
    TITLE "I See A Boat On The River"
    PERFORMER "Boney M."
    REM COMPOSER ""
    INDEX 00 49:47:70
    INDEX 01 49:49:70
  TRACK 15 AUDIO
    TITLE "When I Die"
    PERFORMER "No Mercy"
    REM COMPOSER ""
    INDEX 00 54:30:47
    INDEX 01 54:32:47
  TRACK 16 AUDIO
    TITLE "Blame It On The Rain"
    PERFORMER "Milli Vanilli"
    REM COMPOSER ""
    INDEX 00 59:01:37
    INDEX 01 59:03:37
  TRACK 17 AUDIO
    TITLE "We Kill The World (Don't Kill The World)"
    PERFORMER "Boney M."
    REM COMPOSER ""
    INDEX 00 63:07:05
    INDEX 01 63:09:05
  TRACK 18 AUDIO
    TITLE "Party Party"
    PERFORMER "Eruption"
    REM COMPOSER ""
    INDEX 00 67:38:26
    INDEX 01 67:40:26
  TRACK 19 AUDIO
    TITLE "We Gotta Get Out Of This Place"
    PERFORMER "Gilla"
    REM COMPOSER ""
    INDEX 00 70:09:66
    INDEX 01 70:11:66
  TRACK 20 AUDIO
    TITLE "Happy Song"
    PERFORMER "Boney M. And Bobby Farrell With The School-Rebels"
    REM COMPOSER ""
    INDEX 00 74:48:65
    INDEX 01 74:50:65
CD 2

Код:

REM GENRE Disco
REM DATE 2017
REM DISCID 16127914
REM COMMENT "ExactAudioCopy v1.3"
PERFORMER "Boney M. & Friends"
TITLE "Top 40 - Boney M. & Friends CD 2"
REM COMPOSER ""
FILE "Boney M. & Friends - Top 40 - Boney M. & Friends CD 2.flac" WAVE
  TRACK 01 AUDIO
    TITLE "Ma Baker"
    PERFORMER "Boney M."
    REM COMPOSER ""
    INDEX 01 00:00:00
  TRACK 02 AUDIO
    TITLE "Brown Girl In The Ring"
    PERFORMER "Boney M."
    REM COMPOSER ""
    INDEX 00 04:06:37
    INDEX 01 04:08:37
  TRACK 03 AUDIO
    TITLE "One Way Ticket"
    PERFORMER "Eruption"
    REM COMPOSER ""
    INDEX 00 08:10:05
    INDEX 01 08:12:05
  TRACK 04 AUDIO
    TITLE "Baby Don't Forget My Number"
    PERFORMER "Milli Vanilli"
    REM COMPOSER ""
    INDEX 00 11:43:52
    INDEX 01 11:45:52
  TRACK 05 AUDIO
    TITLE "El Lute"
    PERFORMER "Boney M."
    REM COMPOSER ""
    INDEX 00 15:54:43
    INDEX 01 15:56:43
  TRACK 06 AUDIO
    TITLE "I Love To Love"
    PERFORMER "La Bouche"
    REM COMPOSER ""
    INDEX 00 19:55:55
    INDEX 01 19:57:55
  TRACK 07 AUDIO
    TITLE "Malaika"
    PERFORMER "Boney M."
    REM COMPOSER ""
    INDEX 00 23:59:41
    INDEX 01 24:01:41
  TRACK 08 AUDIO
    TITLE "Where Do You Go"
    PERFORMER "No Mercy"
    REM COMPOSER ""
    INDEX 00 27:27:66
    INDEX 01 27:29:66
  TRACK 09 AUDIO
    TITLE "Baby Do You Wanna Bump"
    PERFORMER "Boney M."
    REM COMPOSER ""
    INDEX 00 32:01:00
    INDEX 01 32:03:00
  TRACK 10 AUDIO
    TITLE "Help Help!"
    PERFORMER "Gilla"
    REM COMPOSER ""
    INDEX 00 35:11:45
    INDEX 01 35:13:45
  TRACK 11 AUDIO
    TITLE "Kalimba De Luna"
    PERFORMER "Boney M."
    REM COMPOSER ""
    INDEX 00 38:20:14
    INDEX 01 38:22:14
  TRACK 12 AUDIO
    TITLE "Cr-Cr-Cr-Cry To Me"
    PERFORMER "Precious Wilson"
    REM COMPOSER ""
    INDEX 00 42:35:23
    INDEX 01 42:37:23
  TRACK 13 AUDIO
    TITLE "All Or Nothing (the US remix)"
    PERFORMER "Milli Vanilli"
    REM COMPOSER ""
    INDEX 00 46:26:27
    INDEX 01 46:28:27
  TRACK 14 AUDIO
    TITLE "I'm Born Again"
    PERFORMER "Boney M."
    REM COMPOSER ""
    INDEX 00 50:58:69
    INDEX 01 51:00:69
  TRACK 15 AUDIO
    TITLE "Kiss You All Over"
    PERFORMER "No Mercy"
    REM COMPOSER ""
    INDEX 00 54:25:43
    INDEX 01 54:27:43
  TRACK 16 AUDIO
    TITLE "Children Of Paradise"
    PERFORMER "Boney M."
    REM COMPOSER ""
    INDEX 00 58:56:28
    INDEX 01 58:58:28
  TRACK 17 AUDIO
    TITLE "Sweet Dreams (Ola Ola E)"
    PERFORMER "La Bouche"
    REM COMPOSER ""
    INDEX 00 63:26:53
    INDEX 01 63:28:53
  TRACK 18 AUDIO
    TITLE "Keep On Running"
    PERFORMER "Milli Vanilli"
    REM COMPOSER ""
    INDEX 00 66:52:54
    INDEX 01 66:54:54
  TRACK 19 AUDIO
    TITLE "Mary's Boy Child"
    PERFORMER "Boney M."
    REM COMPOSER ""
    INDEX 00 70:17:73
    INDEX 01 70:19:73
  TRACK 20 AUDIO
    TITLE "Stairway To Heaven"
    PERFORMER "Far Corporation"
    REM COMPOSER ""
    INDEX 00 74:50:16
    INDEX 01 74:52:16


pic
pic

VA-Boney M. & Friends - Top 40 - Boney M. & Friends (2017).torrent
Трекер: Зарегистрирован

magnet ссылка

 


Скачать .torrent

13 KB

Статус: проверено (by E IL o T IR i X в 13-Дек-19 16:08)
Зарегистрирован: 13-Дек-19 16:03
Скачан: 25 раз
Размер: 1.11 GB | 
Поблагодарили:
Скачать (Disco, Funk, Soul, Pop) VA - Boney M. & Friends (Top 40, 2CD) - 2017 [FLAC, image +.cue, lossless] торрент
 


Похожие раздачи

Текущее время: 26-Ноя 05:04

Часовой пояс: GMT + 3



Вы не можете начинать темы
Вы не можете отвечать на сообщения
Вы не можете редактировать свои сообщения
Вы не можете удалять свои сообщения
Вы не можете голосовать в опросах
Вы не можете прикреплять файлы к сообщениям
Вы не можете скачивать файлы