Loading...
Error
 
Мини-чат
 

Скачать торрент (Italo-Disco) Savage - Love And Rain - 2020 [FLAC, image +.cue, lossless]



 
Автор Сообщение

trygg

post 26-Мар-20 13:20


Savage - Love And Rain


pic
Год издания: 2020
Страна: Italy pic
Жанр: Italo-Disco
Продолжительность: 00:53:55
Лейбл издания: Dance World Attack
Страна-выпуска диска: italy pic
Номер по каталогу: DWA M20.04
Формат: FLAC
Битрейт аудио: Lossless
Тип рипа: image +.cue
Наличие сканов в содержимом раздачи: да

pic
Трэклист
pic
pic
01. Every Second Of My Life (Ouverture) (0:41)
02. Don't Say You Leave Me (3:02)
03. I Love You (3:17)
04. Italodisco (3:07)
05. Where Is The Freedom (4:00)
06. Lonely Night (3:05)
07. Remember Me (4:13)
08. Moon Is Falling (2:26)
09. In My Dreams (4:43)
10. 80 Musica (3:08)
11. Alone (3:57)
12. Over The Rainbow (3:41)
13. Your Eyes (3:56)
14. I'm Crazy For You (3:38)
15. Every Second Of My Life (3:06)
16. Only You (Symphonic Version) (3:56)

pic
Лог создания рипа

Код:

Exact Audio Copy V1.3 from 2. September 2016

Отчёт EAC об извлечении, выполненном 2. марта 2020, 22:45

Savage / Love And Rain

Дисковод: ASUS    DRW-20B1LT   Adapter: 5  ID: 0

Режим чтения                 : Достоверность
Использование точного потока : Да
Отключение кэша аудио        : Да
Использование указателей C2  : Нет

Коррекция смещения при чтении                     : 6
Способность читать области Lead-in и Lead-out     : Нет
Заполнение пропущенных сэмплов тишиной            : Да
Удаление блоков с тишиной в начале и конце        : Нет
При вычислениях CRC использовались нулевые сэмплы : Да
Интерфейс                                         : Установленный внешний ASPI-интерфейс

Выходной формат : Внутренние WAV-операции
Формат сэмплов  : 44.100 Гц; 16 бит; стерео

TOC извлечённого CD

     Трек |   Старт  | Длительность | Начальный сектор | Конечный сектор
    ---------------------------------------------------------------------
       1  |  0:00.00 |    0:40.46   |           0      |       3045
       2  |  0:40.46 |    3:02.35   |        3046      |      16730
       3  |  3:43.06 |    3:17.01   |       16731      |      31506
       4  |  7:00.07 |    3:07.07   |       31507      |      45538
       5  | 10:07.14 |    3:59.62   |       45539      |      63525
       6  | 14:07.01 |    3:05.17   |       63526      |      77417
       7  | 17:12.18 |    4:13.03   |       77418      |      96395
       8  | 21:25.21 |    2:25.44   |       96396      |     107314
       9  | 23:50.65 |    4:42.55   |      107315      |     128519
      10  | 28:33.45 |    3:07.53   |      128520      |     142597
      11  | 31:41.23 |    3:56.47   |      142598      |     160344
      12  | 35:37.70 |    3:40.59   |      160345      |     176903
      13  | 39:18.54 |    3:55.63   |      176904      |     194591
      14  | 43:14.42 |    3:38.19   |      194592      |     210960
      15  | 46:52.61 |    3:06.22   |      210961      |     224932
      16  | 49:59.08 |    3:56.05   |      224933      |     242637

Характеристики диапазона извлечения и сообщения об ошибках

Выбранный диапазон

     Имя файла D:\Музыка (Lossless)\Savage - Love And Rain\Savage - Love And Rain.wav

     Пиковый уровень 100.0 %
     Скорость извлечения 5.7 X
     Качество диапазона 100.0 %
     CRC теста 24EF89C6
     CRC копии 24EF89C6
     Копирование... OK

Ошибок не произошло

AccurateRip: сводка

Трек  1  отсутствует в базе данных
Трек  2  отсутствует в базе данных
Трек  3  отсутствует в базе данных
Трек  4  отсутствует в базе данных
Трек  5  отсутствует в базе данных
Трек  6  отсутствует в базе данных
Трек  7  отсутствует в базе данных
Трек  8  отсутствует в базе данных
Трек  9  отсутствует в базе данных
Трек 10  отсутствует в базе данных
Трек 11  отсутствует в базе данных
Трек 12  отсутствует в базе данных
Трек 13  отсутствует в базе данных
Трек 14  отсутствует в базе данных
Трек 15  отсутствует в базе данных
Трек 16  отсутствует в базе данных

Ни одного трека нет в базе AccurateRip

Конец отчёта
Индексная карта (non-compilant .cue)

Код:

REM GENRE Italo-Disco
REM DATE 2020
REM DISCID BF0CA310
REM COMMENT "ExactAudioCopy v1.3"
PERFORMER "Savage"
TITLE "Love And Rain"
REM COMPOSER ""
FILE "Savage - Love And Rain.flac" WAVE
  TRACK 01 AUDIO
    TITLE "Every Second Of My Life (Ouverture)"
    PERFORMER "Savage"
    REM COMPOSER ""
    INDEX 01 00:00:00
  TRACK 02 AUDIO
    TITLE "Don't Say You Leave Me"
    PERFORMER "Savage"
    REM COMPOSER ""
    INDEX 01 00:40:46
  TRACK 03 AUDIO
    TITLE "I Love You"
    PERFORMER "Savage"
    REM COMPOSER ""
    INDEX 01 03:43:06
  TRACK 04 AUDIO
    TITLE "Italodisco"
    PERFORMER "Savage"
    REM COMPOSER ""
    INDEX 01 07:00:07
  TRACK 05 AUDIO
    TITLE "Where Is The Freedom"
    PERFORMER "Savage"
    REM COMPOSER ""
    INDEX 01 10:07:14
  TRACK 06 AUDIO
    TITLE "Lonely Night"
    PERFORMER "Savage"
    REM COMPOSER ""
    INDEX 01 14:07:01
  TRACK 07 AUDIO
    TITLE "Remember Me"
    PERFORMER "Savage"
    REM COMPOSER ""
    INDEX 01 17:12:18
  TRACK 08 AUDIO
    TITLE "Moon Is Falling"
    PERFORMER "Savage"
    REM COMPOSER ""
    INDEX 01 21:25:21
  TRACK 09 AUDIO
    TITLE "In My Dreams"
    PERFORMER "Savage"
    REM COMPOSER ""
    INDEX 01 23:50:65
  TRACK 10 AUDIO
    TITLE "80 Musica"
    PERFORMER "Savage"
    REM COMPOSER ""
    INDEX 01 28:33:45
  TRACK 11 AUDIO
    TITLE "Alone"
    PERFORMER "Savage"
    REM COMPOSER ""
    INDEX 01 31:41:23
  TRACK 12 AUDIO
    TITLE "Over The Rainbow"
    PERFORMER "Savage"
    REM COMPOSER ""
    INDEX 01 35:37:70
  TRACK 13 AUDIO
    TITLE "Your Eyes"
    PERFORMER "Savage"
    REM COMPOSER ""
    INDEX 01 39:18:54
  TRACK 14 AUDIO
    TITLE "I'm Crazy For You"
    PERFORMER "Savage"
    REM COMPOSER ""
    INDEX 01 43:14:42
  TRACK 15 AUDIO
    TITLE "Every Second Of My Life"
    PERFORMER "Savage"
    REM COMPOSER ""
    INDEX 01 46:52:61
  TRACK 16 AUDIO
    TITLE "Only You (Symphonic Version)"
    PERFORMER "Savage"
    REM COMPOSER ""
    INDEX 01 49:59:08

pic
для ознакомления:


pic
pic

Savage - Love And Rain (2020).torrent
Трекер: Зарегистрирован

magnet ссылка

 


Скачать .torrent

16 KB

Статус: проверено (by E IL o T IR i X в 26-Мар-20 13:53)
Зарегистрирован: 26-Мар-20 13:20
Скачан: 21 раз
Размер: 390 MB | 
Поблагодарили:
Скачать (Italo-Disco) Savage - Love And Rain - 2020 [FLAC, image +.cue, lossless] торрент
 


Похожие раздачи

Текущее время: 02-Дек 12:57

Часовой пояс: GMT + 3



Вы не можете начинать темы
Вы не можете отвечать на сообщения
Вы не можете редактировать свои сообщения
Вы не можете удалять свои сообщения
Вы не можете голосовать в опросах
Вы не можете прикреплять файлы к сообщениям
Вы не можете скачивать файлы