Loading...
Error
 
Мини-чат
 

Скачать торрент (Pop) A-ha - Greatest Hits (Japanese Single Collection) - 2020 [FLAC, image +.cue, lossless]



 
Автор Сообщение

trygg

post 29-Мар-20 13:26


A-ha - Greatest Hits (Japanese Single Collection)


pic
Год издания: 2020
Страна: Norway pic
Жанр: Pop
Продолжительность: 01:18:05
Лейбл издания: Warner Records
Страна-выпуска диска: Japan pic
Номер по каталогу: WPZR-30876/7
Формат: FLAC
Битрейт аудио: Lossless
Тип рипа: image +.cue
Наличие сканов в содержимом раздачи: да

pic
Трэклист
pic
pic
01. Take On Me (3:48)
02. The Sun Always Shines On T.V. (Single Mix) (4:45)
03. Train Of Thought (Remix) (4:16)
04. Hunting High And Low (Remix) (3:48)
05. I've Been Losing You (Edit) (3:41)
06. Cry Wolf (4:07)
07. Manhatten Skyline (Edit) (4:22)
08. The Living Daylights (4:14)
09. Stay On These Roads (US/Canadisn 7' Edit) (3:54)
10. The Blood That Moves The Body (4:07)
11. Touchy ! (UK DJ Edit) (3:39)
12. You Are The One (Remix) (3:52)
13. Crying In The Rain (4:25)
14. Waiting For Her (4:50)
15. Move To Memphis (Single Version) (4:17)
16. Dark Is The Night For All (3:48)
17. Shapes That Go Together (4:15)
18. Summer Moved On (Radio Edit) (4:04)
19. Forever Not Yours (Radio Edit) (3:55)

pic
Лог создания рипа

Код:

Exact Audio Copy V1.3 from 2. September 2016

Отчёт EAC об извлечении, выполненном 6. марта 2020, 22:40

A-ha / Greatest Hits - Japanese Single Collection

Дисковод: PLEXTOR DVDR   PX-755A   Adapter: 1  ID: 1

Режим чтения                 : Достоверность
Использование точного потока : Да
Отключение кэша аудио        : Да
Использование указателей C2  : Нет

Коррекция смещения при чтении                     : 30
Способность читать области Lead-in и Lead-out     : Нет
Заполнение пропущенных сэмплов тишиной            : Да
Удаление блоков с тишиной в начале и конце        : Нет
При вычислениях CRC использовались нулевые сэмплы : Да
Интерфейс                                         : Встроенный Win32-интерфейс для Win NT/2000

Выходной формат          : Пользовательский кодировщик
Выбранный битрейт        : 128 kBit/s
Качество                 : Высокий
Добавление ID3-тега      : Нет
Утилита сжатия           : C:\Program Files (x86)\Exact Audio Copy\Flac\flac.exe
Дополнительные параметры : -V -8 -T "Date=%year%" -T "Genre=%genre%" %source%

TOC извлечённого CD

     Трек |   Старт  | Длительность | Начальный сектор | Конечный сектор
    ---------------------------------------------------------------------
       1  |  0:00.00 |    3:48.20   |           0      |      17119
       2  |  3:48.20 |    4:44.62   |       17120      |      38481
       3  |  8:33.07 |    4:15.41   |       38482      |      57647
       4  | 12:48.48 |    3:48.26   |       57648      |      74773
       5  | 16:36.74 |    3:41.00   |       74774      |      91348
       6  | 20:17.74 |    4:06.52   |       91349      |     109850
       7  | 24:24.51 |    4:21.39   |      109851      |     129464
       8  | 28:46.15 |    4:14.02   |      129465      |     148516
       9  | 33:00.17 |    3:54.10   |      148517      |     166076
      10  | 36:54.27 |    4:07.06   |      166077      |     184607
      11  | 41:01.33 |    3:38.61   |      184608      |     201018
      12  | 44:40.19 |    3:51.55   |      201019      |     218398
      13  | 48:31.74 |    4:24.41   |      218399      |     238239
      14  | 52:56.40 |    4:50.02   |      238240      |     259991
      15  | 57:46.42 |    4:16.64   |      259992      |     279255
      16  | 62:03.31 |    3:48.23   |      279256      |     296378
      17  | 65:51.54 |    4:14.51   |      296379      |     315479
      18  | 70:06.30 |    4:03.60   |      315480      |     333764
      19  | 74:10.15 |    3:54.69   |      333765      |     351383

Характеристики диапазона извлечения и сообщения об ошибках

Выбранный диапазон

     Имя файла D:\РАЗДАЧА\A-ha - Greatest Hits - Japanese Single Collection - 2020\A-ha - Greatest Hits - Japanese Single Collection.wav

     Пиковый уровень 98.8 %
     Скорость извлечения 9.1 X
     Качество диапазона 100.0 %
     CRC теста E9AE5FED
     CRC копии E9AE5FED
     Копирование... OK

Ошибок не произошло

AccurateRip: сводка

Трек  1  отсутствует в базе данных
Трек  2  отсутствует в базе данных
Трек  3  отсутствует в базе данных
Трек  4  отсутствует в базе данных
Трек  5  отсутствует в базе данных
Трек  6  отсутствует в базе данных
Трек  7  отсутствует в базе данных
Трек  8  отсутствует в базе данных
Трек  9  отсутствует в базе данных
Трек 10  отсутствует в базе данных
Трек 11  отсутствует в базе данных
Трек 12  отсутствует в базе данных
Трек 13  отсутствует в базе данных
Трек 14  отсутствует в базе данных
Трек 15  отсутствует в базе данных
Трек 16  отсутствует в базе данных
Трек 17  отсутствует в базе данных
Трек 18  отсутствует в базе данных
Трек 19  отсутствует в базе данных

Ни одного трека нет в базе AccurateRip

Конец отчёта
Индексная карта (non-compilant .cue)

Код:

REM GENRE Pop
REM DATE 2020
REM DISCID 24124D13
REM COMMENT "ExactAudioCopy v1.3"
PERFORMER "A-ha"
TITLE "Greatest Hits - Japanese Single Collection"
REM COMPOSER ""
FILE "A-ha - Greatest Hits - Japanese Single Collection.flac" WAVE
  TRACK 01 AUDIO
    TITLE "Take On Me"
    PERFORMER "A-ha"
    REM COMPOSER ""
    INDEX 01 00:00:00
  TRACK 02 AUDIO
    TITLE "The Sun Always Shines On T.V. (Single Mix)"
    PERFORMER "A-ha"
    REM COMPOSER ""
    INDEX 01 03:48:20
  TRACK 03 AUDIO
    TITLE "Train Of Thought (Remix)"
    PERFORMER "A-ha"
    REM COMPOSER ""
    INDEX 01 08:33:07
  TRACK 04 AUDIO
    TITLE "Hunting High And Low (Remix)"
    PERFORMER "A-ha"
    REM COMPOSER ""
    INDEX 01 12:48:48
  TRACK 05 AUDIO
    TITLE "I've Been Losing You (Edit)"
    PERFORMER "A-ha"
    REM COMPOSER ""
    INDEX 01 16:36:74
  TRACK 06 AUDIO
    TITLE "Cry Wolf"
    PERFORMER "A-ha"
    REM COMPOSER ""
    INDEX 01 20:17:74
  TRACK 07 AUDIO
    TITLE "Manhatten Skyline (Edit)"
    PERFORMER "A-ha"
    REM COMPOSER ""
    INDEX 01 24:24:51
  TRACK 08 AUDIO
    TITLE "The Living Daylights"
    PERFORMER "A-ha"
    REM COMPOSER ""
    INDEX 01 28:46:15
  TRACK 09 AUDIO
    TITLE "Stay On These Roads (US/Canadisn 7' Edit)"
    PERFORMER "A-ha"
    REM COMPOSER ""
    INDEX 01 33:00:17
  TRACK 10 AUDIO
    TITLE "The Blood That Moves The Body"
    PERFORMER "A-ha"
    REM COMPOSER ""
    INDEX 01 36:54:27
  TRACK 11 AUDIO
    TITLE "Touchy ! (UK DJ Edit)"
    PERFORMER "A-ha"
    REM COMPOSER ""
    INDEX 01 41:01:33
  TRACK 12 AUDIO
    TITLE "You Are The One (Remix)"
    PERFORMER "A-ha"
    REM COMPOSER ""
    INDEX 01 44:40:19
  TRACK 13 AUDIO
    TITLE "Crying In The Rain"
    PERFORMER "A-ha"
    REM COMPOSER ""
    INDEX 01 48:31:74
  TRACK 14 AUDIO
    TITLE "Waiting For Her"
    PERFORMER "A-ha"
    REM COMPOSER ""
    INDEX 01 52:56:40
  TRACK 15 AUDIO
    TITLE "Move To Memphis (Single Version)"
    PERFORMER "A-ha"
    REM COMPOSER ""
    INDEX 01 57:46:42
  TRACK 16 AUDIO
    TITLE "Dark Is The Night For All"
    PERFORMER "A-ha"
    REM COMPOSER ""
    INDEX 01 62:03:31
  TRACK 17 AUDIO
    TITLE "Shapes That Go Together"
    PERFORMER "A-ha"
    REM COMPOSER ""
    INDEX 01 65:51:54
  TRACK 18 AUDIO
    TITLE "Summer Moved On (Radio Edit)"
    PERFORMER "A-ha"
    REM COMPOSER ""
    INDEX 01 70:06:30
  TRACK 19 AUDIO
    TITLE "Forever Not Yours (Radio Edit)"
    PERFORMER "A-ha"
    REM COMPOSER ""
    INDEX 01 74:10:15

pic
для ознакомления:


pic
pic

A-ha - Greatest Hits - Japanese Single Collection - 2020.torrent
Трекер: Зарегистрирован

magnet ссылка

 


Скачать .torrent

16 KB

Статус: проверено (by ilyash_rekviem в 29-Мар-20 13:58)
Зарегистрирован: 29-Мар-20 13:26
Скачан: 46 раз
Размер: 682 MB | 
Поблагодарили:
Скачать (Pop) A-ha - Greatest Hits (Japanese Single Collection) - 2020 [FLAC, image +.cue, lossless] торрент
 


Похожие раздачи

Текущее время: 02-Дек 12:31

Часовой пояс: GMT + 3



Вы не можете начинать темы
Вы не можете отвечать на сообщения
Вы не можете редактировать свои сообщения
Вы не можете удалять свои сообщения
Вы не можете голосовать в опросах
Вы не можете прикреплять файлы к сообщениям
Вы не можете скачивать файлы