Loading...
Error
 
Мини-чат
 

Скачать торрент Vanessa Williams - The Best Of Vanessa Williams [2004, Pop, DVDRip-AVC]

 
Автор Сообщение

Skywalker007

post 26-Апр-20 15:37

pic
Vanessa Williams - The Best Of Vanessa Williams

Год выпуска: 2004
Страна: США, Mercury
Жанр: Pop
Продолжительность: 00:21:21
Описание: Коллекция музыкальных клипов.
Треклист:

01. The Right Stuff (1988)
02. Dreamin' (1988)
03. Save The Best For Last (1991)
04. Running Back To You (1991)
05. The Sweetest Days (1994)
Качество: DVDRip-AVC (сохранены оригинальные чаптеры как на DVD)
Формат: MKV
Видео кодек: AVC
Аудио кодек: FLAC
Видео: NTSC 4:3 (720x480), 29.970 fps, AVC, 4580 Кбит/с 0.442 bit/pixel
Аудио: English (FLAC, 48KHz, 2 ch, ~854 Кбит/с)
Скриншоты
Media Info
Формат : Matroska
Версия формата : Version 4 / Version 2
Размер файла : 827 Мбайт
Продолжительность : 21 м.
Режим общего битрейта : Переменный
Общий поток : 5415 Кбит/сек
Название фильма : Vanessa Williams: The Best Of Vanessa Williams - DVD Collection (2004)
Дата кодирования : UTC 2019-10-08 06:32:04
Программа кодирования : mkvmerge v7.6.0 ('Garden of Dreams') 64bit built on Feb 8 2015 13:04:34
Библиотека кодирования : libebml v1.3.1 + libmatroska v1.4.2

Видео
Идентификатор : 1
Формат : AVC
Формат/Информация : Advanced Video Codec
Профиль формата : [email protected]
Параметр CABAC формата : Да
Параметр ReFrames формата : 2 кадра
Идентификатор кодека : V_MPEG4/ISO/AVC
Продолжительность : 21 м.
Битрейт : 4580 Кбит/сек
Ширина : 720 пикселей
Высота : 480 пикселей
Соотношение сторон : 4:3
Режим частоты кадров : Постоянный
Частота кадров : 29,970 (30000/1001) кадров/сек
Стандарт вещания : NTSC
Цветовое пространство : YUV
Субдискретизация насыщенности : 4:2:0
Битовая глубина : 8 бит
Тип развёртки : MBAFF
Метод сохранения типа развёртки : Чередующиеся поля
Порядок развёртки : Верхнее поле первое
Бит/(Пиксели*Кадры) : 0.442
Размер потока : 696 Мбайт (84%)
Библиотека кодирования : x264 core 155 r2893
Настройки программы : cabac=1 / ref=2 / deblock=1:0:0 / analyse=0x1:0x131 / me=umh / subme=9 / psy=1 / psy_rd=1.00:0.10 / mixed_ref=0 / me_range=64 / chroma_me=1 / trellis=1 / 8x8dct=0 / cqm=0 / deadzone=21,11 / fast_pskip=1 / chroma_qp_offset=-3 / threads=12 / lookahead_threads=1 / sliced_threads=0 / nr=0 / decimate=1 / interlaced=tff / bluray_compat=0 / constrained_intra=0 / bframes=0 / weightp=0 / keyint=299 / keyint_min=29 / scenecut=0 / intra_refresh=0 / rc_lookahead=0 / rc=2pass / mbtree=0 / bitrate=4580 / ratetol=1.0 / qcomp=0.60 / qpmin=10 / qpmax=69 / qpstep=4 / cplxblur=20.0 / qblur=0.5 / vbv_maxrate=5080 / vbv_bufsize=14000 / nal_hrd=none / filler=0 / ip_ratio=1.40 / aq=0
Default : Да
Forced : Нет
Цветовой диапазон : Limited

Аудио
Идентификатор : 2
Формат : FLAC
Формат/Информация : Free Lossless Audio Codec
Идентификатор кодека : A_FLAC
Продолжительность : 21 м.
Вид битрейта : Переменный
Битрейт : 854 Кбит/сек
Каналы : 2 канала
Расположение каналов : Front: L R
Частота : 48,0 КГц
Частота кадров : 10,417 кадров/сек (4608 spf)
Битовая глубина : 16 бит
Размер потока : 130 Мбайт (16%)
Язык : English
Default : Да
Forced : Нет

Меню
00:00:00.000 : :01. The Right Stuff (1988)
00:05:04.667 : :02. Dreamin' (1988)
00:09:28.000 : :03. Save The Best For Last (1991)
00:13:10.333 : :04. Running Back To You (1991)
00:17:48.333 : :05. The Sweetest Days (1994)
Vanessa.Williams.The.Best.Of.Vanessa.Williams.2004.AVC.DVDRip.torrent
Трекер: Зарегистрирован

magnet ссылка

 


Скачать .torrent

16 KB

Статус: проверено (by ilyash_rekviem в 26-Апр-20 15:44)
Зарегистрирован: 26-Апр-20 15:37
Скачан: 0 раз
Размер: 827 MB | 
Поблагодарили:
Скачать Vanessa Williams - The Best Of Vanessa Williams [2004, Pop, DVDRip-AVC] торрент
 


Похожие раздачи

Текущее время: 14-Июл 16:08

Часовой пояс: GMT + 3



Вы не можете начинать темы
Вы не можете отвечать на сообщения
Вы не можете редактировать свои сообщения
Вы не можете удалять свои сообщения
Вы не можете голосовать в опросах
Вы не можете прикреплять файлы к сообщениям
Вы не можете скачивать файлы