Loading...
Error
 

Скачать торрент (Synthwave / Synthpop / Electronic) Turbo Knight - Don't Panic! (2020) [FLAC, (tracks), lossless]

 
Автор Сообщение

Слава2312

post 30-Июн-20 18:14

pic


pic

Жанр: Synthwave / Synthpop / Electronic
Год издания данного носителя: 2020
Страна-производитель носителя: Finland
Лейбл: Not On Label (Turbo Knight Self-released)
Каталоговый номер: none
Аудио кодек: FLAC
Тип рипа: tracks
Битрейт аудио: lossless
Продолжительность: 00:42:42
Источник (релизер): WEB
Для ознакомления:
pic pic pic
Треклист:
[3:32] 01. Turbo Knight - Electric Glow (feat. Wyndsrfr)
[3:53] 02. Turbo Knight - Sensation (feat. Nicole Carino)
[4:20] 03. Turbo Knight - Italoman (feat. Damokles)
[3:30] 04. Turbo Knight - Underneath the Stars (feat. Bunny X & Icarus)
[3:36] 05. Turbo Knight - Dreams (feat. Oceanside85, Dimi Kaye & Tokyo Wanderer)
[4:25] 06. Turbo Knight - Deception (feat. Dream Shore)
[3:20] 07. Turbo Knight - Curtain Wall (feat. Arctic Mega Defender)
[4:20] 08. Turbo Knight - Hold on to Tonight (feat. Dyhard)
[4:57] 09. Turbo Knight - Touch the Sky (feat. Elise Hujanen)
[3:43] 10. Turbo Knight - Midnight Rain (feat. Antti Who) (2020 Vocal Edit)
[3:06] 11. Turbo Knight - Miami Synth Riot 1982 (2020 Remaster)
AUDIOCHECKER

Код:



AUDIOCHECKER v2.0 beta (build 457) - by Dester
~~~~~~~~~~~~~~~~~~~~~~~~~~~~~~~~~~
-=== НЕ РЕДАКТИРУЙТЕ ЭТОТ ФАЙЛ! ===-

Путь: ...\Turbo Knight - Don't Panic! [2020] Flac

01 -=- 01-Electric Glow (feat. Wyndsrfr).flac -=- MPEG (95%)
02 -=- 02-Sensation (feat. Nicole Carino).flac -=- CDDA (100%)
03 -=- 03-Italoman (feat. Damokles).flac -=- CDDA (100%)
04 -=- 04-Underneath the Stars (feat. Bunny X & Icarus).flac -=- CDDA (100%)
05 -=- 05-Dreams (feat. Oceanside85, Dimi Kaye & Tokyo Wanderer).flac -=- CDDA (100%)
06 -=- 06-Deception (feat. Dream Shore).flac -=- CDDA (100%)
07 -=- 07-Curtain Wall (feat. Arctic Mega Defender).flac -=- MPEG (95%)
08 -=- 08-Hold on to Tonight (feat. Dyhard).flac -=- CDDA (100%)
09 -=- 09-Touch the Sky (feat. Elise Hujanen).flac -=- CDDA (100%)
10 -=- 10-Midnight Rain (feat. Antti Who) (2020 Vocal Edit).flac -=- CDDA (100%)
11 -=- 11-Miami Synth Riot 1982 (2020 Remaster).flac -=- CDDA (100%)

Сводка 82,73% CDDA

80504564

Замер динамического диапазона (DR)

Код:



foobar2000 1.4.1 / Замер динамического диапазона (DR) 1.1.1
Дата отчёта:    2020-06-30 18:53:47

--------------------------------------------------------------------------------
Анализ:   Turbo Knight / Don't Panic!
--------------------------------------------------------------------------------

DR         Пики         RMS           Продолжительность трека
--------------------------------------------------------------------------------
DR5        0.00 дБ    -6.32 дБ      3:32 01-Electric Glow (feat. Wyndsrfr)
DR5        0.00 дБ    -6.06 дБ      3:53 02-Sensation (feat. Nicole Carino)
DR6        0.00 дБ    -6.35 дБ      4:20 03-Italoman (feat. Damokles)
DR5        0.00 дБ    -5.91 дБ      3:30 04-Underneath the Stars (feat. Bunny X & Icarus)
DR6        0.00 дБ    -6.18 дБ      3:36 05-Dreams (feat. Oceanside85, Dimi Kaye & Tokyo Wanderer)
DR5        0.00 дБ    -5.96 дБ      4:25 06-Deception (feat. Dream Shore)
DR5        0.00 дБ    -6.36 дБ      3:20 07-Curtain Wall (feat. Arctic Mega Defender)
DR6        0.00 дБ    -6.23 дБ      4:20 08-Hold on to Tonight (feat. Dyhard)
DR5        0.00 дБ    -6.75 дБ      4:57 09-Touch the Sky (feat. Elise Hujanen)
DR6        0.00 дБ    -7.12 дБ      3:43 10-Midnight Rain (feat. Antti Who) (2020 Vocal Edit)
DR6       -0.31 дБ    -6.92 дБ      3:06 11-Miami Synth Riot 1982 (2020 Remaster)
--------------------------------------------------------------------------------

Количество треков:  11
Реальные значения DR:  DR5

Частота:      44100 Гц
Каналов:      2
Разрядность:     16
Битрейт:      1036 кбит/с
Кодек:      FLAC
================================================================================

Спектрограммы

pic
Turbo Knight - Don't Panic! (2020) Flac.torrent
Трекер: Зарегистрирован

magnet ссылка

 


Скачать .torrent

25 KB

Статус: проверено (by E IL o T IR i X в 30-Июн-20 22:43)
Зарегистрирован: 30-Июн-20 18:14
Скачан: 51 раз
Размер: 312 MB | 
Поблагодарили:
Скачать (Synthwave / Synthpop / Electronic) Turbo Knight - Don't Panic! (2020) [FLAC, (tracks), lossless] торрент
released June 24, 2020
 


Похожие раздачи

Текущее время: 03-Июл 23:37

Часовой пояс: GMT + 3



Вы не можете начинать темы
Вы не можете отвечать на сообщения
Вы не можете редактировать свои сообщения
Вы не можете удалять свои сообщения
Вы не можете голосовать в опросах
Вы не можете прикреплять файлы к сообщениям
Вы не можете скачивать файлы