Loading...
Error
 
Мини-чат
 

Скачать торрент (Acoustic Guitar | Fingerstyle) Sungha Jung - Irony (2011) FLAC (tracks+.cue), lossless

 
Автор Сообщение

deoniss

post 22-Мар-12 11:45

Sungha Jung - Irony

pic
Год выпуска: 2011
Жанр: Acoustic Guitar | Fingerstyle
Продолжительность: 00:59:55
Тип издания: Album
Треклист:
----------------------------------------------------------------------------
01. Sungha Jung - For you [05:33]
02. Sungha Jung - Irony [05:00]
03. Sungha Jung - Been already a year [03:11]
04. Sungha Jung - Fly like a wind [03:48]
05. Sungha Jung - Waterfall [04:50]
06. Sungha Jung - They don't care about us [04:22]
07. Sungha Jung - Fragile [04:04]
08. Sungha Jung - The winner takes it all [05:41]
09. Sungha Jung - Songbird [04:44]
10. Sungha Jung - Farewell [03:23]
11. Sungha Jung - Tree in the water [04:15]
12. Sungha Jung - Beat it [03:57]
13. Sungha Jung - River flows in you [03:32]
14. Sungha Jung - Lonely [03:30]
----------------------------------------------------------------------------

Тип рипа: Tracks+.cue
Аудиокодек: FLAC
Битрейт аудио: lossless

EAC Log

Код:

X Lossless Decoder version 20111015 (136.4)

XLD extraction logfile from 2011-10-25 20:10:27 -0700

Sungha Jung / Irony-Acoustic Fingerstyle Guitar Solo

Used drive : HL-DT-ST DVDRW  GA32N (revision KE06)

Ripper mode             : XLD Secure Ripper
Disable audio cache     : OK for the drive with a cache less than 1375KiB
Make use of C2 pointers : NO
Read offset correction  : 103
Max retry count         : 100
Gap status              : Analyzed, Appended (except HTOA)

TOC of the extracted CD
     Track |   Start  |  Length  | Start sector | End sector
    ---------------------------------------------------------
        1  | 00:00:00 | 05:35:07 |         0    |    25131   
        2  | 05:35:07 | 05:02:71 |     25132    |    47852   
        3  | 10:38:03 | 03:13:25 |     47853    |    62352   
        4  | 13:51:28 | 03:50:35 |     62353    |    79637   
        5  | 17:41:63 | 04:52:12 |     79638    |   101549   
        6  | 22:34:00 | 04:24:65 |    101550    |   121414   
        7  | 26:58:65 | 04:05:44 |    121415    |   139833   
        8  | 31:04:34 | 05:43:45 |    139834    |   165603   
        9  | 36:48:04 | 04:46:70 |    165604    |   187123   
       10  | 41:34:74 | 03:25:24 |    187124    |   202522   
       11  | 45:00:23 | 04:17:12 |    202523    |   221809   
       12  | 49:17:35 | 03:59:30 |    221810    |   239764   
       13  | 53:16:65 | 03:34:35 |    239765    |   255849   
       14  | 56:51:25 | 03:30:28 |    255850    |   271627   

AccurateRip Summary
    Disc not found in AccurateRip DB.

All Tracks
    Album gain             : -4.59 dB
    Peak                   : 0.988770
    Statistics
        Read error                           : 0
        Jitter error (maybe fixed)           : 0
        Retry sector count                   : 0
        Damaged sector count                 : 0

Track 01
    Filename : /RIPS/Sungha Jung - Irony-Acoustic Fingerstyle Guitar Solo (2011) [FLAC]/01 For you.flac
    Pre-gap length : 00:02:00

    Track gain             : -2.78 dB
    Peak                   : 0.988678
    CRC32 hash (test run)  : E50EA5B6
    CRC32 hash             : E50EA5B6
    CRC32 hash (skip zero) : B314423E
    AccurateRip signature  : 239DB822
        ->Track not present in AccurateRip database.
    Statistics
        Read error                           : 0
        Jitter error (maybe fixed)           : 0
        Retry sector count                   : 0
        Damaged sector count                 : 0

Track 02
    Filename : /RIPS/Sungha Jung - Irony-Acoustic Fingerstyle Guitar Solo (2011) [FLAC]/02 Irony.flac
    Pre-gap length : 00:01:29

    Track gain             : -5.43 dB
    Peak                   : 0.988770
    CRC32 hash (test run)  : 106A4EED
    CRC32 hash             : 106A4EED
    CRC32 hash (skip zero) : F63DFFD4
    AccurateRip signature  : D6AFA6A5
        ->Track not present in AccurateRip database.
    Statistics
        Read error                           : 0
        Jitter error (maybe fixed)           : 0
        Retry sector count                   : 0
        Damaged sector count                 : 0

Track 03
    Filename : /RIPS/Sungha Jung - Irony-Acoustic Fingerstyle Guitar Solo (2011) [FLAC]/03 Been already a year.flac
    Pre-gap length : 00:01:74

    Track gain             : -4.01 dB
    Peak                   : 0.988708
    CRC32 hash (test run)  : 52C6E7F5
    CRC32 hash             : 52C6E7F5
    CRC32 hash (skip zero) : EC7397EE
    AccurateRip signature  : 03C47B32
        ->Track not present in AccurateRip database.
    Statistics
        Read error                           : 0
        Jitter error (maybe fixed)           : 0
        Retry sector count                   : 0
        Damaged sector count                 : 0

Track 04
    Filename : /RIPS/Sungha Jung - Irony-Acoustic Fingerstyle Guitar Solo (2011) [FLAC]/04 Fly like a wind.flac
    Pre-gap length : 00:01:49

    Track gain             : -5.46 dB
    Peak                   : 0.988708
    CRC32 hash (test run)  : 4FFB99B6
    CRC32 hash             : 4FFB99B6
    CRC32 hash (skip zero) : 9B303388
    AccurateRip signature  : 77C7834E
        ->Track not present in AccurateRip database.
    Statistics
        Read error                           : 0
        Jitter error (maybe fixed)           : 0
        Retry sector count                   : 0
        Damaged sector count                 : 0

Track 05
    Filename : /RIPS/Sungha Jung - Irony-Acoustic Fingerstyle Guitar Solo (2011) [FLAC]/05 Waterfall.flac
    Pre-gap length : 00:01:74

    Track gain             : -4.87 dB
    Peak                   : 0.988739
    CRC32 hash (test run)  : 1787F7F7
    CRC32 hash             : 1787F7F7
    CRC32 hash (skip zero) : 305DDC84
    AccurateRip signature  : D92C408A
        ->Track not present in AccurateRip database.
    Statistics
        Read error                           : 0
        Jitter error (maybe fixed)           : 0
        Retry sector count                   : 0
        Damaged sector count                 : 0

Track 06
    Filename : /RIPS/Sungha Jung - Irony-Acoustic Fingerstyle Guitar Solo (2011) [FLAC]/06 They don't care about us.flac
    Pre-gap length : 00:01:29

    Track gain             : -5.10 dB
    Peak                   : 0.988770
    CRC32 hash (test run)  : E7A2C624
    CRC32 hash             : E7A2C624
    CRC32 hash (skip zero) : 2A9BE191
    AccurateRip signature  : 4429D6DA
        ->Track not present in AccurateRip database.
    Statistics
        Read error                           : 0
        Jitter error (maybe fixed)           : 0
        Retry sector count                   : 0
        Damaged sector count                 : 0

Track 07
    Filename : /RIPS/Sungha Jung - Irony-Acoustic Fingerstyle Guitar Solo (2011) [FLAC]/07 Fragile.flac
    Pre-gap length : 00:01:74

    Track gain             : -3.75 dB
    Peak                   : 0.988586
    CRC32 hash (test run)  : 83743469
    CRC32 hash             : 83743469
    CRC32 hash (skip zero) : C111E099
    AccurateRip signature  : AF0AED93
        ->Track not present in AccurateRip database.
    Statistics
        Read error                           : 0
        Jitter error (maybe fixed)           : 0
        Retry sector count                   : 0
        Damaged sector count                 : 0

Track 08
    Filename : /RIPS/Sungha Jung - Irony-Acoustic Fingerstyle Guitar Solo (2011) [FLAC]/08 The winner takes it all.flac
    Pre-gap length : 00:01:29

    Track gain             : -4.63 dB
    Peak                   : 0.988739
    CRC32 hash (test run)  : 6327A8CB
    CRC32 hash             : 6327A8CB
    CRC32 hash (skip zero) : 1B14A6E3
    AccurateRip signature  : 5F3019D9
        ->Track not present in AccurateRip database.
    Statistics
        Read error                           : 0
        Jitter error (maybe fixed)           : 0
        Retry sector count                   : 0
        Damaged sector count                 : 0

Track 09
    Filename : /RIPS/Sungha Jung - Irony-Acoustic Fingerstyle Guitar Solo (2011) [FLAC]/09 Songbird.flac
    Pre-gap length : 00:01:49

    Track gain             : -3.56 dB
    Peak                   : 0.988770
    CRC32 hash (test run)  : 29FCD26B
    CRC32 hash             : 29FCD26B
    CRC32 hash (skip zero) : F7309F7E
    AccurateRip signature  : 62F5B1AA
        ->Track not present in AccurateRip database.
    Statistics
        Read error                           : 0
        Jitter error (maybe fixed)           : 0
        Retry sector count                   : 0
        Damaged sector count                 : 0

Track 10
    Filename : /RIPS/Sungha Jung - Irony-Acoustic Fingerstyle Guitar Solo (2011) [FLAC]/10 Farewell.flac
    Pre-gap length : 00:01:74

    Track gain             : -4.06 dB
    Peak                   : 0.988739
    CRC32 hash (test run)  : 1C3C1D96
    CRC32 hash             : 1C3C1D96
    CRC32 hash (skip zero) : C7D8CF3D
    AccurateRip signature  : 67277E82
        ->Track not present in AccurateRip database.
    Statistics
        Read error                           : 0
        Jitter error (maybe fixed)           : 0
        Retry sector count                   : 0
        Damaged sector count                 : 0

Track 11
    Filename : /RIPS/Sungha Jung - Irony-Acoustic Fingerstyle Guitar Solo (2011) [FLAC]/11 Tree in the water.flac
    Pre-gap length : 00:01:74

    Track gain             : -4.49 dB
    Peak                   : 0.988708
    CRC32 hash (test run)  : 37C1D859
    CRC32 hash             : 37C1D859
    CRC32 hash (skip zero) : 7F41CCDD
    AccurateRip signature  : 66E486F6
        ->Track not present in AccurateRip database.
    Statistics
        Read error                           : 0
        Jitter error (maybe fixed)           : 0
        Retry sector count                   : 0
        Damaged sector count                 : 0

Track 12
    Filename : /RIPS/Sungha Jung - Irony-Acoustic Fingerstyle Guitar Solo (2011) [FLAC]/12 Beat it.flac
    Pre-gap length : 00:01:74

    Track gain             : -5.96 dB
    Peak                   : 0.988770
    CRC32 hash (test run)  : 66851A33
    CRC32 hash             : 66851A33
    CRC32 hash (skip zero) : 42788D9B
    AccurateRip signature  : CE787C63
        ->Track not present in AccurateRip database.
    Statistics
        Read error                           : 0
        Jitter error (maybe fixed)           : 0
        Retry sector count                   : 0
        Damaged sector count                 : 0

Track 13
    Filename : /RIPS/Sungha Jung - Irony-Acoustic Fingerstyle Guitar Solo (2011) [FLAC]/13 River flows in you.flac
    Pre-gap length : 00:01:74

    Track gain             : -2.98 dB
    Peak                   : 0.988617
    CRC32 hash (test run)  : 4665272E
    CRC32 hash             : 4665272E
    CRC32 hash (skip zero) : 487668CA
    AccurateRip signature  : 0F1BCC1A
        ->Track not present in AccurateRip database.
    Statistics
        Read error                           : 0
        Jitter error (maybe fixed)           : 0
        Retry sector count                   : 0
        Damaged sector count                 : 0

Track 14
    Filename : /RIPS/Sungha Jung - Irony-Acoustic Fingerstyle Guitar Solo (2011) [FLAC]/14 Lonely.flac
    Pre-gap length : 00:01:74

    Track gain             : -4.65 dB
    Peak                   : 0.988647
    CRC32 hash (test run)  : 913E2C42
    CRC32 hash             : 913E2C42
    CRC32 hash (skip zero) : D84537B4
    AccurateRip signature  : FB8DF4AA
        ->Track not present in AccurateRip database.
    Statistics
        Read error                           : 0
        Jitter error (maybe fixed)           : 0
        Retry sector count                   : 0
        Damaged sector count                 : 0

No errors occurred

End of status report

CUE Sheet

Код:

REM GENRE "Acoustic Guitar | Fingerstyle"
REM DATE "2011"
REM DISCID BC0E250E
REM REPLAYGAIN_ALBUM_GAIN -4.59 dB
REM REPLAYGAIN_ALBUM_PEAK 0.988770
TITLE "Irony-Acoustic Fingerstyle Guitar Solo"
PERFORMER "Sungha Jung"
FILE "01. Sungha Jung - For you.flac" WAVE    ; 335093.333 milliseconds
  TRACK 01 AUDIO
    REM REPLAYGAIN_TRACK_GAIN -2.78 dB
    REM REPLAYGAIN_TRACK_PEAK 0.988678
    TITLE "For you"
    PERFORMER "Sungha Jung"
    INDEX 01 00:00:00
  TRACK 02 AUDIO
    REM REPLAYGAIN_TRACK_GAIN -5.43 dB
    REM REPLAYGAIN_TRACK_PEAK 0.988770
    TITLE Irony
    PERFORMER "Sungha Jung"
    INDEX 00 05:33:53
FILE "02. Sungha Jung - Irony.flac" WAVE    ; 302946.667 milliseconds
    INDEX 01 00:00:00
  TRACK 03 AUDIO
    REM REPLAYGAIN_TRACK_GAIN -4.01 dB
    REM REPLAYGAIN_TRACK_PEAK 0.988708
    TITLE "Been already a year"
    PERFORMER "Sungha Jung"
    INDEX 00 05:00:72
FILE "03. Sungha Jung - Been already a year.flac" WAVE    ; 193333.333 milliseconds
    INDEX 01 00:00:00
  TRACK 04 AUDIO
    REM REPLAYGAIN_TRACK_GAIN -5.46 dB
    REM REPLAYGAIN_TRACK_PEAK 0.988708
    TITLE "Fly like a wind"
    PERFORMER "Sungha Jung"
    INDEX 00 03:11:51
FILE "04. Sungha Jung - Fly like a wind.flac" WAVE    ; 230466.667 milliseconds
    INDEX 01 00:00:00
  TRACK 05 AUDIO
    REM REPLAYGAIN_TRACK_GAIN -4.87 dB
    REM REPLAYGAIN_TRACK_PEAK 0.988739
    TITLE Waterfall
    PERFORMER "Sungha Jung"
    INDEX 00 03:48:36
FILE "05. Sungha Jung - Waterfall.flac" WAVE    ; 292160.000 milliseconds
    INDEX 01 00:00:00
  TRACK 06 AUDIO
    REM REPLAYGAIN_TRACK_GAIN -5.10 dB
    REM REPLAYGAIN_TRACK_PEAK 0.988770
    TITLE "They don't care about us"
    PERFORMER "Sungha Jung"
    INDEX 00 04:50:58
FILE "06. Sungha Jung - They don't care about us.flac" WAVE    ; 264866.667 milliseconds
    INDEX 01 00:00:00
  TRACK 07 AUDIO
    REM REPLAYGAIN_TRACK_GAIN -3.75 dB
    REM REPLAYGAIN_TRACK_PEAK 0.988586
    TITLE Fragile
    PERFORMER "Sungha Jung"
    INDEX 00 04:22:66
FILE "07. Sungha Jung - Fragile.flac" WAVE    ; 245586.667 milliseconds
    INDEX 01 00:00:00
  TRACK 08 AUDIO
    REM REPLAYGAIN_TRACK_GAIN -4.63 dB
    REM REPLAYGAIN_TRACK_PEAK 0.988739
    TITLE "The winner takes it all"
    PERFORMER "Sungha Jung"
    INDEX 00 04:04:15
FILE "08. Sungha Jung - The winner takes it all.flac" WAVE    ; 343600.000 milliseconds
    INDEX 01 00:00:00
  TRACK 09 AUDIO
    REM REPLAYGAIN_TRACK_GAIN -3.56 dB
    REM REPLAYGAIN_TRACK_PEAK 0.988770
    TITLE Songbird
    PERFORMER "Sungha Jung"
    INDEX 00 05:41:71
FILE "09. Sungha Jung - Songbird.flac" WAVE    ; 286933.333 milliseconds
    INDEX 01 00:00:00
  TRACK 10 AUDIO
    REM REPLAYGAIN_TRACK_GAIN -4.06 dB
    REM REPLAYGAIN_TRACK_PEAK 0.988739
    TITLE Farewell
    PERFORMER "Sungha Jung"
    INDEX 00 04:44:71
FILE "10. Sungha Jung - Farewell.flac" WAVE    ; 205320.000 milliseconds
    INDEX 01 00:00:00
  TRACK 11 AUDIO
    REM REPLAYGAIN_TRACK_GAIN -4.49 dB
    REM REPLAYGAIN_TRACK_PEAK 0.988708
    TITLE "Tree in the water"
    PERFORMER "Sungha Jung"
    INDEX 00 03:23:25
FILE "11. Sungha Jung - Tree in the water.flac" WAVE    ; 257160.000 milliseconds
    INDEX 01 00:00:00
  TRACK 12 AUDIO
    REM REPLAYGAIN_TRACK_GAIN -5.96 dB
    REM REPLAYGAIN_TRACK_PEAK 0.988770
    TITLE "Beat it"
    PERFORMER "Sungha Jung"
    INDEX 00 04:15:13
FILE "12. Sungha Jung - Beat it.flac" WAVE    ; 239400.000 milliseconds
    INDEX 01 00:00:00
  TRACK 13 AUDIO
    REM REPLAYGAIN_TRACK_GAIN -2.98 dB
    REM REPLAYGAIN_TRACK_PEAK 0.988617
    TITLE "River flows in you"
    PERFORMER "Sungha Jung"
    INDEX 00 03:57:31
FILE "13. Sungha Jung - River flows in you.flac" WAVE    ; 214466.667 milliseconds
    INDEX 01 00:00:00
  TRACK 14 AUDIO
    REM REPLAYGAIN_TRACK_GAIN -4.65 dB
    REM REPLAYGAIN_TRACK_PEAK 0.988647
    TITLE Lonely
    PERFORMER "Sungha Jung"
    INDEX 00 03:32:36
FILE "14. Sungha Jung - Lonely.flac" WAVE    ; 210373.333 milliseconds
    INDEX 01 00:00:00
pic
Sungha Jung - Irony (2011).torrent
Трекер: Зарегистрирован

magnet ссылка

 


Скачать .torrent

14 KB

Статус: проверено (by APT в 22-Мар-12 12:22)
Зарегистрирован: 22-Мар-12 11:45
Скачан: 292 раза
Размер: 330 MB | 
Поблагодарили:
Скачать (Acoustic Guitar | Fingerstyle) Sungha Jung - Irony (2011) FLAC (tracks+.cue), lossless торрент
 


Похожие раздачи

Wolfel

post 22-Мар-12 14:57 (спустя 3 часа)

Спасибо! Давно ждал во флаке!

Текущее время: 22-Сен 14:52

Часовой пояс: GMT + 3



Вы не можете начинать темы
Вы не можете отвечать на сообщения
Вы не можете редактировать свои сообщения
Вы не можете удалять свои сообщения
Вы не можете голосовать в опросах
Вы не можете прикреплять файлы к сообщениям
Вы не можете скачивать файлы