Loading...
Error
 

Скачать торрент Diablo III: Collector's Edition - Behind the Scenes (2012) (Blu-ray 720p) (ENG)

Страницы:  1, 2  След.

 
Автор Сообщение

MoN_7_TeR2010

post 22-Май-12 22:26

Diablo III: Collector's Edition - Behind the Scenes

pic
Год выпуска: 2012
Жанр: Докуметнальный
Выпущено: США | Blizzard Entertainment
Продолжительность: 01:21:25
Перевод: Оригинал (Английский)
Субтитры: Есть (Multi) только в роликах!
Описание: Документальный фильм о создании Diablo III
Качество: Blu-ray 720p
Формат: BDMV
Видео: 1280x720, AVC MPEG-4, ~18 Mbps
Аудио: English: AC3 2.0, 48 kHz, 448 kbps;
Скриншоты

MI

Код:

 
General #0
    ID : 0 (0x0)
    Complete name : D:\Видео\Документальные фильмы и передачи\Diablo III Collector's Edition - Behind the Scenes 720p 2012 Bluray AVC AC-3\BDMV\STREAM\00034.m2ts
    Format : BDAV
    Format/Info : Blu-ray Video
    File size : 237 MiB
    Duration : 2mn 43s
    Overall bit rate mode : Variable
    Overall bit rate : 12.2 Mbps
    Maximum Overall bit rate : 48.0 Mbps
  Video #4113
    ID : 4113 (0x1011)
    Menu ID : 1 (0x1)
    Format : AVC
    Format/Info : Advanced Video Codec
    Format profile : [email protected]
    Format settings, CABAC : Yes
    Format settings, ReFrames : 2 frames
    Format settings, GOP : M=1, N=5
    Codec ID : 27
    Duration : 2mn 42s
    Bit rate mode : Variable
    Bit rate : 9 424 Kbps
    Maximum bit rate : 18.1 Mbps
    Width : 1 280 pixels
    Height : 720 pixels
    Display aspect ratio : 16:9
    Frame rate : 24.000 fps
    Color space : YUV
    Chroma subsampling : 4:2:0
    Bit depth : 8 bits
    Scan type : Progressive
    Bits/(Pixel*Frame) : 0.426
    Stream size : 183 MiB (77%)
  Audio #4352
    ID : 4352 (0x1100)
    Menu ID : 1 (0x1)
    Format : AC-3
    Format/Info : Audio Coding 3
    Mode extension : CM (complete main)
    Format settings, Endianness : Big
    Codec ID : 129
    Duration : 10s 464ms
    Bit rate mode : Constant
    Bit rate : 448 Kbps
    Channel(s) : 6 channels
    Channel positions : Front: L C R, Side: L R, LFE
    Sampling rate : 48.0 KHz
    Bit depth : 16 bits
    Compression mode : Lossy
    Delay relative to video : -48ms
    Stream size : 572 KiB (0%)
  Audio #4353
    ID : 4353 (0x1101)
    Menu ID : 1 (0x1)
    Format : AC-3
    Format/Info : Audio Coding 3
    Codec ID : 129
    Duration : 2mn 42s
    Bit rate : 448 Kbps
    Channel(s) : 2 channels
    Sampling rate : 48.0 KHz
    Compression mode : Lossy
    Delay relative to video : -48ms
    Stream size : 8.69 MiB (4%)
  Audio #4354
    ID : 4354 (0x1102)
    Menu ID : 1 (0x1)
    Format : AC-3
    Format/Info : Audio Coding 3
    Codec ID : 129
    Duration : 2mn 42s
    Bit rate : 448 Kbps
    Channel(s) : 2 channels
    Sampling rate : 48.0 KHz
    Compression mode : Lossy
    Delay relative to video : -48ms
    Stream size : 8.68 MiB (4%)
  Audio #4355
    ID : 4355 (0x1103)
    Menu ID : 1 (0x1)
    Format : AC-3
    Format/Info : Audio Coding 3
    Codec ID : 129
    Duration : 2mn 38s
    Bit rate : 448 Kbps
    Channel(s) : 5 channels
    Sampling rate : 48.0 KHz
    Compression mode : Lossy
    Delay relative to video : -48ms
    Stream size : 8.44 MiB (4%)
  Audio #4356
    ID : 4356 (0x1104)
    Menu ID : 1 (0x1)
    Format : AC-3
    Format/Info : Audio Coding 3
    Mode extension : CM (complete main)
    Format settings, Endianness : Big
    Codec ID : 129
    Duration : 5s 312ms
    Bit rate mode : Constant
    Bit rate : 448 Kbps
    Channel(s) : 6 channels
    Channel positions : Front: L C R, Side: L R, LFE
    Sampling rate : 48.0 KHz
    Bit depth : 16 bits
    Compression mode : Lossy
    Delay relative to video : -48ms
    Stream size : 291 KiB (0%)
  Text #4608
    ID : 4608 (0x1200)
    Menu ID : 1 (0x1)
    Format : PGS
    Codec ID : 144
    Duration : 2mn 23s
    Delay relative to video : 8s 375ms
  Text #4609
    ID : 4609 (0x1201)
    Menu ID : 1 (0x1)
    Format : PGS
    Codec ID : 144
    Duration : 2mn 23s
    Delay relative to video : 8s 375ms
  Text #4610
    ID : 4610 (0x1202)
    Menu ID : 1 (0x1)
    Format : PGS
    Codec ID : 144
    Duration : 2mn 23s
    Delay relative to video : 8s 375ms
  Text #4611
    ID : 4611 (0x1203)
    Menu ID : 1 (0x1)
    Format : PGS
    Codec ID : 144
    Duration : 2mn 23s
    Delay relative to video : 8s 375ms
  Text #4612
    ID : 4612 (0x1204)
    Menu ID : 1 (0x1)
    Format : PGS
    Codec ID : 144
    Duration : 2mn 23s
    Delay relative to video : 8s 375ms
  Text #4613
    ID : 4613 (0x1205)
    Menu ID : 1 (0x1)
    Format : PGS
    Codec ID : 144
    Duration : 2mn 23s
    Delay relative to video : 8s 375ms
  Text #4614
    ID : 4614 (0x1206)
    Menu ID : 1 (0x1)
    Format : PGS
    Codec ID : 144
    Duration : 2mn 23s
    Delay relative to video : 8s 375ms
  Text #4615
    ID : 4615 (0x1207)
    Menu ID : 1 (0x1)
    Format : PGS
    Codec ID : 144
    Duration : 2mn 23s
    Delay relative to video : 8s 375ms
  Text #4616
    ID : 4616 (0x1208)
    Menu ID : 1 (0x1)
    Format : PGS
    Codec ID : 144
    Duration : 2mn 23s
    Delay relative to video : 8s 375ms
  Text #4617
    ID : 4617 (0x1209)
    Menu ID : 1 (0x1)
    Format : PGS
    Codec ID : 144
    Duration : 2mn 23s
    Delay relative to video : 8s 375ms
  Text #4618
    ID : 4618 (0x120A)
    Menu ID : 1 (0x1)
    Format : PGS
    Codec ID : 144
    Duration : 2mn 23s
    Delay relative to video : 8s 375ms
  Text #4619
    ID : 4619 (0x120B)
    Menu ID : 1 (0x1)
    Format : PGS
    Codec ID : 144
    Duration : 2mn 23s
    Delay relative to video : 8s 375ms
  Text #4620
    ID : 4620 (0x120C)
    Menu ID : 1 (0x1)
    Format : PGS
    Codec ID : 144
    Duration : 2mn 23s
    Delay relative to video : 8s 375ms
Diablo III Collector's Edition - Behind the Scenes 720p 2012 Bluray AVC AC-3.torrent
 СЕРЕБРЯНАЯ РАЗДАЧА! СКАЧАННОЕ ЗАСЧИТЫВАЕТСЯ ТОЛЬКО НАПОЛОВИНУ! 
Вечный
Трекер: Зарегистрирован

magnet ссылка

 


Скачать .torrent

64 KB

Статус: проверено (by VЕRGILIY в 23-Май-12 08:47)
Зарегистрирован: 22-Май-12 22:26
Скачан: 51 раз
Размер: 14.31 GB | 
Поблагодарили:
Скачать Diablo III: Collector's Edition - Behind the Scenes (2012) (Blu-ray 720p) (ENG) торрент
 


Похожие раздачи

DeusMorte

post 22-Май-12 22:39 (спустя 12 минут)

Ого, спасибо :)

Asmodey

post 22-Май-12 22:45 (спустя 6 минут)

ждем рип

Вадек327

post 22-Май-12 22:45 (спустя 30 секунд)

круто) спс

Miranda86

post 22-Май-12 22:52 (спустя 6 минут)

даже БЕЗ субтитров, как смотреть то..

MoN_7_TeR2010

post 22-Май-12 22:57 (спустя 4 минуты)

Miranda86
Они есть, ошибся малость.

Quzоxе

post 22-Май-12 23:13 (спустя 16 минут)

MoN_7_TeR2010, интересно какие? и как их вкл?
нет там ничего :(

Fisher

post 22-Май-12 23:15 (спустя 2 минуты)

о_О нештяк! Де взял? ;)

MoN_7_TeR2010

post 22-Май-12 23:18 (спустя 3 минуты)

Quzоxе
Скриншот
pic
Ну как же, есть, еще и дороги другие тоже.

Quzоxе

post 22-Май-12 23:21 (спустя 2 минуты)

это игровые ролики с сабами и трелеры, в "о создании" нету. дорог других тоже нету.

MoN_7_TeR2010

post 22-Май-12 23:25 (спустя 4 минуты)

Quzоxе
хех, и вправду) Ну да ладно, все же они там есть хоть и не везде))

Motovilov

post 22-Май-12 23:27 (спустя 1 минута)

Бяка-кака

Quzоxе

post 22-Май-12 23:27 (спустя 11 секунд)

там ещё меню должно быть (по идее), но чета у меня не открылось :(

DRAGA-TRAXA

post 22-Май-12 23:29 (спустя 2 минуты)

Ц MoN_7_TeR2010 писал(а):

Quzоxе
Скриншот
pic
Ну как же, есть, еще и дороги другие тоже.
Извини за левый вопрос... Что за медиа-плеер?

dgry

post 22-Май-12 23:31 (спустя 1 минута)

А тут меню работает или также как и везде нерабочее меню?

MoN_7_TeR2010

post 22-Май-12 23:35 (спустя 4 минуты)

Quzоxе
Это?
Скриншот
pic
DRAGA-TRAXA
daum

Quzоxе

post 22-Май-12 23:43 (спустя 7 минут)

MoN_7_TeR2010, да. значит всё гуд.

BloodZIK

post 23-Май-12 04:18 (спустя 4 часа)

:shock:

Last Exile

post 03-Июн-12 11:21 (спустя 11 дней)

MoN_7_TeR2010 спасибо большое, качаю)

Dayver20099

post 06-Июн-12 03:05 (спустя 2 дня 15 часов)

Подскажите как запускать чтобы меню заработало а то у меня сразу фильм запускается.Спасибо.

Текущее время: 23-Сен 06:04

Часовой пояс: GMT + 3



Вы не можете начинать темы
Вы не можете отвечать на сообщения
Вы не можете редактировать свои сообщения
Вы не можете удалять свои сообщения
Вы не можете голосовать в опросах
Вы не можете прикреплять файлы к сообщениям
Вы не можете скачивать файлы