Loading...
Error
 

Скачать торрент Экзотические массажи мира: Чувственный массаж (Галина Илинскас) [2009 г., массаж, обучающее видео, DVDRip]

 
Автор Сообщение

STRELOK

post 17-Ноя-12 00:47

pic
Экзотические массажи мира: Чувственный массаж

Год выпуска: 2009
Страна: Россия
Жанр: Массаж, Обучающее видео
Продолжительность: 00:57:33
Автор: Галина Илинскас
Перевод: Не требуется
Описание: Чувственный массаж - это не просто набор определенных телодвижений и приемов, это искусство проявления чувственности, танец любви, медитация и прекрасное профилактическое средство для снятия стресса. В данной программе вы познакомитесь с чувственным массажем - массажем для удовольствия. Вы можете использовать в дальнейшем, увиденные в программе движения, разнообразные комбинации надавливаний, особые прикосновения. В зависимости от желания партнера движения могут отличаться различным ритмом, интенсивностью и могут меняться, и вы сможете создать свой неповторимый стиль.
Качество: DVDRip
Формат: avi
Видео кодек: XVID
Аудио кодек: MPEG Audio
Видео: 640x480, 25,000 кадров/сек, 1015 kbps avg, 0.13 bit/pixel
Аудио: 48 kHz, 2 ch, 185.74 kbps avg
MediaInfo

Код:

Общее
Полное имя                               : F:\Мои роздачи\Новая папка\обучающее\Экзотические массажи мира - Чувственный массаж (Галина Илинскас).avi
Формат                                   : AVI
Формат/Информация                        : Audio Video Interleave
Размер файла                             : 500 Мбайт
Продолжительность                        : 57 м.
Режим общего битрейта                    : Переменный
Общий поток                              : 1215 Кбит/сек
Программа кодирования                    : VirtualDubMod 1.5.10.2 (build 2540/release)
Библиотека кодирования                   : VirtualDubMod build 2540/release

Видео
Идентификатор                            : 0
Формат                                   : MPEG-4 Visual
Профиль формата                          : Advanced [email protected]
Параметр BVOP формата                    : 2
Параметр QPel формата                    : Нет
Параметр GMC формата                     : Без точки перехода
Параметр матрицы формата                 : Default (H.263)
Идентификатор кодека                     : XVID
Идентификатор кодека/Подсказка           : XviD
Продолжительность                        : 57 м.
Битрейт                                  : 1016 Кбит/сек
Ширина                                   : 640 пикселей
Высота                                   : 480 пикселей
Соотношение сторон                       : 4:3
Частота кадров                           : 25,000 кадров/сек
Цветовое пространство                    : YUV
Субдискретизация насыщенности            : 4:2:0
Битовая глубина                          : 8 бит
Тип развёртки                            : Прогрессивная
Метод сжатия                             : С потерями
Бит/(Пиксели*Кадры)                      : 0.132
Размер потока                            : 418 Мбайт (84%)
Библиотека кодирования                   : XviD 1.2.1 (UTC 2008-12-04)

Аудио
Идентификатор                            : 1
Формат                                   : MPEG Audio
Версия формата                           : Version 1
Профиль формата                          : Layer 3
Идентификатор кодека                     : 55
Идентификатор кодека/Подсказка           : MP3
Продолжительность                        : 57 м.
Вид битрейта                             : Переменный
Битрейт                                  : 192 Кбит/сек
Каналы                                   : 2 канала
Частота                                  : 48,0 КГц
Метод сжатия                             : С потерями
Размер потока                            : 76,5 Мбайт (15%)
Выравнивание                             : Соединение по промежуткам
Продолжительность промежутка             : 24  мс. (0,60 видеокадр)
Время предзагрузки промежутка            : 99  мс.
Библиотека кодирования                   : LAME3.98r
Настройки программы                      : -m s -V 4 -q 2 -lowpass 18.6 --abr 192
Скриншоты
pic pic pic pic pic
pic
Экзотические массажи мира - Чувственный массаж (Галина Илинскас).avi.torrent
Трекер: Зарегистрирован

magnet ссылка

 


Скачать .torrent

20 KB

Статус: проверено (by aka Rasputin в 17-Ноя-12 21:30)
Зарегистрирован: 17-Ноя-12 00:47
Скачан: 54 раза
Размер: 500 MB | 
Поблагодарили:
Скачать Экзотические массажи мира: Чувственный массаж (Галина Илинскас) [2009 г., массаж, обучающее видео, DVDRip] торрент
 


Похожие раздачи

post 21-Янв-14 15:14 (спустя 1 год 2 месяца)

Топик был перенесен из форума Обучающие видеокурсы и уроки в форум Здоровье и медицина

Причина переноса: Правильный раздел
Music Listener
 

Текущее время: 30-Май 11:24

Часовой пояс: GMT + 3



Вы не можете начинать темы
Вы не можете отвечать на сообщения
Вы не можете редактировать свои сообщения
Вы не можете удалять свои сообщения
Вы не можете голосовать в опросах
Вы не можете прикреплять файлы к сообщениям
Вы не можете скачивать файлы