Loading...
Error
 
Мини-чат
 

Скачать торрент (Pop) ABBA. The Albums (9 CDs) - 2008, FLAC (tracks), lossless



 
Автор Сообщение

Архон

post 24-Окт-09 20:47

ABBA. The Albums (9 CDs)

pic
Год выпуска: 2008
Жанр: Pop
Продолжительность: 5 h 4 min 42 sec
Тип издания: Albums
Аудиокодек: FLAC
Битрейт аудио: lossless
Издание
Впервые у нас выходит подарочное издание альбомов группы "ABBA". В единый бокс входят все восемь студийных альбомов коллектива "ABBA", а также уникальный сборник "The Albums. Bonus Tracks", содержащий би-сайды, редко издававшиеся треки и другие хиты. Все альбомы, входящие в этот бокс - ремастированы. Прекрасный подарок к наступающему Новому Году и Рождеству.

CD1: ABBA. Ring Ring
pic

01. Ring, Ring (3:07)
02. Another Town, Another Train (3:13)
03. Disillusion (3:08)
04. People Need Love (2:46)
05. I Saw It In The Mirror (2:34)
06. Nina, Pretty Ballerina (2:54)
07. Love Isn't Easy (But It Sure Is Hard Enough) (2:55)
08. Me And Bobby And Bobby's Brother (2:52)
09. He Is Your Brother (3:20)
10. She's My Kind Of Girl (2:46)
11. I Am Just A Girl (3:04)
12. Rock'N'Roll Band (3:12)
13. Merry-Go-Round [Bonus] (3:27)
14. Santa Rosa [Bonus] (3:02)
15. Ring, Ring [Bonus - In Swedish] (3:10)
ЛОГ
Exact Audio Copy V0.99 prebeta 4 from 23. January 2008

EAC extraction logfile from 10. December 2008, 18:07

ABBA / Ring Ring

Used drive : PLEXTOR DVDR PX-810SA Adapter: 7 ID: 0

Read mode : Secure
Utilize accurate stream : Yes
Defeat audio cache : Yes
Make use of C2 pointers : No

Read offset correction : 48
Overread into Lead-In and Lead-Out : No
Fill up missing offset samples with silence : Yes
Delete leading and trailing silent blocks : No
Null samples used in CRC calculations : Yes
Used interface : Installed external ASPI interface
Gap handling : Appended to previous track

Used output format : User Defined Encoder
Selected bitrate : 1024 kBit/s
Quality : High
Add ID3 tag : No
Command line compressor : C:\Program Files\FLAC\flac.exe
Additional command line options : -V -8 -T "artist=%a" -T "title=%t" -T "album=%g" -T "date=%y" -T "tracknumber=%n" -T "genre=%m" %s
Use compression offset : 0

TOC of the extracted CD

Track | Start | Length | Start sector | End sector
---------------------------------------------------------
1 | 0:00.00 | 3:06.73 | 0 | 14022
2 | 3:06.73 | 3:13.05 | 14023 | 28502
3 | 6:20.03 | 3:07.40 | 28503 | 42567
4 | 9:27.43 | 2:46.15 | 42568 | 55032
5 | 12:13.58 | 2:34.23 | 55033 | 66605
6 | 14:48.06 | 2:53.57 | 66606 | 79637
7 | 17:41.63 | 2:55.15 | 79638 | 92777
8 | 20:37.03 | 2:52.00 | 92778 | 105677
9 | 23:29.03 | 3:19.38 | 105678 | 120640
10 | 26:48.41 | 2:45.30 | 120641 | 133045
11 | 29:33.71 | 3:03.72 | 133046 | 146842
12 | 32:37.68 | 3:11.70 | 146843 | 161237
13 | 35:49.63 | 3:26.51 | 161238 | 176738
14 | 39:16.39 | 3:01.62 | 176739 | 190375
15 | 42:18.26 | 3:10.01 | 190376 | 204626

Track 1

Filename Q:\Music\Temp\01 - Ring, Ring.wav

Pre-gap length 0:00:02.00

Peak level 99.5 %
Track quality 99.9 %
Test CRC 8BE48E5C
Copy CRC 8BE48E5C
Copy OK

Track 2

Filename Q:\Music\Temp\02 - Another Town, Another Train.wav

Pre-gap length 0:00:01.56

Peak level 95.0 %
Track quality 100.0 %
Test CRC 63BAD3E8
Copy CRC 63BAD3E8
Copy OK

Track 3

Filename Q:\Music\Temp\03 - Disillusion.wav

Pre-gap length 0:00:00.73

Peak level 95.7 %
Track quality 100.0 %
Test CRC 9BA44CD9
Copy CRC 9BA44CD9
Copy OK

Track 4

Filename Q:\Music\Temp\04 - People Need Love.wav

Pre-gap length 0:00:04.17

Peak level 97.0 %
Track quality 100.0 %
Test CRC 7A221EB7
Copy CRC 7A221EB7
Copy OK

Track 5

Filename Q:\Music\Temp\05 - I Saw It In The Mirror.wav

Pre-gap length 0:00:01.13

Peak level 97.5 %
Track quality 100.0 %
Test CRC 95050DA5
Copy CRC 95050DA5
Copy OK

Track 6

Filename Q:\Music\Temp\06 - Nina, Pretty Ballerina.wav

Pre-gap length 0:00:00.65

Peak level 97.1 %
Track quality 100.0 %
Test CRC 847EBA8E
Copy CRC 847EBA8E
Copy OK

Track 7

Filename Q:\Music\Temp\07 - Love Isn't Easy (But It Sure Is Hard Enough).wav

Pre-gap length 0:00:02.21

Peak level 97.5 %
Track quality 100.0 %
Test CRC 739ADEDE
Copy CRC 739ADEDE
Copy OK

Track 8

Filename Q:\Music\Temp\08 - Me And Bobby And Bobby's Brother.wav

Pre-gap length 0:00:01.13

Peak level 99.6 %
Track quality 99.9 %
Test CRC 870F43FB
Copy CRC 870F43FB
Copy OK

Track 9

Filename Q:\Music\Temp\09 - He Is Your Brother.wav

Pre-gap length 0:00:01.62

Peak level 99.6 %
Track quality 100.0 %
Test CRC D09BB69F
Copy CRC D09BB69F
Copy OK

Track 10

Filename Q:\Music\Temp\10 - She's My Kind Of Girl.wav

Pre-gap length 0:00:01.29

Peak level 82.5 %
Track quality 100.0 %
Test CRC 8D8B72DF
Copy CRC 8D8B72DF
Copy OK

Track 11

Filename Q:\Music\Temp\11 - I Am Just A Girl.wav

Pre-gap length 0:00:00.61

Peak level 95.1 %
Track quality 99.9 %
Test CRC 125BB461
Copy CRC 125BB461
Copy OK

Track 12

Filename Q:\Music\Temp\12 - Rock'N'Roll Band.wav

Pre-gap length 0:00:02.03

Peak level 95.1 %
Track quality 99.9 %
Test CRC FB0D3B30
Copy CRC FB0D3B30
Copy OK

Track 13

Filename Q:\Music\Temp\13 - Merry-Go-Round [Bonus].wav

Pre-gap length 0:00:02.58

Peak level 92.7 %
Track quality 100.0 %
Test CRC 1DD1C5E5
Copy CRC 1DD1C5E5
Copy OK

Track 14

Filename Q:\Music\Temp\14 - Santa Rosa [Bonus].wav

Pre-gap length 0:00:02.42

Peak level 96.6 %
Track quality 100.0 %
Test CRC 90248C9A
Copy CRC 90248C9A
Copy OK

Track 15

Filename Q:\Music\Temp\15 - Ring, Ring [Bonus - In Swedish].wav

Pre-gap length 0:00:02.13

Peak level 96.4 %
Track quality 100.0 %
Test CRC 6A3E3BC3
Copy CRC 6A3E3BC3
Copy OK

No errors occurred

End of status report

CD2: ABBA. Waterloo
pic

01. Waterloo (2:49)
02. Sitting In The Palmtree (3:38)
03. King Kong Song (3:14)
04. Hasta Maсana (3:11)
05. My Mama Said (3:14)
06. Dance (While The Music Still Goes On) (3:13)
07. Honey, Honey (2:57)
08. Watch Out (3:48)
09. What About Livingstone (2:55)
10. Gonna Sing You My Lovesong (3:39)
11. Suzy-Hang-Around (3:19)
12. Ring, Ring [US Remix] (1974) (3:07)
13. Waterloo (In Swedish) (2:46)
14. Honey Honey (In Swedish) (2:59)
ЛОГ
Exact Audio Copy V0.99 prebeta 4 from 23. January 2008

EAC extraction logfile from 10. December 2008, 18:43

ABBA / Waterloo

Used drive : PLEXTOR DVDR PX-810SA Adapter: 7 ID: 0

Read mode : Secure
Utilize accurate stream : Yes
Defeat audio cache : Yes
Make use of C2 pointers : No

Read offset correction : 48
Overread into Lead-In and Lead-Out : No
Fill up missing offset samples with silence : Yes
Delete leading and trailing silent blocks : No
Null samples used in CRC calculations : Yes
Used interface : Installed external ASPI interface
Gap handling : Appended to previous track

Used output format : User Defined Encoder
Selected bitrate : 1024 kBit/s
Quality : High
Add ID3 tag : No
Command line compressor : C:\Program Files\FLAC\flac.exe
Additional command line options : -V -8 -T "artist=%a" -T "title=%t" -T "album=%g" -T "date=%y" -T "tracknumber=%n" -T "genre=%m" %s
Use compression offset : 0

TOC of the extracted CD

Track | Start | Length | Start sector | End sector
---------------------------------------------------------
1 | 0:00.00 | 2:48.63 | 0 | 12662
2 | 2:48.63 | 3:38.15 | 12663 | 29027
3 | 6:27.03 | 3:14.13 | 29028 | 43590
4 | 9:41.16 | 3:10.65 | 43591 | 57905
5 | 12:52.06 | 3:14.22 | 57906 | 72477
6 | 16:06.28 | 3:12.50 | 72478 | 86927
7 | 19:19.03 | 2:56.35 | 86928 | 100162
8 | 22:15.38 | 3:47.43 | 100163 | 117230
9 | 26:03.06 | 2:55.26 | 117231 | 130381
10 | 28:58.32 | 3:38.58 | 130382 | 146789
11 | 32:37.15 | 3:18.33 | 146790 | 161672
12 | 35:55.48 | 3:07.17 | 161673 | 175714
13 | 39:02.65 | 2:46.04 | 175715 | 188168
14 | 41:48.69 | 2:58.70 | 188169 | 201588

Track 1

Filename Q:\Music\Temp\01 - Waterloo.wav

Pre-gap length 0:00:02.00

Peak level 99.5 %
Track quality 100.0 %
Test CRC B59D860F
Copy CRC B59D860F
Copy OK

Track 2

Filename Q:\Music\Temp\02 - Sitting In The Palmtree.wav

Pre-gap length 0:00:01.66

Peak level 97.0 %
Track quality 100.0 %
Test CRC D4CA522D
Copy CRC D4CA522D
Copy OK

Track 3

Filename Q:\Music\Temp\03 - King Kong Song.wav

Peak level 97.0 %
Track quality 100.0 %
Test CRC 48D4B54D
Copy CRC 48D4B54D
Copy OK

Track 4

Filename Q:\Music\Temp\04 - Hasta Maсana.wav

Pre-gap length 0:00:01.23

Peak level 92.8 %
Track quality 100.0 %
Test CRC 831E6ABD
Copy CRC 831E6ABD
Copy OK

Track 5

Filename Q:\Music\Temp\05 - My Mama Said.wav

Pre-gap length 0:00:00.24

Peak level 99.9 %
Track quality 100.0 %
Test CRC 0DD40C76
Copy CRC 0DD40C76
Copy OK

Track 6

Filename Q:\Music\Temp\06 - Dance (While The Music Still Goes On).wav

Pre-gap length 0:00:02.51

Peak level 99.4 %
Track quality 100.0 %
Test CRC 86DF13C3
Copy CRC 86DF13C3
Copy OK

Track 7

Filename Q:\Music\Temp\07 - Honey, Honey.wav

Pre-gap length 0:00:00.40

Peak level 98.8 %
Track quality 100.0 %
Test CRC BBBFC080
Copy CRC BBBFC080
Copy OK

Track 8

Filename Q:\Music\Temp\08 - Watch Out.wav

Pre-gap length 0:00:02.00

Peak level 97.0 %
Track quality 100.0 %
Test CRC CA27DE62
Copy CRC CA27DE62
Copy OK

Track 9

Filename Q:\Music\Temp\09 - What About Livingstone.wav

Pre-gap length 0:00:01.66

Peak level 99.6 %
Track quality 100.0 %
Test CRC 0F165DC6
Copy CRC 0F165DC6
Copy OK

Track 10

Filename Q:\Music\Temp\10 - Gonna Sing You My Lovesong.wav

Pre-gap length 0:00:00.59

Peak level 99.6 %
Track quality 100.0 %
Test CRC 7A36C0A3
Copy CRC 7A36C0A3
Copy OK

Track 11

Filename Q:\Music\Temp\11 - Suzy-Hang-Around.wav

Pre-gap length 0:00:00.71

Peak level 92.8 %
Track quality 100.0 %
Test CRC 74FF5A75
Copy CRC 74FF5A75
Copy OK

Track 12

Filename Q:\Music\Temp\12 - Ring, Ring [US Remix] (1974).wav

Pre-gap length 0:00:07.37

Peak level 98.7 %
Track quality 100.0 %
Test CRC 81E26B26
Copy CRC 81E26B26
Copy OK

Track 13

Filename Q:\Music\Temp\13 - Waterloo (In Swedish).wav

Pre-gap length 0:00:02.44

Peak level 99.3 %
Track quality 99.9 %
Test CRC 53C41EA6
Copy CRC 53C41EA6
Copy OK

Track 14

Filename Q:\Music\Temp\14 - Honey Honey (In Swedish).wav

Pre-gap length 0:00:02.17

Peak level 96.4 %
Track quality 100.0 %
Test CRC EEF1A0C5
Copy CRC EEF1A0C5
Copy OK

No errors occurred

End of status report

CD3: ABBA. ABBA
pic

01. Mamma Mia (3:35)
02. Hey, Hey Helen (3:18)
03. Tropical Loveland (3:07)
04. S.O.S. (3:24)
05. Man In The Middle (3:04)
06. Bang-A-Boomerang (3:05)
07. I Do, I Do, I Do, I Do, I Do (3:18)
08. Rock Me (3:06)
09. Intermezzo No.1 (3:47)
10. I've Been Waiting For You (3:42)
11. So Long (3:07)
12. Crazy World (3:49)
13. Pick A Bale Of Cotton | On Top Of Old Smokey | Midnight Special (4:22)
ЛОГ
Exact Audio Copy V0.99 prebeta 4 from 23. January 2008

EAC extraction logfile from 10. December 2008, 19:06

ABBA / Abba

Used drive : PLEXTOR DVDR PX-810SA Adapter: 7 ID: 0

Read mode : Secure
Utilize accurate stream : Yes
Defeat audio cache : Yes
Make use of C2 pointers : No

Read offset correction : 48
Overread into Lead-In and Lead-Out : No
Fill up missing offset samples with silence : Yes
Delete leading and trailing silent blocks : No
Null samples used in CRC calculations : Yes
Used interface : Installed external ASPI interface
Gap handling : Appended to previous track

Used output format : User Defined Encoder
Selected bitrate : 1024 kBit/s
Quality : High
Add ID3 tag : No
Command line compressor : C:\Program Files\FLAC\flac.exe
Additional command line options : -V -8 -T "artist=%a" -T "title=%t" -T "album=%g" -T "date=%y" -T "tracknumber=%n" -T "genre=%m" %s
Use compression offset : 0

TOC of the extracted CD

Track | Start | Length | Start sector | End sector
---------------------------------------------------------
1 | 0:00.00 | 3:35.21 | 0 | 16145
2 | 3:35.21 | 3:18.27 | 16146 | 31022
3 | 6:53.48 | 3:06.50 | 31023 | 45022
4 | 10:00.23 | 3:23.48 | 45023 | 60295
5 | 13:23.71 | 3:03.40 | 60296 | 74060
6 | 16:27.36 | 3:04.70 | 74061 | 87930
7 | 19:32.31 | 3:17.67 | 87931 | 102772
8 | 22:50.23 | 3:05.50 | 102773 | 116697
9 | 25:55.73 | 3:47.03 | 116698 | 133725
10 | 29:43.01 | 3:41.42 | 133726 | 150342
11 | 33:24.43 | 3:06.37 | 150343 | 164329
12 | 36:31.05 | 3:48.55 | 164330 | 181484
13 | 40:19.60 | 4:21.65 | 181485 | 201124

Track 1

Filename Q:\Music\Temp\01 - Mamma Mia.wav

Pre-gap length 0:00:02.00

Peak level 99.3 %
Track quality 100.0 %
Test CRC BD781457
Copy CRC BD781457
Copy OK

Track 2

Filename Q:\Music\Temp\02 - Hey, Hey Helen.wav

Pre-gap length 0:00:02.01

Peak level 99.4 %
Track quality 100.0 %
Test CRC 17AC42AA
Copy CRC 17AC42AA
Copy OK

Track 3

Filename Q:\Music\Temp\03 - Tropical Loveland.wav

Pre-gap length 0:00:02.68

Peak level 95.6 %
Track quality 100.0 %
Test CRC 9FAA8FD3
Copy CRC 9FAA8FD3
Copy OK

Track 4

Filename Q:\Music\Temp\04 - S.O.S..wav

Pre-gap length 0:00:03.06

Peak level 95.1 %
Track quality 100.0 %
Test CRC BD4A946F
Copy CRC BD4A946F
Copy OK

Track 5

Filename Q:\Music\Temp\05 - Man In The Middle.wav

Pre-gap length 0:00:01.19

Peak level 97.0 %
Track quality 100.0 %
Test CRC DB299308
Copy CRC DB299308
Copy OK

Track 6

Filename Q:\Music\Temp\06 - Bang-A-Boomerang.wav

Pre-gap length 0:00:02.64

Peak level 99.4 %
Track quality 99.9 %
Test CRC 15EB0E99
Copy CRC 15EB0E99
Copy OK

Track 7

Filename Q:\Music\Temp\07 - I Do, I Do, I Do, I Do, I Do.wav

Pre-gap length 0:00:02.39

Peak level 90.2 %
Track quality 99.9 %
Test CRC CE3CC65D
Copy CRC CE3CC65D
Copy OK

Track 8

Filename Q:\Music\Temp\08 - Rock Me.wav

Pre-gap length 0:00:02.46

Peak level 99.4 %
Track quality 100.0 %
Test CRC 6CF2CC1C
Copy CRC 6CF2CC1C
Copy OK

Track 9

Filename Q:\Music\Temp\09 - Intermezzo No.1.wav

Pre-gap length 0:00:00.70

Peak level 96.1 %
Track quality 100.0 %
Test CRC DE5BC548
Copy CRC DE5BC548
Copy OK

Track 10

Filename Q:\Music\Temp\10 - I've Been Waiting For You.wav

Pre-gap length 0:00:01.04

Peak level 99.4 %
Track quality 100.0 %
Test CRC 4294608F
Copy CRC 4294608F
Copy OK

Track 11

Filename Q:\Music\Temp\11 - So Long.wav

Pre-gap length 0:00:00.67

Peak level 99.5 %
Track quality 100.0 %
Test CRC 0562DC19
Copy CRC 0562DC19
Copy OK

Track 12

Filename Q:\Music\Temp\12 - Crazy World.wav

Pre-gap length 0:00:01.04

Peak level 99.4 %
Track quality 100.0 %
Test CRC F7411B07
Copy CRC F7411B07
Copy OK

Track 13

Filename Q:\Music\Temp\13 - Pick A Bale Of Cotton ! On Top Of Old Smokey ! Midnight Special.wav

Pre-gap length 0:00:02.31

Peak level 95.5 %
Track quality 100.0 %
Test CRC 17A42EC1
Copy CRC 17A42EC1
Copy OK

No errors occurred

End of status report

CD4: ABBA. Arrival
pic

01. When I Kissed the Teacher (3:02)
02. Dancing Queen (3:51)
03. My Love, My Life (3:53)
04. Dum Dum Diddle (2:55)
05. Knowing Me, Knowing You (4:04)
06. Money, Money, Money (3:07)
07. That's Me (3:17)
08. Why Did it Have to Be Me (3:23)
09. Tiger (2:56)
10. Arrival (3:05)
11. Fernando (4:16)
12. Happy Hawaii (4:26)
ЛОГ
Exact Audio Copy V0.99 prebeta 4 from 23. January 2008

EAC extraction logfile from 10. December 2008, 19:29

ABBA / Arrival

Used drive : PLEXTOR DVDR PX-810SA Adapter: 7 ID: 0

Read mode : Secure
Utilize accurate stream : Yes
Defeat audio cache : Yes
Make use of C2 pointers : No

Read offset correction : 48
Overread into Lead-In and Lead-Out : No
Fill up missing offset samples with silence : Yes
Delete leading and trailing silent blocks : No
Null samples used in CRC calculations : Yes
Used interface : Installed external ASPI interface
Gap handling : Appended to previous track

Used output format : User Defined Encoder
Selected bitrate : 1024 kBit/s
Quality : High
Add ID3 tag : No
Command line compressor : C:\Program Files\FLAC\flac.exe
Additional command line options : -V -8 -T "artist=%a" -T "title=%t" -T "album=%g" -T "date=%y" -T "tracknumber=%n" -T "genre=%m" %s
Use compression offset : 0

TOC of the extracted CD

Track | Start | Length | Start sector | End sector
---------------------------------------------------------
1 | 0:00.00 | 3:02.01 | 0 | 13650
2 | 3:02.01 | 3:50.52 | 13651 | 30952
3 | 6:52.53 | 3:52.33 | 30953 | 48385
4 | 10:45.11 | 2:54.45 | 48386 | 61480
5 | 13:39.56 | 4:03.67 | 61481 | 79772
6 | 17:43.48 | 3:06.38 | 79773 | 93760
7 | 20:50.11 | 3:16.60 | 93761 | 108520
8 | 24:06.71 | 3:22.30 | 108521 | 123700
9 | 27:29.26 | 2:55.57 | 123701 | 136882
10 | 30:25.08 | 3:05.05 | 136883 | 150762
11 | 33:30.13 | 4:15.40 | 150763 | 169927
12 | 37:45.53 | 4:25.57 | 169928 | 189859

Track 1

Filename Q:\Music\Temp\01 - When I Kissed the Teacher.wav

Pre-gap length 0:00:02.00

Peak level 99.9 %
Track quality 100.0 %
Test CRC 623DC404
Copy CRC 623DC404
Copy OK

Track 2

Filename Q:\Music\Temp\02 - Dancing Queen.wav

Pre-gap length 0:00:00.66

Peak level 95.1 %
Track quality 100.0 %
Test CRC 1A151D78
Copy CRC 1A151D78
Copy OK

Track 3

Filename Q:\Music\Temp\03 - My Love, My Life.wav

Pre-gap length 0:00:00.22

Peak level 99.6 %
Track quality 99.9 %
Test CRC B38FDE5A
Copy CRC B38FDE5A
Copy OK

Track 4

Filename Q:\Music\Temp\04 - Dum Dum Diddle.wav

Pre-gap length 0:00:01.12

Peak level 97.0 %
Track quality 100.0 %
Test CRC BE920CCF
Copy CRC BE920CCF
Copy OK

Track 5

Filename Q:\Music\Temp\05 - Knowing Me, Knowing You.wav

Pre-gap length 0:00:00.61

Peak level 95.1 %
Track quality 100.0 %
Test CRC D69CC136
Copy CRC D69CC136
Copy OK

Track 6

Filename Q:\Music\Temp\06 - Money, Money, Money.wav

Pre-gap length 0:00:01.73

Peak level 95.4 %
Track quality 100.0 %
Test CRC 2E819DA4
Copy CRC 2E819DA4
Copy OK

Track 7

Filename Q:\Music\Temp\07 - That's Me.wav

Pre-gap length 0:00:00.06

Peak level 95.1 %
Track quality 100.0 %
Test CRC 7CB711ED
Copy CRC 7CB711ED
Copy OK

Track 8

Filename Q:\Music\Temp\08 - Why Did it Have to Be Me.wav

Pre-gap length 0:00:01.59

Peak level 99.9 %
Track quality 100.0 %
Test CRC 8B6F74DD
Copy CRC 8B6F74DD
Copy OK

Track 9

Filename Q:\Music\Temp\09 - Tiger.wav

Pre-gap length 0:00:01.49

Peak level 95.1 %
Track quality 100.0 %
Test CRC EBF26525
Copy CRC EBF26525
Copy OK

Track 10

Filename Q:\Music\Temp\10 - Arrival.wav

Pre-gap length 0:00:00.41

Peak level 95.6 %
Track quality 100.0 %
Test CRC 69B76BA1
Copy CRC 69B76BA1
Copy OK

Track 11

Filename Q:\Music\Temp\11 - Fernando.wav

Pre-gap length 0:00:04.48

Peak level 92.8 %
Track quality 100.0 %
Test CRC B9E60685
Copy CRC B9E60685
Copy OK

Track 12

Filename Q:\Music\Temp\12 - Happy Hawaii.wav

Pre-gap length 0:00:02.43

Peak level 95.8 %
Track quality 100.0 %
Test CRC 4C97E147
Copy CRC 4C97E147
Copy OK

No errors occurred

End of status report

CD5: ABBA. The Album
pic

01. Eagle (5:53)
02. Take A Chance On Me (4:04)
03. One Man, One Woman (4:37)
04. The Name Of The Game (4:54)
05. Move On (4:46)
06. Hole In Your Soul (3:44)
07. Thank You For The Music (3:52)
08. I Wonder (Departure) (4:35)
09. I'm A Marionette (4:06)
10. Thank You For The Music (Doris Day Version) (4:04)
ЛОГ
Exact Audio Copy V0.99 prebeta 4 from 23. January 2008

EAC extraction logfile from 10. December 2008, 21:07

Abba / The Album

Used drive : PLEXTOR DVDR PX-810SA Adapter: 7 ID: 0

Read mode : Secure
Utilize accurate stream : Yes
Defeat audio cache : Yes
Make use of C2 pointers : No

Read offset correction : 48
Overread into Lead-In and Lead-Out : No
Fill up missing offset samples with silence : Yes
Delete leading and trailing silent blocks : No
Null samples used in CRC calculations : Yes
Used interface : Installed external ASPI interface
Gap handling : Appended to previous track

Used output format : User Defined Encoder
Selected bitrate : 1024 kBit/s
Quality : High
Add ID3 tag : No
Command line compressor : C:\Program Files\FLAC\flac.exe
Additional command line options : -V -8 -T "artist=%a" -T "title=%t" -T "album=%g" -T "date=%y" -T "tracknumber=%n" -T "genre=%m" %s
Use compression offset : 0

TOC of the extracted CD

Track | Start | Length | Start sector | End sector
---------------------------------------------------------
1 | 0:00.00 | 5:53.13 | 0 | 26487
2 | 5:53.13 | 4:03.70 | 26488 | 44782
3 | 9:57.08 | 4:37.10 | 44783 | 65567
4 | 14:34.18 | 4:53.71 | 65568 | 87613
5 | 19:28.14 | 4:45.30 | 87614 | 109018
6 | 24:13.44 | 3:43.33 | 109019 | 125776
7 | 27:57.02 | 3:51.67 | 125777 | 143168
8 | 31:48.69 | 4:34.70 | 143169 | 163788
9 | 36:23.64 | 4:05.69 | 163789 | 182232
10 | 40:29.58 | 4:03.42 | 182233 | 200499

Track 1

Filename Q:\Music\Temp\01 - Eagle.wav

Pre-gap length 0:00:02.00

Peak level 99.6 %
Track quality 100.0 %
Test CRC 2F50370C
Copy CRC 2F50370C
Copy OK

Track 2

Filename Q:\Music\Temp\02 - Take A Chance On Me.wav

Pre-gap length 0:00:02.26

Peak level 95.1 %
Track quality 100.0 %
Test CRC 1657FB9C
Copy CRC 1657FB9C
Copy OK

Track 3

Filename Q:\Music\Temp\03 - One Man, One Woman.wav

Peak level 95.1 %
Track quality 100.0 %
Test CRC 8E883EE0
Copy CRC 8E883EE0
Copy OK

Track 4

Filename Q:\Music\Temp\04 - The Name Of The Game.wav

Pre-gap length 0:00:01.73

Peak level 95.1 %
Track quality 100.0 %
Test CRC EA98052F
Copy CRC EA98052F
Copy OK

Track 5

Filename Q:\Music\Temp\05 - Move On.wav

Pre-gap length 0:00:02.06

Peak level 95.1 %
Track quality 100.0 %
Test CRC 67128A10
Copy CRC 67128A10
Copy OK

Track 6

Filename Q:\Music\Temp\06 - Hole In Your Soul.wav

Pre-gap length 0:00:02.26

Peak level 95.1 %
Track quality 100.0 %
Test CRC 62CBAA4A
Copy CRC 62CBAA4A
Copy OK

Track 7

Filename Q:\Music\Temp\07 - Thank You For The Music.wav

Pre-gap length 0:00:02.26

Peak level 99.8 %
Track quality 100.0 %
Test CRC 8B726871
Copy CRC 8B726871
Copy OK

Track 8

Filename Q:\Music\Temp\08 - I Wonder (Departure).wav

Pre-gap length 0:00:02.33

Peak level 90.2 %
Track quality 99.9 %
Test CRC D3560B2F
Copy CRC D3560B2F
Copy OK

Track 9

Filename Q:\Music\Temp\09 - I'm A Marionette.wav

Pre-gap length 0:00:02.18

Peak level 92.8 %
Track quality 100.0 %
Test CRC 18348D6B
Copy CRC 18348D6B
Copy OK

Track 10

Filename Q:\Music\Temp\10 - Thank You For The Music (Doris Day Version).wav

Pre-gap length 0:00:02.15

Peak level 96.4 %
Track quality 100.0 %
Test CRC 2522E628
Copy CRC 2522E628
Copy OK

No errors occurred

End of status report

CD6: ABBA. Voulez-Vous
pic

01. As Good As New (3:25)
02. Voulez-Vous (5:09)
03. I Have A Dream (4:46)
04. Angeleyes (4:23)
05. The King Has Lost His Crown (3:34)
06. Does Your Mother Know (3:16)
07. If It Wasn't For The Night (5:11)
08. Chiquitita (5:27)
09. Lovers (Live A Little Longer) (3:32)
10. Kisses Of Fire (3:21)
11. Summer Night City (3:35)
12. Lovelight (3:48)
13. Gimme! Gimme! Gimme! (A Man After Midnight) (4:53)
ЛОГ
Exact Audio Copy V0.99 prebeta 4 from 23. January 2008

EAC extraction logfile from 10. December 2008, 21:36

Abba / Voulez-Vous

Used drive : PLEXTOR DVDR PX-810SA Adapter: 7 ID: 0

Read mode : Secure
Utilize accurate stream : Yes
Defeat audio cache : Yes
Make use of C2 pointers : No

Read offset correction : 48
Overread into Lead-In and Lead-Out : No
Fill up missing offset samples with silence : Yes
Delete leading and trailing silent blocks : No
Null samples used in CRC calculations : Yes
Used interface : Installed external ASPI interface
Gap handling : Appended to previous track

Used output format : User Defined Encoder
Selected bitrate : 1024 kBit/s
Quality : High
Add ID3 tag : No
Command line compressor : C:\Program Files\FLAC\flac.exe
Additional command line options : -V -8 -T "artist=%a" -T "title=%t" -T "album=%g" -T "date=%y" -T "tracknumber=%n" -T "genre=%m" %s
Use compression offset : 0

TOC of the extracted CD

Track | Start | Length | Start sector | End sector
---------------------------------------------------------
1 | 0:00.00 | 3:24.53 | 0 | 15352
2 | 3:24.53 | 5:09.13 | 15353 | 38540
3 | 8:33.66 | 4:46.22 | 38541 | 60012
4 | 13:20.13 | 4:23.20 | 60013 | 79757
5 | 17:43.33 | 3:33.60 | 79758 | 95792
6 | 21:17.18 | 3:15.50 | 95793 | 110467
7 | 24:32.68 | 5:11.00 | 110468 | 133792
8 | 29:43.68 | 5:27.03 | 133793 | 158320
9 | 35:10.71 | 3:31.62 | 158321 | 174207
10 | 38:42.58 | 3:20.38 | 174208 | 189245
11 | 42:03.21 | 3:35.10 | 189246 | 205380
12 | 45:38.31 | 3:48.10 | 205381 | 222490
13 | 49:26.41 | 4:52.46 | 222491 | 244436

Track 1

Filename Q:\Music\Temp\01 - As Good As New.wav

Pre-gap length 0:00:02.00

Peak level 99.5 %
Track quality 100.0 %
Test CRC 2976473C
Copy CRC 2976473C
Copy OK

Track 2

Filename Q:\Music\Temp\02 - Voulez-Vous.wav

Pre-gap length 0:00:00.51

Peak level 97.0 %
Track quality 100.0 %
Test CRC 90617245
Copy CRC 90617245
Copy OK

Track 3

Filename Q:\Music\Temp\03 - I Have A Dream.wav

Peak level 90.2 %
Track quality 100.0 %
Test CRC 7044C2C0
Copy CRC 7044C2C0
Copy OK

Track 4

Filename Q:\Music\Temp\04 - Angeleyes.wav

Pre-gap length 0:00:00.66

Peak level 97.0 %
Track quality 100.0 %
Test CRC 395F6DA4
Copy CRC 395F6DA4
Copy OK

Track 5

Filename Q:\Music\Temp\05 - The King Has Lost His Crown.wav

Pre-gap length 0:00:02.28

Peak level 95.1 %
Track quality 100.0 %
Test CRC FF44B286
Copy CRC FF44B286
Copy OK

Track 6

Filename Q:\Music\Temp\06 - Does Your Mother Know.wav

Pre-gap length 0:00:01.21

Peak level 97.0 %
Track quality 100.0 %
Test CRC 490B0526
Copy CRC 490B0526
Copy OK

Track 7

Filename Q:\Music\Temp\07 - If It Wasn't For The Night.wav

Pre-gap length 0:00:02.17

Peak level 97.0 %
Track quality 100.0 %
Test CRC E4FA4F48
Copy CRC E4FA4F48
Copy OK

Track 8

Filename Q:\Music\Temp\08 - Chiquitita.wav

Pre-gap length 0:00:01.51

Peak level 95.1 %
Track quality 100.0 %
Test CRC 653EE4F9
Copy CRC 653EE4F9
Copy OK

Track 9

Filename Q:\Music\Temp\09 - Lovers (Live A Little Longer).wav

Pre-gap length 0:00:00.54

Peak level 95.1 %
Track quality 99.9 %
Test CRC C83D70ED
Copy CRC C83D70ED
Copy OK

Track 10

Filename Q:\Music\Temp\10 - Kisses Of Fire.wav

Pre-gap length 0:00:01.28

Peak level 99.6 %
Track quality 100.0 %
Test CRC D23D59F8
Copy CRC D23D59F8
Copy OK

Track 11

Filename Q:\Music\Temp\11 - Summer Night City.wav

Pre-gap length 0:00:03.71

Peak level 97.0 %
Track quality 100.0 %
Test CRC FB8228A9
Copy CRC FB8228A9
Copy OK

Track 12

Filename Q:\Music\Temp\12 - Lovelight.wav

Pre-gap length 0:00:00.32

Peak level 94.6 %
Track quality 99.9 %
Test CRC A39970A2
Copy CRC A39970A2
Copy OK

Track 13

Filename Q:\Music\Temp\13 - Gimme! Gimme! Gimme! (A Man After Midnight).wav

Pre-gap length 0:00:01.55

Peak level 97.0 %
Track quality 100.0 %
Test CRC 5BB42700
Copy CRC 5BB42700
Copy OK

No errors occurred

End of status report

CD7: ABBA. Super Trouper
pic

01. Super Trouper (4:15)
02. The Winner Takes It All (4:55)
03. On And On And On (3:40)
04. Andante, Andante (4:39)
05. Me And I (4:55)
06. Happy New Year (4:24)
07. Our Last Summer (4:20)
08. The Piper (3:27)
09. Lay All Your Love On Me (4:35)
10. The Way Old Friends Do (2:58)
11. Elaine (3:48)
12. Put On Your White Sombrero (4:33)
ЛОГ
Exact Audio Copy V0.99 prebeta 4 from 23. January 2008

EAC extraction logfile from 11. December 2008, 15:14

Abba / Super Trouper

Used drive : PLEXTOR DVDR PX-810SA Adapter: 7 ID: 0

Read mode : Secure
Utilize accurate stream : Yes
Defeat audio cache : Yes
Make use of C2 pointers : No

Read offset correction : 48
Overread into Lead-In and Lead-Out : No
Fill up missing offset samples with silence : Yes
Delete leading and trailing silent blocks : No
Null samples used in CRC calculations : Yes
Used interface : Installed external ASPI interface
Gap handling : Appended to previous track

Used output format : User Defined Encoder
Selected bitrate : 1024 kBit/s
Quality : High
Add ID3 tag : No
Command line compressor : C:\Program Files\FLAC\flac.exe
Additional command line options : -V -8 -T "artist=%a" -T "title=%t" -T "album=%g" -T "date=%y" -T "tracknumber=%n" -T "genre=%m" %s
Use compression offset : 0

TOC of the extracted CD

Track | Start | Length | Start sector | End sector
---------------------------------------------------------
1 | 0:00.00 | 4:14.46 | 0 | 19095
2 | 4:14.46 | 4:54.54 | 19096 | 41199
3 | 9:09.25 | 3:40.21 | 41200 | 57720
4 | 12:49.46 | 4:38.66 | 57721 | 78636
5 | 17:28.37 | 4:55.07 | 78637 | 100768
6 | 22:23.44 | 4:23.60 | 100769 | 120553
7 | 26:47.29 | 4:19.55 | 120554 | 140033
8 | 31:07.09 | 3:27.05 | 140034 | 155563
9 | 34:34.14 | 4:34.35 | 155564 | 176148
10 | 39:08.49 | 2:57.70 | 176149 | 189493
11 | 42:06.44 | 3:47.62 | 189494 | 206580
12 | 45:54.31 | 4:32.37 | 206581 | 227017

Track 1

Filename Q:\Music\Temp\01 - Super Trouper.wav

Pre-gap length 0:00:02.00

Peak level 98.5 %
Track quality 100.0 %
Test CRC D31900A1
Copy CRC D31900A1
Copy OK

Track 2

Filename Q:\Music\Temp\02 - The Winner Takes It All.wav

Pre-gap length 0:00:01.57

Peak level 99.3 %
Track quality 100.0 %
Test CRC 3918A6F3
Copy CRC 3918A6F3
Copy OK

Track 3

Filename Q:\Music\Temp\03 - On And On And On.wav

Peak level 99.3 %
Track quality 100.0 %
Test CRC 9022D6C1
Copy CRC 9022D6C1
Copy OK

Track 4

Filename Q:\Music\Temp\04 - Andante, Andante.wav

Peak level 95.1 %
Track quality 100.0 %
Test CRC B31DC193
Copy CRC B31DC193
Copy OK

Track 5

Filename Q:\Music\Temp\05 - Me And I.wav

Pre-gap length 0:00:00.50

Peak level 95.1 %
Track quality 100.0 %
Test CRC E2E57897
Copy CRC E2E57897
Copy OK

Track 6

Filename Q:\Music\Temp\06 - Happy New Year.wav

Pre-gap length 0:00:00.53

Peak level 95.1 %
Track quality 100.0 %
Test CRC 75591384
Copy CRC 75591384
Copy OK

Track 7

Filename Q:\Music\Temp\07 - Our Last Summer.wav

Pre-gap length 0:00:00.08

Peak level 95.1 %
Track quality 100.0 %
Test CRC DDD97CDE
Copy CRC DDD97CDE
Copy OK

Track 8

Filename Q:\Music\Temp\08 - The Piper.wav

Peak level 95.1 %
Track quality 100.0 %
Test CRC 875BA3EE
Copy CRC 875BA3EE
Copy OK

Track 9

Filename Q:\Music\Temp\09 - Lay All Your Love On Me.wav

Pre-gap length 0:00:00.42

Peak level 97.0 %
Track quality 100.0 %
Test CRC DB06274B
Copy CRC DB06274B
Copy OK

Track 10

Filename Q:\Music\Temp\10 - The Way Old Friends Do.wav

Peak level 92.8 %
Track quality 100.0 %
Test CRC DC5EFB8A
Copy CRC DC5EFB8A
Copy OK

Track 11

Filename Q:\Music\Temp\11 - Elaine.wav

Pre-gap length 0:00:02.66

Peak level 92.8 %
Track quality 100.0 %
Test CRC 077FD85B
Copy CRC 077FD85B
Copy OK

Track 12

Filename Q:\Music\Temp\12 - Put On Your White Sombrero.wav

Pre-gap length 0:00:03.24

Peak level 99.8 %
Track quality 100.0 %
Test CRC 5E6EE6B4
Copy CRC 5E6EE6B4
Copy OK

No errors occurred

End of status report

CD8: ABBA. The Visitors
pic

01. The Visitors (5:47)
02. Head Over Heels (3:48)
03. When All Is Said And Done (3:20)
04. Soldiers (4:41)
05. I Let The Music Speak (5:24)
06. One Of Us (3:58)
07. Two For The Price Of One (3:39)
08. Slipping Through My Fingers (3:54)
09. Like An Angel Passing Through My Room (3:41)
10. Should I Laugh Or Cry (4:29)
11. The Day Before You Came (5:53)
12. Cassandra (4:57)
13. Under Attack (3:49)
ЛОГ
Exact Audio Copy V0.99 prebeta 4 from 23. January 2008

EAC extraction logfile from 11. December 2008, 16:39

ABBA / The Visitors (Remastered)

Used drive : PLEXTOR DVDR PX-810SA Adapter: 7 ID: 0

Read mode : Secure
Utilize accurate stream : Yes
Defeat audio cache : Yes
Make use of C2 pointers : No

Read offset correction : 48
Overread into Lead-In and Lead-Out : No
Fill up missing offset samples with silence : Yes
Delete leading and trailing silent blocks : No
Null samples used in CRC calculations : Yes
Used interface : Installed external ASPI interface
Gap handling : Appended to previous track

Used output format : User Defined Encoder
Selected bitrate : 1024 kBit/s
Quality : High
Add ID3 tag : No
Command line compressor : C:\Program Files\FLAC\flac.exe
Additional command line options : -V -8 -T "artist=%a" -T "title=%t" -T "album=%g" -T "date=%y" -T "tracknumber=%n" -T "genre=%m" %s
Use compression offset : 0

TOC of the extracted CD

Track | Start | Length | Start sector | End sector
---------------------------------------------------------
1 | 0:00.00 | 5:47.21 | 0 | 26045
2 | 5:47.21 | 3:48.00 | 26046 | 43145
3 | 9:35.21 | 3:19.65 | 43146 | 58135
4 | 12:55.11 | 4:40.55 | 58136 | 79190
5 | 17:35.66 | 5:23.42 | 79191 | 103457
6 | 22:59.33 | 3:57.40 | 103458 | 121272
7 | 26:56.73 | 3:38.68 | 121273 | 137690
8 | 30:35.66 | 3:53.35 | 137691 | 155200
9 | 34:29.26 | 3:40.62 | 155201 | 171762
10 | 38:10.13 | 4:29.28 | 171763 | 191965
11 | 42:39.41 | 5:53.02 | 191966 | 218442
12 | 48:32.43 | 4:56.58 | 218443 | 240700
13 | 53:29.26 | 3:48.52 | 240701 | 257852

Track 1

Filename Q:\Music\Temp\01 - The Visitors.wav

Pre-gap length 0:00:02.00

Peak level 99.7 %
Track quality 100.0 %
Test CRC 648449DB
Copy CRC 648449DB
Copy OK

Track 2

Filename Q:\Music\Temp\02 - Head Over Heels.wav

Pre-gap length 0:00:00.39

Peak level 98.5 %
Track quality 100.0 %
Test CRC 1BB0623C
Copy CRC 1BB0623C
Copy OK

Track 3

Filename Q:\Music\Temp\03 - When All Is Said And Done.wav

Pre-gap length 0:00:00.19

Peak level 97.0 %
Track quality 100.0 %
Test CRC 8889E86C
Copy CRC 8889E86C
Copy OK

Track 4

Filename Q:\Music\Temp\04 - Soldiers.wav

Pre-gap length 0:00:02.04

Peak level 97.0 %
Track quality 100.0 %
Test CRC AEE39BC0
Copy CRC AEE39BC0
Copy OK

Track 5

Filename Q:\Music\Temp\05 - I Let The Music Speak.wav

Pre-gap length 0:00:02.19

Peak level 95.1 %
Track quality 100.0 %
Test CRC 19404A93
Copy CRC 19404A93
Copy OK

Track 6

Filename Q:\Music\Temp\06 - One Of Us.wav

Pre-gap length 0:00:03.21

Peak level 98.5 %
Track quality 100.0 %
Test CRC E06AE04B
Copy CRC E06AE04B
Copy OK

Track 7

Filename Q:\Music\Temp\07 - Two For The Price Of One.wav

Pre-gap length 0:00:01.51

Peak level 97.0 %
Track quality 100.0 %
Test CRC 38409902
Copy CRC 38409902
Copy OK

Track 8

Filename Q:\Music\Temp\08 - Slipping Through My Fingers.wav

Pre-gap length 0:00:02.19

Peak level 99.4 %
Track quality 100.0 %
Test CRC 9A9FA88C
Copy CRC 9A9FA88C
Copy OK

Track 9

Filename Q:\Music\Temp\09 - Like An Angel Passing Through My Room.wav

Peak level 99.9 %
Track quality 99.9 %
Test CRC 7EA69678
Copy CRC 7EA69678
Copy OK

Track 10

Filename Q:\Music\Temp\10 - Should I Laugh Or Cry.wav

Pre-gap length 0:00:06.06

Peak level 99.3 %
Track quality 100.0 %
Test CRC D16FA860
Copy CRC D16FA860
Copy OK

Track 11

Filename Q:\Music\Temp\11 - The Day Before You Came.wav

Pre-gap length 0:00:03.21

Peak level 95.1 %
Track quality 100.0 %
Test CRC CF373543
Copy CRC CF373543
Copy OK

Track 12

Filename Q:\Music\Temp\12 - Cassandra.wav

Pre-gap length 0:00:03.01

Peak level 96.6 %
Track quality 100.0 %
Test CRC 5AE2C6A3
Copy CRC 5AE2C6A3
Copy OK

Track 13

Filename Q:\Music\Temp\13 - Under Attack.wav

Pre-gap length 0:00:03.03

Peak level 98.5 %
Track quality 100.0 %
Test CRC 503D4713
Copy CRC 503D4713
Copy OK

No errors occurred

End of status report

CD9: ABBA. The Albums Bonus Tracks
pic

01. Merry-Go-Round (3:26)
02. Santa Rosa (3:02)
03. Ring Ring (Bara Du Slog En Signal) (Swedish Version) (3:09)
04. Waterloo (Swedish Version) (2:47)
05. Fernando (4:15)
06. Crazy World (3:47)
07. Happy Hawaii (4:26)
08. Summer Night City (3:36)
09. Medley - Pick A Bale Of Cotton - On Top Of Old Smokey - Midnight Special (4:22)
10. Lovelight (3:49)
11. Gimme! Gimme! Gimme! (A Man After Midnight) (4:51)
12. Elaine (3:46)
13. Should I Laugh Or Cry (4:28)
14. You Owe Me One (3:29)
15. Cassandra (4:55)
16. Under Attack (3:50)
17. The Day Before You Came (5:50)
ЛОГ
Exact Audio Copy V0.99 prebeta 4 from 23. January 2008

EAC extraction logfile from 11. December 2008, 17:51

ABBA / The Albums "Bonus Tracks"

Used drive : PLEXTOR DVDR PX-810SA Adapter: 7 ID: 0

Read mode : Secure
Utilize accurate stream : Yes
Defeat audio cache : Yes
Make use of C2 pointers : No

Read offset correction : 48
Overread into Lead-In and Lead-Out : No
Fill up missing offset samples with silence : Yes
Delete leading and trailing silent blocks : No
Null samples used in CRC calculations : Yes
Used interface : Installed external ASPI interface
Gap handling : Appended to previous track

Used output format : User Defined Encoder
Selected bitrate : 1024 kBit/s
Quality : High
Add ID3 tag : No
Command line compressor : C:\Program Files\FLAC\flac.exe
Additional command line options : -V -8 -T "artist=%a" -T "title=%t" -T "album=%g" -T "date=%y" -T "tracknumber=%n" -T "genre=%m" %s
Use compression offset : 0

TOC of the extracted CD

Track | Start | Length | Start sector | End sector
---------------------------------------------------------
1 | 0:00.00 | 3:26.27 | 0 | 15476
2 | 3:26.27 | 3:02.03 | 15477 | 29129
3 | 6:28.30 | 3:09.21 | 29130 | 43325
4 | 9:37.51 | 2:46.57 | 43326 | 55832
5 | 12:24.33 | 4:15.24 | 55833 | 74981
6 | 16:39.57 | 3:46.74 | 74982 | 92005
7 | 20:26.56 | 4:25.44 | 92006 | 111924
8 | 24:52.25 | 3:35.64 | 111925 | 128113
9 | 28:28.14 | 4:22.21 | 128114 | 147784
10 | 32:50.35 | 3:48.48 | 147785 | 164932
11 | 36:39.08 | 4:50.61 | 164933 | 186743
12 | 41:29.69 | 3:45.54 | 186744 | 203672
13 | 45:15.48 | 4:27.46 | 203673 | 223743
14 | 49:43.19 | 3:28.53 | 223744 | 239396
15 | 53:11.72 | 4:54.47 | 239397 | 261493
16 | 58:06.44 | 3:49.61 | 261494 | 278729
17 | 61:56.30 | 5:50.11 | 278730 | 304990

Track 1

Filename Q:\Music\Temp\01 - Merry-Go-Round.wav

Pre-gap length 0:00:02.00

Peak level 100.0 %
Track quality 100.0 %
Test CRC F79F739C
Copy CRC F79F739C
Copy OK

Track 2

Filename Q:\Music\Temp\02 - Santa Rosa.wav

Pre-gap length 0:00:02.07

Peak level 98.9 %
Track quality 100.0 %
Test CRC 1A5A8CB8
Copy CRC 1A5A8CB8
Copy OK

Track 3

Filename Q:\Music\Temp\03 - Ring Ring (Bara Du Slog En Signal) (Swedish Version).wav

Pre-gap length 0:00:02.17

Peak level 98.9 %
Track quality 99.9 %
Test CRC 38D5921C
Copy CRC 38D5921C
Copy OK

Track 4

Filename Q:\Music\Temp\04 - Waterloo (Swedish Version).wav

Pre-gap length 0:00:02.43

Peak level 98.9 %
Track quality 100.0 %
Test CRC 0AC6168B
Copy CRC 0AC6168B
Copy OK

Track 5

Filename Q:\Music\Temp\05 - Fernando.wav

Pre-gap length 0:00:02.64

Peak level 97.8 %
Track quality 100.0 %
Test CRC BE5DD8C1
Copy CRC BE5DD8C1
Copy OK

Track 6

Filename Q:\Music\Temp\06 - Crazy World.wav

Pre-gap length 0:00:02.44

Peak level 98.9 %
Track quality 100.0 %
Test CRC 52ED033C
Copy CRC 52ED033C
Copy OK

Track 7

Filename Q:\Music\Temp\07 - Happy Hawaii.wav

Pre-gap length 0:00:01.40

Peak level 98.9 %
Track quality 100.0 %
Test CRC A45CD5EA
Copy CRC A45CD5EA
Copy OK

Track 8

Filename Q:\Music\Temp\08 - Summer Night City.wav

Pre-gap length 0:00:02.06

Peak level 97.8 %
Track quality 99.9 %
Test CRC 428DB062
Copy CRC 428DB062
Copy OK

Track 9

Filename Q:\Music\Temp\09 - Medley - Pick A Bale Of Cotton - On Top Of Old Smokey - Midnight Special.wav

Pre-gap length 0:00:02.57

Peak level 98.9 %
Track quality 100.0 %
Test CRC 18E414CA
Copy CRC 18E414CA
Copy OK

Track 10

Filename Q:\Music\Temp\10 - Lovelight.wav

Pre-gap length 0:00:02.66

Peak level 98.9 %
Track quality 100.0 %
Test CRC AD84D4A9
Copy CRC AD84D4A9
Copy OK

Track 11

Filename Q:\Music\Temp\11 - Gimme! Gimme! Gimme! (A Man After Midnight).wav

Pre-gap length 0:00:02.43

Peak level 96.6 %
Track quality 100.0 %
Test CRC 5A21588E
Copy CRC 5A21588E
Copy OK

Track 12

Filename Q:\Music\Temp\12 - Elaine.wav

Pre-gap length 0:00:01.51

Peak level 98.9 %
Track quality 100.0 %
Test CRC D36696E8
Copy CRC D36696E8
Copy OK

Track 13

Filename Q:\Music\Temp\13 - Should I Laugh Or Cry.wav

Pre-gap length 0:00:01.63

Peak level 98.9 %
Track quality 99.9 %
Test CRC 70350AF9
Copy CRC 70350AF9
Copy OK

Track 14

Filename Q:\Music\Temp\14 - You Owe Me One.wav

Pre-gap length 0:00:02.05

Peak level 98.9 %
Track quality 100.0 %
Test CRC 9D1780A0
Copy CRC 9D1780A0
Copy OK

Track 15

Filename Q:\Music\Temp\15 - Cassandra.wav

Pre-gap length 0:00:02.47

Peak level 100.0 %
Track quality 100.0 %
Test CRC 5AC6A167
Copy CRC 5AC6A167
Copy OK

Track 16

Filename Q:\Music\Temp\16 - Under Attack.wav

Pre-gap length 0:00:02.21

Peak level 98.9 %
Track quality 99.9 %
Test CRC 7BE84A7B
Copy CRC 7BE84A7B
Copy OK

Track 17

Filename Q:\Music\Temp\17 - The Day Before You Came.wav

Pre-gap length 0:00:02.05

Peak level 98.9 %
Track quality 100.0 %
Test CRC C0D2FD23
Copy CRC C0D2FD23
Copy OK

No errors occurred

End of status report

pic
Оформлено by LINK212

ABBA - The Albums[Box-Set] - 2008[rustorka.com].torrent
Трекер: Зарегистрирован

magnet ссылка

 


Скачать .torrent

43 KB

Статус: проверено (by СоВЕрейН 777 в 24-Окт-09 20:50)
Зарегистрирован: 24-Окт-09 20:47
Скачан: 396 раз
Размер: 3.02 GB | 
Поблагодарили:
Скачать (Pop) ABBA. The Albums (9 CDs) - 2008, FLAC (tracks), lossless торрент
 


Похожие раздачи

denonss

post 25-Окт-09 03:12 (спустя 6 часов)

Да POP группа всех времён и народов, я себе давно похожий сборничек купил в магазине !!! :band: Им предлагали за несколько выступлений в полном составе 40 миллионов долларов и они отказались. ((( P.S теперь уже говорят, что им миллиард баксов предлагали и всё равно ни в какую не соглашаются)))

nesnew

post 26-Окт-09 00:04 (спустя 20 часов)

Спасибо раздающему, жену порадовал, да и мне потом приятно было.... ;)

Valder2311

post 04-Фев-10 00:36 (спустя 3 месяца 9 дней)

ребят встаньте на раздачу...плииз))

hour_of_the_wolf

post 26-Фев-10 16:31 (спустя 22 дня)

Что за формат у меня Windows 7 не хочит проигровать.

VerM1|1oN

post 26-Фев-10 20:32 (спустя 4 часа)

hour_of_the_wolf
в шапке чётко написано : FLAC

Текущее время: 26-Ноя 03:22

Часовой пояс: GMT + 3



Вы не можете начинать темы
Вы не можете отвечать на сообщения
Вы не можете редактировать свои сообщения
Вы не можете удалять свои сообщения
Вы не можете голосовать в опросах
Вы не можете прикреплять файлы к сообщениям
Вы не можете скачивать файлы