Loading...
Error
 

Скачать торрент Пираты 2: Месть Стагнетти / Pirates 2 - Stagnetti's Revenge (Joone, Digital Playground) [2008 г., Feature, Straight, Big Budget, Couples, BDRemux 1080p] [rus] R.G. RustorRipper's

 
Автор Сообщение

[email protected] Devil

post 15-Янв-14 15:02

pic
Пираты 2: Месть Стагнетти / Pirates 2 - Stagnetti's Revenge

Год выпуска: 2008
Страна: pic
Жанр: Feature, Straight, Big Budget, Couples
Продолжительность: 02:17:56
Перевод: Одноголосый закадровый
Субтитры: нет
В ролях: Jesse Jane, Gabriella Fox, Katsuni, Riley Steele, Shay Jordan, Stoya, Abbey Brooks, BellaDonna, Brianna Love, Brea Lynn, Jenna Haze, Rhylee Richards, Sasha Grey, Shawna Lenee, Shyla Stylez, Veronica Rayne, Ben English, Evan Stone, Charles Dera, James Deen, Mick Blue, Manuel Ferrara, Marco, Banderas, Tommy Gunn, Steven St. Croix
Режиссёр: Joone
Описание: Суперзвезда, Jesse Jane возвращается, головорез Jules - пиратский охотник и соблазнитель, Katsuni, Stoya, Gabriella Fox, и Riley Steele, рядом с BellaDonna, Sasha Grey, и Jenna Haze. Evan Stone, Tommy Gunn, и Stephen St. Croix повторяют свои инновационные роли. Направленный интернационально награжденный и чрезвычайно ожидаемый Пираты II являются волнующим, эротическим продолжением к блокбастера 2005 года. Объединение интенсивных действий с дико страстным полом, десять раз больше бюджета, и более чем 600 специальных эффектов, Пираты II: Месть Стагнетти - самый дорогой и всесторонний взрослый фильм в истории! Joone был столь озабочен реалистичностью, что построил полномасштабное судно для съёмок фильма. Свершилось то, чего ждали тысячи поклонников качественного порно во всём мире целых 3 года - вышел сиквел мега хита 2005 года - "PIRATES 2" Перед создателями стояла трудная задача - превзойти успех первой части порно-эпопеи и не разочаровать ожидания огромной армии фанатов порно. И они справились с этой задачей на 5 с плюсом. Первое, что в этом фильме должно нас интересовать - это подбор порно звезд. Тут создатели нас просто балуют. Студия Digital Playground кроме своих котракт-порнозвезд мировой величины, таких как Jesse Jane, Gabriella Fox, Shay Jordan, Stoya, пригласила светил (! ), не побоюсь этого пафосного слова, мирового порно. Вы только посмотрите: Королева Анального Секса трам-там-там - Belladonna Другая любительница анального гонзо - Brianna Love Еще одна тёлка, которая всколыхнула гонзо мир - Jenna Haze Одна из самых классных и популярных молодых порно актрис, одна из лучших молоденьких членососалок с невинными глазками - Sasha Grey Взрывоопасная блондинка с очень-очень классными сиськами - Shyla Stylez И конечно всеми любимые трахальщики с мировыми именами. Второе: это спецэффекты. После успеха первого фильма создатели умножили бюджет этого порно фильма во много раз. Это, конечно, не "Трансформеры", но для порно индустрии картинка и качество просто впечатляет и задает новую тенденцию для качественного порно фильма. Третье: Это сюжет. 2, 5 часа эфирного времени, между секс-сценами и спецэффектами заполнены закрученным сюжетом и разбавлены долей юмора. Итак, быстрее смотрим. Этот фильм будущая история. Наслаждайтесь!
Качество: BDRemux 1080p
Формат: MKV
Видео кодек: AVC
Аудио кодек: AC3
Видео: MPEG4 Video (H264) 1920x1080 23.976fps [Video]
Аудио: Dolby AC3 48000Hz stereo 192kbps [Audio]
REmux by [email protected] Devilpic
pic
MediaInfo
General
Unique ID : 193545472213967899219489561579975641518 (0x919B8086981EF6DCB323FABEF38C89AE)
Complete name : H:\Downloads\BDRemux's\Pirates II - Stagnetti's Revenge_2008_Rus_BDRemux by [email protected]\Pirates II - Stagnetti's Revenge_2008_Rus_BDRemux by [email protected]
Format : Matroska
Format version : Version 2
File size : 21.4 GiB
Duration : 2h 17mn
Overall bit rate mode : Variable
Overall bit rate : 22.2 Mbps
Movie name : Pirates II - Stagnetti's Revenge.Title2
Encoded date : UTC 2014-01-13 17:24:40
Writing application : DVDFab
Writing library : libebml v0.7.8 + libmatroska v0.8.1

Video
ID : 1
Format : AVC
Format/Info : Advanced Video Codec
Format profile : [email protected]
Format settings, CABAC : Yes
Format settings, ReFrames : 4 frames
Format settings, GOP : M=3, N=24
Codec ID : V_MPEG4/ISO/AVC
Duration : 2h 17mn
Bit rate mode : Variable
Bit rate : 21.6 Mbps
Maximum bit rate : 30.0 Mbps
Width : 1 920 pixels
Height : 1 080 pixels
Display aspect ratio : 16:9
Frame rate mode : Constant
Frame rate : 23.976 fps
Standard : NTSC
Color space : YUV
Chroma subsampling : 4:2:0
Bit depth : 8 bits
Scan type : Progressive
Bits/(Pixel*Frame) : 0.434
Stream size : 20.8 GiB (97%)
Default : Yes
Forced : No
Color primaries : BT.709
Transfer characteristics : BT.709
Matrix coefficients : BT.709

Audio
ID : 2
Format : AC-3
Format/Info : Audio Coding 3
Mode extension : CM (complete main)
Format settings, Endianness : Big
Codec ID : A_AC3
Duration : 2h 17mn
Bit rate mode : Constant
Bit rate : 192 Kbps
Channel count : 2 channels
Channel positions : Front: L R
Sampling rate : 48.0 KHz
Bit depth : 16 bits
Compression mode : Lossy
Stream size : 189 MiB (1%)
Language : Russian
Default : Yes
Forced : No
Скринлист
pic
pic
Pirates II - Stagnetti's Revenge_2008_Rus_BDRemux by [email protected]
 ЗОЛОТАЯ РАЗДАЧА! СКАЧАННОЕ НЕ ЗАСЧИТЫВАЕТСЯ! 
Вечный
Трекер: Зарегистрирован

magnet ссылка

 


Скачать .torrent

107 KB

Статус: проверено (by Кэрри Гуд в 15-Янв-14 15:06)
Зарегистрирован: 15-Янв-14 15:02
Скачан: 358 раз
Размер: 21.39 GB | 
Поблагодарили:
Скачать Пираты 2: Месть Стагнетти / Pirates 2 - Stagnetti's Revenge (Joone, Digital Playground) [2008 г., Feature, Straight, Big Budget, Couples, BDRemux 1080p] [rus] R.G. RustorRipper's торрент
 


Похожие раздачи

EASТ

post 15-Янв-14 16:20 (спустя 1 час 17 минут)

[email protected] Devil, ай молодца! ;)
Качественный рип, спасибо!

[email protected] Devil

post 15-Янв-14 18:57 (спустя 2 часа 36 минут)

STEVS
:oops: Стараюсь)

Русторик

post 15-Янв-14 21:20 (спустя 2 часа 23 минуты)

Нет слов, только благодарности)))
Супер!!!

[email protected] Devil

post 15-Янв-14 21:59 (спустя 39 минут)

Русторик
На здоровье! :)

Tarkin

post 15-Янв-14 22:39 (спустя 39 минут)

[email protected] Devil
С дебютом в РГ Русторрипперс :good:

[email protected] Devil

post 15-Янв-14 23:14 (спустя 34 минуты)

Ц Tarkin писал(а):

С дебютом в РГ Русторрипперс
Спасибо) Но это не совсем дебют :mrgreen:

post 30-Янв-14 09:31 (спустя 14 дней)

Топик был перенесен из форума Новые поступления в форум Полнометражные PRON-фильмы (с русским переводом)

Причина переноса: Правила Pron
PlayBoy777
 

Westal

post 26-Ноя-15 22:25 (спустя 1 год 10 месяцев)

Всем привет! Будьте так добры, встаньте в эти выходные на раздачу, буду скачивать.

post 10-Янв-18 14:28 (спустя 2 года 1 месяц)

Топик был перенесен из форума PRON-фильмы (с русским переводом) в форум Архив Pron


Snowden
 

Текущее время: 10-Дек 16:57

Часовой пояс: GMT + 3



Вы не можете начинать темы
Вы не можете отвечать на сообщения
Вы не можете редактировать свои сообщения
Вы не можете удалять свои сообщения
Вы не можете голосовать в опросах
Вы не можете прикреплять файлы к сообщениям
Вы не можете скачивать файлы