Loading...
Error
 
Мини-чат
 

Скачать торрент (Pop) A-ha - Дискография (13 Albums) (1985 - 2009) APE (image+.cue), lossless



 
Автор Сообщение

Архон

post 26-Окт-09 11:07

A-ha - Дискография

pic
Год выпуска: 1985-2009
Жанр: Pop
Продолжительность: указана отдельно к каждому CD
Тип издания: Albums
Аудиокодек: APE
Битрейт аудио: lossless
1985 - Hunting High And Low
pic

Продолжительность:00:37:17
01 Take On Me (3:46)
02 Train Of Thought (4:11)
03 Hunting High And Low (3:43)
04 The Blue Sky (2:22)
05 Living A Boy's Adventure Tale (5:00)
06 The Sun Always Shines On T.V. (5:06)
07 And You Tell Me (1:51)
08 Love Is Reason (3:04)
09 I Dream Myself Alive (3:06)
10 Here I Stand And Face The Rain (4:30)
ЛОГ
Exact Audio Copy V0.99 prebeta 3 from 28. July 2007

Отчёт EAC об извлечении, выполненном 15. сентября 2009, 20:48

a-ha / Hunting High And Low

Дисковод: PIONEER DVD-RW DVR-112D Adapter: 1 ID: 0

Режим чтения : Достоверность
Использование точного потока : Да
Отключение кэша аудио : Да
Использование указателей C2 : Нет

Коррекция смещения при чтении : 48
Способность читать области Lead-in и Lead-out : Нет
Заполнение пропущенных сэмплов тишиной : Да
Удаление блоков с тишиной в начале и конце : Нет
При вычислениях CRC использовались нулевые сэмплы : Да
Интерфейс : Встроенный Win32-интерфейс для Win NT/2000

Выходной формат : Внутренние WAV-операции
Формат сэмплов : 44.100 Гц; 16 бит; стерео

TOC извлечённого CD

Трек | Старт | Длительность | Начальный сектор | Конечный сектор
---------------------------------------------------------------------
1 | 0:00.00 | 3:49.35 | 0 | 17209
2 | 3:49.35 | 4:14.32 | 17210 | 36291
3 | 8:03.67 | 3:45.03 | 36292 | 53169
4 | 11:48.70 | 2:36.55 | 53170 | 64924
5 | 14:25.50 | 5:02.65 | 64925 | 87639
6 | 19:28.40 | 5:08.57 | 87640 | 110796
7 | 24:37.22 | 1:52.20 | 110797 | 119216
8 | 26:29.42 | 3:07.18 | 119217 | 133259
9 | 29:36.60 | 3:10.25 | 133260 | 147534
10 | 32:47.10 | 4:30.42 | 147535 | 167826

Характеристики диапазона извлечения и сообщения об ошибках

Выбранный диапазон

Имя файла I:\0002\A-ha - 1985 - Hunting High And Low\CDImage.wav

Пиковый уровень 84.7 %
Качество диапазона 100.0 %
CRC копии 4347EB00
Копирование... OK

Ошибок не произошло

AccurateRip: сводка
Трек 1 точное извлечение (доверие 15) [9D2F3773]
Трек 2 точное извлечение (доверие 15) [261A638E]
Трек 3 точное извлечение (доверие 15) [8288CA2D]
Трек 4 точное извлечение (доверие 15) [E41C7D0A]
Трек 5 точное извлечение (доверие 15) [88D3B1F1]
Трек 6 точное извлечение (доверие 14) [08EA4EF1]
Трек 7 точное извлечение (доверие 14) [AB6AB7E6]
Трек 8 точное извлечение (доверие 15) [ACEC752B]
Трек 9 точное извлечение (доверие 15) [0D3D67F2]
Трек 10 точное извлечение (доверие 14) [7DD26D32]
Все треки извлечены точно

Конец отчёта

1986 - Scoundrel Days
pic

Продолжительность: 00:39:09
01 Scoundrel Days (4:02)
02 The Swing Of Things (4:14)
03 I've Been Losing You (4:24)
04 October (3:55)
05 Manhattan Skyline (4:52)
06 Cry Wolf (4:06)
07 We're Looking For The Whales (3:43)
08 The Weight Of The Wind (3:59)
09 Maybe Maybe (2:36)
10 Soft Rains Of April (3:12)
ЛОГ
Exact Audio Copy V0.99 prebeta 3 from 28. July 2007

Отчёт EAC об извлечении, выполненном 15. сентября 2009, 20:39

A-Ha / Scoundrel Days

Дисковод: PIONEER DVD-RW DVR-112D Adapter: 1 ID: 0

Режим чтения : Достоверность
Использование точного потока : Да
Отключение кэша аудио : Да
Использование указателей C2 : Нет

Коррекция смещения при чтении : 48
Способность читать области Lead-in и Lead-out : Нет
Заполнение пропущенных сэмплов тишиной : Да
Удаление блоков с тишиной в начале и конце : Нет
При вычислениях CRC использовались нулевые сэмплы : Да
Интерфейс : Встроенный Win32-интерфейс для Win NT/2000

Выходной формат : Внутренние WAV-операции
Формат сэмплов : 44.100 Гц; 16 бит; стерео

TOC извлечённого CD

Трек | Старт | Длительность | Начальный сектор | Конечный сектор
---------------------------------------------------------------------
1 | 0:00.00 | 4:02.37 | 0 | 18186
2 | 4:02.37 | 4:14.65 | 18187 | 37301
3 | 8:17.27 | 4:24.48 | 37302 | 57149
4 | 12:42.00 | 3:55.57 | 57150 | 74831
5 | 16:37.57 | 4:52.60 | 74832 | 96791
6 | 21:30.42 | 4:06.48 | 96792 | 115289
7 | 25:37.15 | 3:43.02 | 115290 | 132016
8 | 29:20.17 | 3:59.73 | 132017 | 150014
9 | 33:20.15 | 2:36.32 | 150015 | 161746
10 | 35:56.47 | 3:12.48 | 161747 | 176194

Характеристики диапазона извлечения и сообщения об ошибках

Выбранный диапазон

Имя файла I:\0002\A-ha - 1986 - Scoundrel Days\CDImage.wav

Пиковый уровень 83.8 %
Качество диапазона 100.0 %
CRC копии 15DAED50
Копирование... OK

Ошибок не произошло

AccurateRip: сводка
Трек 1 точное извлечение (доверие 32) [4CD573A7]
Трек 2 точное извлечение (доверие 32) [D9D05355]
Трек 3 точное извлечение (доверие 32) [D7C4300E]
Трек 4 точное извлечение (доверие 30) [29BAA8B7]
Трек 5 точное извлечение (доверие 29) [629C9BE1]
Трек 6 точное извлечение (доверие 29) [901BAB42]
Трек 7 точное извлечение (доверие 30) [EEFCFABE]
Трек 8 точное извлечение (доверие 30) [2649A06E]
Трек 9 точное извлечение (доверие 29) [FF406300]
Трек 10 точное извлечение (доверие 30) [01502BCE]
Все треки извлечены точно

Конец отчёта

1988 - Stay On These Roads
pic

Продолжительность:00:43:40
01 Stay On These Roads (4:45)
02 The Blood That Moves The Body (4:05)
03 Touchy! (4:32)
04 This Alone Is Love (5:13)
05 Hurry Home (4:34)
06 The Living Daylights (4:46)
07 There's Never A Forever Thing (2:50)
08 Out Of Blue Comes Green (6:40)
09 You Are The One (3:51)
10 You'll End Up Crying (2:07)
ЛОГ
Exact Audio Copy V0.99 prebeta 3 from 28. July 2007

Отчёт EAC об извлечении, выполненном 15. сентября 2009, 20:32

A-Ha / Stay On These Roads

Дисковод: PIONEER DVD-RW DVR-112D Adapter: 1 ID: 0

Режим чтения : Достоверность
Использование точного потока : Да
Отключение кэша аудио : Да
Использование указателей C2 : Нет

Коррекция смещения при чтении : 48
Способность читать области Lead-in и Lead-out : Нет
Заполнение пропущенных сэмплов тишиной : Да
Удаление блоков с тишиной в начале и конце : Нет
При вычислениях CRC использовались нулевые сэмплы : Да
Интерфейс : Встроенный Win32-интерфейс для Win NT/2000

Выходной формат : Внутренние WAV-операции
Формат сэмплов : 44.100 Гц; 16 бит; стерео

TOC извлечённого CD

Трек | Старт | Длительность | Начальный сектор | Конечный сектор
---------------------------------------------------------------------
1 | 0:00.00 | 4:46.40 | 0 | 21489
2 | 4:46.40 | 4:06.68 | 21490 | 40007
3 | 8:53.33 | 4:33.70 | 40008 | 60552
4 | 13:27.28 | 5:15.67 | 60553 | 84244
5 | 18:43.20 | 4:37.33 | 84245 | 105052
6 | 23:20.53 | 4:47.40 | 105053 | 126617
7 | 28:08.18 | 2:51.45 | 126618 | 139487
8 | 30:59.63 | 6:42.20 | 139488 | 169657
9 | 37:42.08 | 3:51.45 | 169658 | 187027
10 | 41:33.53 | 2:07.10 | 187028 | 196562

Характеристики диапазона извлечения и сообщения об ошибках

Выбранный диапазон

Имя файла I:\0002\A-ha - 1988 - Stay On These Roads\CDImage.wav

Пиковый уровень 100.0 %
Качество диапазона 100.0 %
CRC копии FD409757
Копирование... OK

Ошибок не произошло

AccurateRip: сводка
Трек 1 точное извлечение (доверие 28) [E1E34F04]
Трек 2 точное извлечение (доверие 29) [930F61B2]
Трек 3 точное извлечение (доверие 30) [C609C5DA]
Трек 4 точное извлечение (доверие 27) [F78307A3]
Трек 5 точное извлечение (доверие 28) [9D1A8A15]
Трек 6 точное извлечение (доверие 30) [0FA69356]
Трек 7 точное извлечение (доверие 29) [D7112204]
Трек 8 точное извлечение (доверие 28) [F1D5701A]
Трек 9 точное извлечение (доверие 28) [7ED96113]
Трек 10 точное извлечение (доверие 27) [26E27D03]
Все треки извлечены точно

Конец отчёта

1990 - East Of The Sun, West Of The Moon
pic

Продолжительность:00:45:48
01 Crying In The Rain (4:24)
02 Early Morning (2:58)
03 I Call Your Name (4:53)
04 Slender Frame (3:42)
05 East Of The Sun (4:47)
06 Sycamore Leaves (5:21)
07 Waiting For Her (4:49)
08 Cold River (4:41)
09 The Way We Talk (1:31)
10 Rolling Thunder (5:43)
11 (Seemingly) Nonstop July (2:55)
ЛОГ
Exact Audio Copy V0.99 prebeta 3 from 28. July 2007

Отчёт EAC об извлечении, выполненном 15. сентября 2009, 21:27

A-Ha / East Of The Sun, West Of The Moon

Дисковод: PIONEER DVD-RW DVR-112D Adapter: 1 ID: 0

Режим чтения : Достоверность
Использование точного потока : Да
Отключение кэша аудио : Да
Использование указателей C2 : Нет

Коррекция смещения при чтении : 48
Способность читать области Lead-in и Lead-out : Нет
Заполнение пропущенных сэмплов тишиной : Да
Удаление блоков с тишиной в начале и конце : Нет
При вычислениях CRC использовались нулевые сэмплы : Да
Интерфейс : Встроенный Win32-интерфейс для Win NT/2000

Выходной формат : Внутренние WAV-операции
Формат сэмплов : 44.100 Гц; 16 бит; стерео

TOC извлечённого CD

Трек | Старт | Длительность | Начальный сектор | Конечный сектор
---------------------------------------------------------------------
1 | 0:00.00 | 4:25.10 | 0 | 19884
2 | 4:25.10 | 2:58.42 | 19885 | 33276
3 | 7:23.52 | 4:53.70 | 33277 | 55321
4 | 12:17.47 | 3:42.00 | 55322 | 71971
5 | 15:59.47 | 4:47.38 | 71972 | 93534
6 | 20:47.10 | 5:21.50 | 93535 | 117659
7 | 26:08.60 | 4:49.07 | 117660 | 139341
8 | 30:57.67 | 4:41.30 | 139342 | 160446
9 | 35:39.22 | 1:31.08 | 160447 | 167279
10 | 37:10.30 | 5:43.25 | 167280 | 193029
11 | 42:53.55 | 2:55.02 | 193030 | 206156

Характеристики диапазона извлечения и сообщения об ошибках

Выбранный диапазон

Имя файла I:\0002\A-ha - 1990 - East Of The Sun, West Of The Moon\CDImage.wav

Пиковый уровень 100.0 %
Качество диапазона 99.9 %
CRC копии 2CDDFACE
Копирование... OK

Ошибок не произошло

AccurateRip: сводка
Трек 1 точное извлечение (доверие 18) [A5BD6FAE]
Трек 2 точное извлечение (доверие 19) [EE1987AB]
Трек 3 точное извлечение (доверие 19) [DC7F511B]
Трек 4 точное извлечение (доверие 19) [0F3C83B5]
Трек 5 точное извлечение (доверие 19) [0BB7DE35]
Трек 6 точное извлечение (доверие 19) [85E6BFB8]
Трек 7 точное извлечение (доверие 19) [3C6BACDC]
Трек 8 точное извлечение (доверие 20) [90CD8073]
Трек 9 точное извлечение (доверие 19) [5CC3A8C5]
Трек 10 точное извлечение (доверие 19) [C869B60E]
Трек 11 точное извлечение (доверие 17) [35F6A811]
Все треки извлечены точно

Конец отчёта

1991 - Headlines And Deadlines - The Hits Of A-ha
pic

Продолжительность:01:08:32
01. A-HA - Take On Me (03:48)
02. A-HA - Cry Wolf (04:08)
03. A-HA - Touchy (04:37)
04. A-HA - You Are The One (Remix) (03:47)
05. A-HA - Manhattan Skyline (04:50)
06. A-HA - The Blood That Moves The Body (04:06)
07. A-HA - Early Morning (02:59)
08. A-HA - Hunting High And Low (Remix) (03:47)
09. A-HA - Move To Memphis (04:17)
10. A-HA - I've Been Losing You (04:26)
11. A-HA - The Living Daylights (04:16)
12. A-HA - Crying In The Rain (04:24)
13. A-HA - I Call Your Name (04:53)
14. A-HA - Stay On These Roads (04:46)
15. A-HA - Train Of Thought (Remix) (04:16)
16. A-HA - The Sun Always Shines On TV (05:05)
ЛОГ
Exact Audio Copy V0.99 prebeta 3 from 28. July 2007
Отчёт EAC об извлечении, выполненном 16. февраля 2010, 18:31
A-HA / Headlines And Deadlines - The Hits Of A-HA
Дисковод: PIONEER DVD-RW DVR-112D Adapter: 1 ID: 0
Режим чтения : Достоверность
Использование точного потока : Да
Отключение кэша аудио : Да
Использование указателей C2 : Нет
Коррекция смещения при чтении : 48
Способность читать области Lead-in и Lead-out : Нет
Заполнение пропущенных сэмплов тишиной : Да
Удаление блоков с тишиной в начале и конце : Нет
При вычислениях CRC использовались нулевые сэмплы : Да
Интерфейс : Встроенный Win32-интерфейс для Win NT/2000
Выходной формат : Внутренние WAV-операции
Формат сэмплов : 44.100 Гц; 16 бит; стерео
TOC извлечённого CD
Трек | Старт | Длительность | Начальный сектор | Конечный сектор
---------------------------------------------------------------------
1 | 0:00.00 | 3:48.23 | 0 | 17122
2 | 3:48.23 | 4:08.42 | 17123 | 35764
3 | 7:56.65 | 4:37.18 | 35765 | 56557
4 | 12:34.08 | 3:47.50 | 56558 | 73632
5 | 16:21.58 | 4:50.25 | 73633 | 95407
6 | 21:12.08 | 4:06.22 | 95408 | 113879
7 | 25:18.30 | 2:59.18 | 113880 | 127322
8 | 28:17.48 | 3:47.72 | 127323 | 144419
9 | 32:05.45 | 4:17.60 | 144420 | 163754
10 | 36:23.30 | 4:26.40 | 163755 | 183744
11 | 40:49.70 | 4:16.25 | 183745 | 202969
12 | 45:06.20 | 4:24.43 | 202970 | 222812
13 | 49:30.63 | 4:53.10 | 222813 | 244797
14 | 54:23.73 | 4:46.47 | 244798 | 266294
15 | 59:10.45 | 4:16.40 | 266295 | 285534
16 | 63:27.10 | 5:05.48 | 285535 | 308457
Характеристики диапазона извлечения и сообщения об ошибках
Выбранный диапазон
Имя файла I:\0002\A-ha - Discography\A-ha - 1991 - Headlines And Deadlines - The Hits Of A-ha\CDImage.wav
Пиковый уровень 100.0 %
Качество диапазона 99.9 %
CRC теста A01D0678
CRC копии A01D0678
Копирование... OK
Ошибок не произошло
AccurateRip: сводка
Трек 1 точное извлечение (доверие 115) [3904F437]
Трек 2 точное извлечение (доверие 120) [4B432107]
Трек 3 точное извлечение (доверие 118) [5FD325E1]
Трек 4 точное извлечение (доверие 117) [E9632009]
Трек 5 точное извлечение (доверие 115) [C690739A]
Трек 6 точное извлечение (доверие 117) [8EE035B9]
Трек 7 точное извлечение (доверие 119) [ADB89CBE]
Трек 8 точное извлечение (доверие 118) [C7BEBA4C]
Трек 9 точное извлечение (доверие 118) [D5CDA91C]
Трек 10 точное извлечение (доверие 118) [2A022014]
Трек 11 точное извлечение (доверие 113) [BF522FE0]
Трек 12 точное извлечение (доверие 118) [A9A270A5]
Трек 13 точное извлечение (доверие 115) [B32995AA]
Трек 14 точное извлечение (доверие 115) [491DCF16]
Трек 15 точное извлечение (доверие 110) [4E6CCB21]
Трек 16 точное извлечение (доверие 114) [1CD00CAB]
Все треки извлечены точно
Конец отчёта

1993 - Memorial Beach
pic

Продолжительность:00:49:35
01 Dark Is The Night For All (3:46)
02 Move To Memphis (4:22)
03 Cold As Stone (8:19)
04 Angel In The Snow (4:13)
05 Locust (5:08)
06 Lie Down In Darkness (4:31)
07 How Sweet It Was (6:02)
08 Lamb To The Slaughter (4:20)
09 Between Your Mama And Yourself (4:15)
10 Memorial Beach (4:36)
ЛОГ
Exact Audio Copy V0.99 prebeta 3 from 28. July 2007

Отчёт EAC об извлечении, выполненном 15. сентября 2009, 20:15

A-ha / Memorial Beach

Дисковод: PIONEER DVD-RW DVR-112D Adapter: 1 ID: 0

Режим чтения : Достоверность
Использование точного потока : Да
Отключение кэша аудио : Да
Использование указателей C2 : Нет

Коррекция смещения при чтении : 48
Способность читать области Lead-in и Lead-out : Нет
Заполнение пропущенных сэмплов тишиной : Да
Удаление блоков с тишиной в начале и конце : Нет
При вычислениях CRC использовались нулевые сэмплы : Да
Интерфейс : Встроенный Win32-интерфейс для Win NT/2000

Выходной формат : Внутренние WAV-операции
Формат сэмплов : 44.100 Гц; 16 бит; стерео

TOC извлечённого CD

Трек | Старт | Длительность | Начальный сектор | Конечный сектор
---------------------------------------------------------------------
1 | 0:00.00 | 3:46.37 | 0 | 16986
2 | 3:46.37 | 4:22.18 | 16987 | 36654
3 | 8:08.55 | 8:19.02 | 36655 | 74081
4 | 16:27.57 | 4:13.20 | 74082 | 93076
5 | 20:41.02 | 5:08.48 | 93077 | 116224
6 | 25:49.50 | 4:31.50 | 116225 | 136599
7 | 30:21.25 | 6:02.00 | 136600 | 163749
8 | 36:23.25 | 4:20.30 | 163750 | 183279
9 | 40:43.55 | 4:15.50 | 183280 | 202454
10 | 44:59.30 | 4:36.20 | 202455 | 223174

Характеристики диапазона извлечения и сообщения об ошибках

Выбранный диапазон

Имя файла I:\0002\A-ha - 1993 - Memorial Beach\CDImage.wav

Пиковый уровень 100.0 %
Качество диапазона 100.0 %
CRC копии 427F62AD
Копирование... OK

Ошибок не произошло

AccurateRip: сводка
Трек 1 точное извлечение (доверие 57) [BD1E8A5B]
Трек 2 точное извлечение (доверие 56) [3470D5EE]
Трек 3 точное извлечение (доверие 56) [186A891D]
Трек 4 точное извлечение (доверие 56) [B25DDD90]
Трек 5 точное извлечение (доверие 56) [66C933B2]
Трек 6 точное извлечение (доверие 56) [7B51DD90]
Трек 7 точное извлечение (доверие 56) [992E183B]
Трек 8 точное извлечение (доверие 56) [5B76C7FE]
Трек 9 точное извлечение (доверие 56) [82FFABF6]
Трек 10 точное извлечение (доверие 53) [14A8C6B2]
Все треки извлечены точно

Конец отчёта

2000 - Minor Earth, Major Sky
pic

Продолжительность:00:58:36
01 Minor Earth | Major Sky (5:24)
02 Little Black Heart (4:36)
03 Velvet (4:19)
04 Summer Moved On (4:37)
05 The Sun Never Shone That Day (4:38)
06 To Let You Win (4:23)
07 The Company Man (3:14)
08 Thought That It Was You (3:49)
09 I Wish I Cared (4:21)
10 Barely Hanging On (3:55)
11 You'll Never Get Over Me (5:38)
12 I Won't Forget Her (4:43)
13 Mary Ellen Makes The Moment Count (4:53)
ЛОГ
Exact Audio Copy V0.99 prebeta 3 from 28. July 2007

Отчёт EAC об извлечении, выполненном 15. сентября 2009, 20:00

A-Ha / Minor Earth | Major Sky

Дисковод: PIONEER DVD-RW DVR-112D Adapter: 1 ID: 0

Режим чтения : Достоверность
Использование точного потока : Да
Отключение кэша аудио : Да
Использование указателей C2 : Нет

Коррекция смещения при чтении : 48
Способность читать области Lead-in и Lead-out : Нет
Заполнение пропущенных сэмплов тишиной : Да
Удаление блоков с тишиной в начале и конце : Нет
При вычислениях CRC использовались нулевые сэмплы : Да
Интерфейс : Встроенный Win32-интерфейс для Win NT/2000

Выходной формат : Внутренние WAV-операции
Формат сэмплов : 44.100 Гц; 16 бит; стерео

TOC извлечённого CD

Трек | Старт | Длительность | Начальный сектор | Конечный сектор
---------------------------------------------------------------------
1 | 0:00.00 | 5:24.40 | 0 | 24339
2 | 5:24.40 | 4:36.07 | 24340 | 45046
3 | 10:00.47 | 4:19.23 | 45047 | 64494
4 | 14:19.70 | 4:37.00 | 64495 | 85269
5 | 18:56.70 | 4:38.55 | 85270 | 106174
6 | 23:35.50 | 4:23.35 | 106175 | 125934
7 | 27:59.10 | 3:14.37 | 125935 | 140521
8 | 31:13.47 | 3:49.50 | 140522 | 157746
9 | 35:03.22 | 4:21.30 | 157747 | 177351
10 | 39:24.52 | 3:55.45 | 177352 | 195021
11 | 43:20.22 | 5:38.70 | 195022 | 220441
12 | 48:59.17 | 4:43.63 | 220442 | 241729
13 | 53:43.05 | 4:53.50 | 241730 | 263754

Характеристики диапазона извлечения и сообщения об ошибках

Выбранный диапазон

Имя файла I:\0002\A-ha - 2000 - Minor Earth, Major Sky\CDImage.wav

Пиковый уровень 97.9 %
Качество диапазона 99.9 %
CRC копии 292D023E
Копирование... OK

Ошибок не произошло

AccurateRip: сводка
Трек 1 точное извлечение (доверие 200) [CB2F9DDC]
Трек 2 точное извлечение (доверие 200) [B66C5767]
Трек 3 точное извлечение (доверие 200) [16401792]
Трек 4 точное извлечение (доверие 199) [B2204824]
Трек 5 точное извлечение (доверие 198) [E0352DB9]
Трек 6 точное извлечение (доверие 197) [3BB5B727]
Трек 7 точное извлечение (доверие 198) [E8E8ACB0]
Трек 8 точное извлечение (доверие 198) [CE46F28D]
Трек 9 точное извлечение (доверие 197) [7F3EFC75]
Трек 10 точное извлечение (доверие 197) [A0F99433]
Трек 11 точное извлечение (доверие 196) [9144F6C7]
Трек 12 точное извлечение (доверие 195) [B8137133]
Трек 13 точное извлечение (доверие 194) [391AA4ED]
Все треки извлечены точно

Конец отчёта

2002 - Lifelines
pic

Продолжительность:01:01:34
01 Lifelines (4:17)
02 You Wanted More (3:39)
03 Forever Not Yours (4:06)
04 There's A Reason For It (4:21)
05 Time & Again (5:03)
06 Did Anyone Approach You? (4:10)
07 Afternoon High (4:30)
08 Oranges On Appletrees (4:16)
09 A Little Bit (4:10)
10 Less Than Pure (4:13)
11 Turn The Lights Down (4:14)
12 Cannot Hide (3:19)
13 White Canvas (3:27)
14 Dragonfly (3:19)
15 Solace (4:20)
ЛОГ
Exact Audio Copy V0.99 prebeta 3 from 28. July 2007

Отчёт EAC об извлечении, выполненном 15. сентября 2009, 21:18

A-Ha / Lifelines

Дисковод: PIONEER DVD-RW DVR-112D Adapter: 1 ID: 0

Режим чтения : Достоверность
Использование точного потока : Да
Отключение кэша аудио : Да
Использование указателей C2 : Нет

Коррекция смещения при чтении : 48
Способность читать области Lead-in и Lead-out : Нет
Заполнение пропущенных сэмплов тишиной : Да
Удаление блоков с тишиной в начале и конце : Нет
При вычислениях CRC использовались нулевые сэмплы : Да
Интерфейс : Встроенный Win32-интерфейс для Win NT/2000

Выходной формат : Внутренние WAV-операции
Формат сэмплов : 44.100 Гц; 16 бит; стерео

TOC извлечённого CD

Трек | Старт | Длительность | Начальный сектор | Конечный сектор
---------------------------------------------------------------------
1 | 0:00.00 | 4:17.55 | 0 | 19329
2 | 4:17.55 | 3:40.67 | 19330 | 35896
3 | 7:58.47 | 4:06.20 | 35897 | 54366
4 | 12:04.67 | 4:21.55 | 54367 | 73996
5 | 16:26.47 | 5:03.73 | 73997 | 96794
6 | 21:30.45 | 4:10.62 | 96795 | 115606
7 | 25:41.32 | 4:30.68 | 115607 | 135924
8 | 30:12.25 | 4:16.30 | 135925 | 155154
9 | 34:28.55 | 4:10.62 | 155155 | 173966
10 | 38:39.42 | 4:13.15 | 173967 | 192956
11 | 42:52.57 | 4:14.60 | 192957 | 212066
12 | 47:07.42 | 3:19.28 | 212067 | 227019
13 | 50:26.70 | 3:27.27 | 227020 | 242571
14 | 53:54.22 | 3:19.25 | 242572 | 257521
15 | 57:13.47 | 4:20.58 | 257522 | 277079

Характеристики диапазона извлечения и сообщения об ошибках

Выбранный диапазон

Имя файла I:\0002\A-ha - 2002 - Lifelines\CDImage.wav

Пиковый уровень 100.0 %
Качество диапазона 100.0 %
CRC копии 4C4BFF6B
Копирование... OK

Ошибок не произошло

AccurateRip: сводка
Трек 1 точное извлечение (доверие 123) [FA026C92]
Трек 2 точное извлечение (доверие 121) [CC17381A]
Трек 3 точное извлечение (доверие 121) [3D8F4810]
Трек 4 точное извлечение (доверие 121) [3ADD1657]
Трек 5 точное извлечение (доверие 122) [FED169CA]
Трек 6 точное извлечение (доверие 121) [924193B1]
Трек 7 точное извлечение (доверие 121) [7A67E41C]
Трек 8 точное извлечение (доверие 122) [4756994E]
Трек 9 точное извлечение (доверие 121) [48CE5426]
Трек 10 точное извлечение (доверие 122) [AD3FC3DD]
Трек 11 точное извлечение (доверие 123) [B87B9976]
Трек 12 точное извлечение (доверие 124) [5C811743]
Трек 13 точное извлечение (доверие 124) [254B9FB4]
Трек 14 точное извлечение (доверие 122) [0436C843]
Трек 15 точное извлечение (доверие 123) [CB4E1AD9]
Все треки извлечены точно

Конец отчёта

2003 - How Can I Sleep With Your Voice In My Head (A-ha Live 2CD)
pic

Продолжительность:01:39:33
CD1
01 Forever Not Yours (4:32)
02 Minor Earth Major Sky (5:41)
03 Manhattan Skyline (5:50)
04 I've Been Loosing You (4:08)
05 Crying In The Rain (4:55)
06 The Sun Always Shines On TV (5:51)
07 Did Anyone Approach You (4:52)
08 The Swing Of Things (5:26)
09 Lifelines (4:36)
10 Stay On These Roads (3:34)
11 Hunting High And Low (5:54)
12 Take On Me (5:42)
13 The Living Daylights (7:31)
14 Summer Moved On (7:11)
CD2
01 Scoundrel Days (5:15)
02 Oranges On Appletrees (4:26)
03 Cry Wolf (3:35)
04 Dragonfly (3:36)
05 Time And Again (5:19)
06 Sycamore Leaves (6:32)
ЛОГ CD 1
Exact Audio Copy V0.99 prebeta 3 from 28. July 2007

Отчёт EAC об извлечении, выполненном 15. сентября 2009, 19:28

A-Ha / How Can I Sleep With Your Voice In My Head Live (Disc 1)

Дисковод: PIONEER DVD-RW DVR-112D Adapter: 1 ID: 0

Режим чтения : Достоверность
Использование точного потока : Да
Отключение кэша аудио : Да
Использование указателей C2 : Нет

Коррекция смещения при чтении : 48
Способность читать области Lead-in и Lead-out : Нет
Заполнение пропущенных сэмплов тишиной : Да
Удаление блоков с тишиной в начале и конце : Нет
При вычислениях CRC использовались нулевые сэмплы : Да
Интерфейс : Встроенный Win32-интерфейс для Win NT/2000

Выходной формат : Внутренние WAV-операции
Формат сэмплов : 44.100 Гц; 16 бит; стерео

TOC извлечённого CD

Трек | Старт | Длительность | Начальный сектор | Конечный сектор
---------------------------------------------------------------------
1 | 0:00.00 | 4:32.70 | 0 | 20469
2 | 4:32.70 | 5:41.24 | 20470 | 46068
3 | 10:14.19 | 5:50.21 | 46069 | 72339
4 | 16:04.40 | 4:08.47 | 72340 | 90986
5 | 20:13.12 | 4:55.56 | 90987 | 113167
6 | 25:08.68 | 5:51.41 | 113168 | 139533
7 | 31:00.34 | 4:52.63 | 139534 | 161496
8 | 35:53.22 | 5:26.65 | 161497 | 186011
9 | 41:20.12 | 4:36.58 | 186012 | 206769
10 | 45:56.70 | 3:34.04 | 206770 | 222823
11 | 49:30.74 | 5:54.18 | 222824 | 249391
12 | 55:25.17 | 5:42.44 | 249392 | 275085
13 | 61:07.61 | 7:31.59 | 275086 | 308969
14 | 68:39.45 | 4:39.17 | 308970 | 329911
15 | 75:50.62 | 4:02.13 | 341312 | 359474

Характеристики диапазона извлечения и сообщения об ошибках

Выбранный диапазон

Имя файла I:\0002\A-ha - 2003 - How Can I Sleep With Your Voice In My Head (A-ha Live 2CD)\CD1\CDImage.wav

Пиковый уровень 100.0 %
Качество диапазона 99.9 %
CRC копии F42C0023
Копирование... OK

Ошибок не произошло

AccurateRip: сводка
Трек 1 точность не определена (достоверность 6) [E3F6E63C], AccurateRip вернул [4333D0D5]
Трек 2 точное извлечение (доверие 2) [A866ED9E]
Трек 3 точное извлечение (доверие 4) [20202AED]
Трек 4 точность не определена (достоверность 6) [B4EFED64], AccurateRip вернул [11BD7D3B]
Трек 5 точное извлечение (доверие 2) [4D1BACCF]
Трек 6 точность не определена (достоверность 9) [A9BCA297], AccurateRip вернул [2B884C73]
Трек 7 точность не определена (достоверность 8) [82021725], AccurateRip вернул [E2FB8CBD]
Трек 8 точное извлечение (доверие 2) [C6F22EDA]
Трек 9 точное извлечение (доверие 2) [35613BA9]
Трек 10 точное извлечение (доверие 2) [6293713E]
Трек 11 точное извлечение (доверие 2) [CEEAB966]
Трек 12 точность не определена (достоверность 7) [E8558BCA], AccurateRip вернул [C0E6E1B3]
Трек 13 точное извлечение (доверие 2) [3F5F21B2]
Трек 14 точность не определена (достоверность 8) [3CA99389], AccurateRip вернул [2B48504C]
8 трек(и) скопированы точно
6 трек(и) не удалось проверить на точность

Некоторые треки не прошли проверку на точность

Конец отчёта
ЛОГ CD 2
Exact Audio Copy V0.99 prebeta 3 from 28. July 2007

Отчёт EAC об извлечении, выполненном 15. сентября 2009, 19:34

A-Ha / How Can I Sleep With Your Voice In My Head (Live) CD2

Дисковод: PIONEER DVD-RW DVR-112D Adapter: 1 ID: 0

Режим чтения : Достоверность
Использование точного потока : Да
Отключение кэша аудио : Да
Использование указателей C2 : Нет

Коррекция смещения при чтении : 48
Способность читать области Lead-in и Lead-out : Нет
Заполнение пропущенных сэмплов тишиной : Да
Удаление блоков с тишиной в начале и конце : Нет
При вычислениях CRC использовались нулевые сэмплы : Да
Интерфейс : Встроенный Win32-интерфейс для Win NT/2000

Выходной формат : Внутренние WAV-операции
Формат сэмплов : 44.100 Гц; 16 бит; стерео

TOC извлечённого CD

Трек | Старт | Длительность | Начальный сектор | Конечный сектор
---------------------------------------------------------------------
1 | 0:00.00 | 5:15.30 | 0 | 23654
2 | 5:15.30 | 4:26.68 | 23655 | 43672
3 | 9:42.23 | 3:35.58 | 43673 | 59855
4 | 13:18.06 | 3:36.47 | 59856 | 76102
5 | 16:54.53 | 5:19.56 | 76103 | 100083
6 | 22:14.34 | 4:00.58 | 100084 | 118141
7 | 28:47.17 | 14:22.34 | 129542 | 194225

Характеристики диапазона извлечения и сообщения об ошибках

Выбранный диапазон

Имя файла I:\0002\A-ha - 2003 - How Can I Sleep With Your Voice In My Head (A-ha Live 2CD)\CD2\CDImage.wav

Пиковый уровень 100.0 %
Качество диапазона 100.0 %
CRC копии AD40B9F5
Копирование... OK

Ошибок не произошло

AccurateRip: сводка
Трек 1 точное извлечение (доверие 28) [06523B7C]
Трек 2 точное извлечение (доверие 27) [E05A92D7]
Трек 3 точное извлечение (доверие 27) [744AB474]
Трек 4 точное извлечение (доверие 27) [2CA06DB9]
Трек 5 точное извлечение (доверие 28) [B2F031FA]
Трек 6 точное извлечение (доверие 28) [F4BCAFDA]
Все треки извлечены точно

Конец отчёта
CD-Extra - A-ha Tourbook
Format : MPEG-1 Program
Format/Family : MPEG-1
File size : 126 MiB
PlayTime : 8mn 55s
Bit rate : 1973 Kbps
Video
Codec : MPEG-1 Video
PlayTime : 8mn 54s
Bit rate : 1753 Kbps
Width : 352 pixels
Height : 288 pixels
Display Aspect ratio : 4/3
Frame rate : 25.000 fps
Audio
Codec : MPEG-1 Audio layer 2
Bit rate : 192 Kbps
Channel(s) : 2 channels
Sampling rate : 44 KHz
Resolution : 16 bits

pic
pic
pic

2004 - The Singles 1994-2004
pic

Продолжительность:01:19:46
01. a-ha - Take On Me (03:47)
02. a-ha - The Sun Always Shines On TV (04:42)
03. a-ha - Train Of Thought (04:15)
04. a-ha - Hunting High And Low (03:47)
05. a-ha - I've Been Losing You (04:25)
06. a-ha - Cry Wolf (04:03)
07. a-ha - Manhattan Skyline (04:17)
08. a-ha - The Living Daylights (04:14)
09. a-ha - Stay On These Roads (04:46)
10. a-ha - Touchy! (04:33)
11. a-ha - Crying In The Rain (04:22)
12. a-ha - Move To Memphis (04:13)
13. a-ha - Dark Is The Night (03:46)
14. a-ha - Shapes That Go Together (04:14)
15. a-ha - Summer Moved On (04:04)
16. a-ha - Minor Earth, Major Sky (04:02)
17. a-ha - Velvet (04:05)
18. a-ha - Forever Not Yours (04:03)
19. a-ha - Lifelines (03:58)
ЛОГ
Exact Audio Copy V0.99 prebeta 3 from 28. July 2007
Отчёт EAC об извлечении, выполненном 16. февраля 2010, 18:12
a-ha / The Singles 1984 - 2004
Дисковод: PIONEER DVD-RW DVR-112D Adapter: 1 ID: 0
Режим чтения : Достоверность
Использование точного потока : Да
Отключение кэша аудио : Да
Использование указателей C2 : Нет
Коррекция смещения при чтении : 48
Способность читать области Lead-in и Lead-out : Нет
Заполнение пропущенных сэмплов тишиной : Да
Удаление блоков с тишиной в начале и конце : Нет
При вычислениях CRC использовались нулевые сэмплы : Да
Интерфейс : Встроенный Win32-интерфейс для Win NT/2000
Выходной формат : Внутренние WAV-операции
Формат сэмплов : 44.100 Гц; 16 бит; стерео
TOC извлечённого CD
Трек | Старт | Длительность | Начальный сектор | Конечный сектор
---------------------------------------------------------------------
1 | 0:00.00 | 3:47.43 | 0 | 17067
2 | 3:47.43 | 4:42.70 | 17068 | 38287
3 | 8:30.38 | 4:15.43 | 38288 | 57455
4 | 12:46.06 | 3:47.13 | 57456 | 74493
5 | 16:33.19 | 4:25.74 | 74494 | 94442
6 | 20:59.18 | 4:03.66 | 94443 | 112733
7 | 25:03.09 | 4:17.51 | 112734 | 132059
8 | 29:20.60 | 4:14.26 | 132060 | 151135
9 | 33:35.11 | 4:46.42 | 151136 | 172627
10 | 38:21.53 | 4:33.02 | 172628 | 193104
11 | 42:54.55 | 4:22.35 | 193105 | 212789
12 | 47:17.15 | 4:13.13 | 212790 | 231777
13 | 51:30.28 | 3:46.65 | 231778 | 248792
14 | 55:17.18 | 4:14.31 | 248793 | 267873
15 | 59:31.49 | 4:04.47 | 267874 | 286220
16 | 63:36.21 | 4:02.22 | 286221 | 304392
17 | 67:38.43 | 4:05.46 | 304393 | 322813
18 | 71:44.14 | 4:03.60 | 322814 | 341098
19 | 75:47.74 | 3:58.02 | 341099 | 358950
Характеристики диапазона извлечения и сообщения об ошибках
Выбранный диапазон
Имя файла I:\0002\A-ha - Discography\A-ha - 2004 - The Singles 1994-2004\CDImage.wav
Пиковый уровень 100.0 %
Качество диапазона 99.9 %
CRC теста F813582E
CRC копии F813582E
Копирование... OK
Ошибок не произошло
AccurateRip: сводка
Трек 1 точное извлечение (доверие 24) [85D505DB]
Трек 2 точное извлечение (доверие 25) [FA97C604]
Трек 3 точное извлечение (доверие 24) [254C4DD8]
Трек 4 точное извлечение (доверие 25) [63E2AC76]
Трек 5 точное извлечение (доверие 24) [94225704]
Трек 6 точное извлечение (доверие 25) [F0C59245]
Трек 7 точное извлечение (доверие 24) [27C0DA5B]
Трек 8 точное извлечение (доверие 24) [1E3B291F]
Трек 9 точное извлечение (доверие 24) [560515B4]
Трек 10 точное извлечение (доверие 24) [A11BEFE5]
Трек 11 точное извлечение (доверие 25) [9FAAEBD4]
Трек 12 точное извлечение (доверие 24) [0359CF9B]
Трек 13 точное извлечение (доверие 24) [5947478D]
Трек 14 точное извлечение (доверие 24) [F8488E70]
Трек 15 точное извлечение (доверие 24) [B793D42A]
Трек 16 точное извлечение (доверие 24) [88327BDB]
Трек 17 точное извлечение (доверие 24) [E9489D58]
Трек 18 точное извлечение (доверие 22) [64511741]
Трек 19 точное извлечение (доверие 24) [521B2931]
Все треки извлечены точно
Конец отчёта


2004 - Swing Of Things - The Demo Tapes
pic

Продолжительность:00:47:01
01. a-ha - Take On Me (demo) (03:19)
02. a-ha - Presenting Lily Mars (03:18)
03. a-ha - Dot The I (03:49)
04. a-ha - Days On End (03:29)
05. a-ha - The Love Goodbye (03:23)
06. a-ha - Monday Mourning (03:11)
07. a-ha - Never Never (03:19)
08. a-ha - Sе Blеser Det Pе Jorden (02:39)
09. a-ha - Go To Sleep (02:27)
10. a-ha - Hunting High And Low (03:26)
11. a-ha - I've Been Losing You (04:35)
12. a-ha - The Swing Of Things (demo) (10:01)
ЛОГ
Exact Audio Copy V0.99 prebeta 3 from 28. July 2007

Отчёт EAC об извлечении, выполненном 22. сентября 2010, 19:11

a-ha / The Demo Tapes

Дисковод: PIONEER DVD-RW DVR-112D Adapter: 1 ID: 0

Режим чтения : Достоверность
Использование точного потока : Да
Отключение кэша аудио : Да
Использование указателей C2 : Нет

Коррекция смещения при чтении : 48
Способность читать области Lead-in и Lead-out : Нет
Заполнение пропущенных сэмплов тишиной : Да
Удаление блоков с тишиной в начале и конце : Нет
При вычислениях CRC использовались нулевые сэмплы : Да
Интерфейс : Встроенный Win32-интерфейс для Win NT/2000

Выходной формат : Внутренние WAV-операции
Формат сэмплов : 44.100 Гц; 16 бит; стерео

TOC извлечённого CD

Трек | Старт | Длительность | Начальный сектор | Конечный сектор
---------------------------------------------------------------------
1 | 0:00.00 | 3:19.45 | 0 | 14969
2 | 3:19.45 | 3:18.54 | 14970 | 29873
3 | 6:38.24 | 3:49.21 | 29874 | 47069
4 | 10:27.45 | 3:29.14 | 47070 | 62758
5 | 13:56.59 | 3:23.24 | 62759 | 78007
6 | 17:20.08 | 3:11.56 | 78008 | 92388
7 | 20:31.64 | 3:19.49 | 92389 | 107362
8 | 23:51.38 | 2:39.18 | 107363 | 119305
9 | 26:30.56 | 2:27.23 | 119306 | 130353
10 | 28:58.04 | 3:26.66 | 130354 | 145869
11 | 32:24.70 | 4:35.06 | 145870 | 166500
12 | 37:00.01 | 10:01.49 | 166501 | 211624

Характеристики диапазона извлечения и сообщения об ошибках

Выбранный диапазон

Имя файла G:\for tracker\A-ha\A-ha - 2004 - Swing Of Things - The Demo Tapes\CDImage.wav

Пиковый уровень 99.8 %
Качество диапазона 99.9 %
CRC теста D59967D6
CRC копии D59967D6
Копирование... OK

Ошибок не произошло

AccurateRip: сводка
Трек 1 точное извлечение (доверие 3) [38DEAC0A]
Трек 2 точное извлечение (доверие 3) [160AE295]
Трек 3 точное извлечение (доверие 3) [61081C39]
Трек 4 точное извлечение (доверие 3) [5B9B124B]
Трек 5 точное извлечение (доверие 3) [F26D2311]
Трек 6 точное извлечение (доверие 3) [345B622D]
Трек 7 точное извлечение (доверие 3) [A8B85B1D]
Трек 8 точное извлечение (доверие 3) [22A17B84]
Трек 9 точное извлечение (доверие 3) [9F9A8848]
Трек 10 точное извлечение (доверие 3) [7A3CAD99]
Трек 11 точное извлечение (доверие 3) [A07802B6]
Трек 12 точное извлечение (доверие 3) [08ECF1B2]
Все треки извлечены точно

Конец отчёта

2005 - Analogue
pic

Продолжительность:00:54:47
01 Celice (3:41)
02 Don't Do Me Any Favours (3:51)
03 Cosy Prisons (4:08)
04 Analogue (All I Want) (3:48)
05 Birthright (3:45)
06 Holy Ground (4:00)
07 Over The Treetops (4:24)
08 Halfway Through The Tour (7:26)
09 The Fine Blue Line (4:09)
10 Keeper Of The Flame (3:58)
11 Make It Soon (3:21)
12 White Dwarf (4:24)
13 The Summers Of Our Youth (3:56)
ЛОГ
Exact Audio Copy V0.99 prebeta 3 from 28. July 2007

Отчёт EAC об извлечении, выполненном 15. сентября 2009, 19:47

a-ha / Analogue

Дисковод: PIONEER DVD-RW DVR-112D Adapter: 1 ID: 0

Режим чтения : Достоверность
Использование точного потока : Да
Отключение кэша аудио : Да
Использование указателей C2 : Нет

Коррекция смещения при чтении : 48
Способность читать области Lead-in и Lead-out : Нет
Заполнение пропущенных сэмплов тишиной : Да
Удаление блоков с тишиной в начале и конце : Нет
При вычислениях CRC использовались нулевые сэмплы : Да
Интерфейс : Встроенный Win32-интерфейс для Win NT/2000

Выходной формат : Внутренние WAV-операции
Формат сэмплов : 44.100 Гц; 16 бит; стерео

TOC извлечённого CD

Трек | Старт | Длительность | Начальный сектор | Конечный сектор
---------------------------------------------------------------------
1 | 0:00.00 | 3:41.01 | 0 | 16575
2 | 3:41.01 | 3:50.63 | 16576 | 33888
3 | 7:31.64 | 4:08.04 | 33889 | 52492
4 | 11:39.68 | 3:49.25 | 52493 | 69692
5 | 15:29.18 | 3:43.31 | 69693 | 86448
6 | 19:12.49 | 3:55.60 | 86449 | 104133
7 | 23:08.34 | 4:24.06 | 104134 | 123939
8 | 27:32.40 | 7:26.39 | 123940 | 157428
9 | 34:59.04 | 4:09.27 | 157429 | 176130
10 | 39:08.31 | 3:58.28 | 176131 | 194008
11 | 43:06.59 | 3:19.58 | 194009 | 208991
12 | 46:26.42 | 4:24.06 | 208992 | 228797
13 | 50:50.48 | 3:57.26 | 228798 | 246598
14 | 57:19.74 | 13:06.73 | 257999 | 317021

Характеристики диапазона извлечения и сообщения об ошибках

Выбранный диапазон

Имя файла I:\0002\A-ha - 2005 - Analogue\CDImage.wav

Пиковый уровень 100.0 %
Качество диапазона 99.9 %
CRC копии C3C676F6
Копирование... OK

Ошибок не произошло

AccurateRip: сводка
Трек 1 точное извлечение (доверие 96) [885BDDFC]
Трек 2 точное извлечение (доверие 93) [1B6A13B6]
Трек 3 точное извлечение (доверие 95) [232F3D4C]
Трек 4 точное извлечение (доверие 95) [26C88273]
Трек 5 точное извлечение (доверие 95) [546544E2]
Трек 6 точное извлечение (доверие 94) [6B71B73D]
Трек 7 точное извлечение (доверие 94) [465F4774]
Трек 8 точное извлечение (доверие 93) [7101006D]
Трек 9 точное извлечение (доверие 95) [8DAED371]
Трек 10 точное извлечение (доверие 92) [1F0D21FA]
Трек 11 точное извлечение (доверие 92) [50E622C3]
Трек 12 точное извлечение (доверие 94) [3F262A6D]
Трек 13 точное извлечение (доверие 91) [4F842EFE]
Все треки извлечены точно

Конец отчёта
CD-Extra - Video - Celice
Format : MPEG-1 Program
Format/Family : MPEG-1
File size : 41.0 MiB
PlayTime : 3mn 41s
Bit rate : 1550 Kbps
Video
Codec : MPEG-1 Video
PlayTime : 3mn 41s
Bit rate : 1310 Kbps
Width : 320 pixels
Height : 256 pixels
Display Aspect ratio : 5/4
Frame rate : 25.000 fps
Audio
Codec : MPEG-1 Audio layer 2
Bit rate : 224 Kbps
Channel(s) : 2 channels
Sampling rate : 48 KHz
Resolution : 16 bits

pic
pic
pic

2008 - Homecoming - Live At Vallhall
pic

Продолжительность:01:18:47
01 Take On Me (4:19)
02 The Living Daylights (3:46)
03 The Sun Always Shines On TV (5:06)
04 Little Black Heart (3:26)
05 Minor Earth Major Sky (3:48)
06 Cry Wolf (4:15)
07 Crying In The Rain (5:55)
08 Manhattan Skyline (5:50)
09 The Sun Never Shone That Day (4:14)
10 Stay On These Roads (3:29)
11 You'll Never Get Over Me (4:07)
12 Summer Moved On (4:13)
13 Thought That It Was You (3:32)
14 I've Been Losing You (3:59)
15 Early Morning (3:00)
16 Velvet (4:04)
17 I Wish I Cared (3:58)
18 Mary Ellen Makes The Moment Count (4:34)
19 Hunting High And Low (4:04)
ЛОГ
Exact Audio Copy V0.99 prebeta 3 from 28. July 2007
Отчёт EAC об извлечении, выполненном 16. февраля 2010, 22:16
a-ha / homecoming: live at vallhall
Дисковод: PIONEER DVD-RW DVR-112D Adapter: 1 ID: 0
Режим чтения : Достоверность
Использование точного потока : Да
Отключение кэша аудио : Да
Использование указателей C2 : Нет
Коррекция смещения при чтении : 48
Способность читать области Lead-in и Lead-out : Нет
Заполнение пропущенных сэмплов тишиной : Да
Удаление блоков с тишиной в начале и конце : Нет
При вычислениях CRC использовались нулевые сэмплы : Да
Интерфейс : Встроенный Win32-интерфейс для Win NT/2000
Выходной формат : Внутренние WAV-операции
Формат сэмплов : 44.100 Гц; 16 бит; стерео
TOC извлечённого CD
Трек | Старт | Длительность | Начальный сектор | Конечный сектор
---------------------------------------------------------------------
1 | 0:00.00 | 4:19.74 | 0 | 19498
2 | 4:19.74 | 3:46.33 | 19499 | 36481
3 | 8:06.32 | 5:06.57 | 36482 | 59488
4 | 13:13.14 | 3:26.35 | 59489 | 74973
5 | 16:39.49 | 3:48.22 | 74974 | 92095
6 | 20:27.71 | 4:15.62 | 92096 | 111282
7 | 24:43.58 | 4:54.34 | 111283 | 133366
8 | 29:38.17 | 5:50.28 | 133367 | 159644
9 | 35:28.45 | 4:14.21 | 159645 | 178715
10 | 39:42.66 | 3:29.40 | 178716 | 194430
11 | 43:12.31 | 4:07.43 | 194431 | 212998
12 | 47:19.74 | 4:13.22 | 212999 | 231995
13 | 51:33.21 | 3:32.63 | 231996 | 247958
14 | 55:06.09 | 3:59.48 | 247959 | 265931
15 | 59:05.57 | 3:00.45 | 265932 | 279476
16 | 62:06.27 | 4:04.17 | 279477 | 297793
17 | 66:10.44 | 3:58.37 | 297794 | 315680
18 | 70:09.06 | 4:34.52 | 315681 | 336282
19 | 74:43.58 | 4:04.05 | 336283 | 354587
Характеристики диапазона извлечения и сообщения об ошибках
Выбранный диапазон
Имя файла I:\0002\A-ha - Discography\A-ha - 2008 - Homecoming - Live At Vallhall (2001)\CDImage.wav
Пиковый уровень 99.7 %
Качество диапазона 100.0 %
CRC теста 6F97A2FE
CRC копии 6F97A2FE
Копирование... OK
Ошибок не произошло
AccurateRip: сводка
Трек 1 точное извлечение (доверие 4) [7D888DC0]
Трек 2 точное извлечение (доверие 4) [799BBFCC]
Трек 3 точное извлечение (доверие 4) [C4845E26]
Трек 4 точное извлечение (доверие 4) [22393A3A]
Трек 5 точное извлечение (доверие 4) [0CA708A0]
Трек 6 точное извлечение (доверие 4) [7D545C4A]
Трек 7 точное извлечение (доверие 4) [EF301B18]
Трек 8 точное извлечение (доверие 4) [8A80368F]
Трек 9 точное извлечение (доверие 4) [F45B5F37]
Трек 10 точное извлечение (доверие 4) [86CBF1FC]
Трек 11 точное извлечение (доверие 4) [2891E12C]
Трек 12 точное извлечение (доверие 4) [D2AC16F4]
Трек 13 точное извлечение (доверие 4) [5E865526]
Трек 14 точное извлечение (доверие 4) [498CE2DD]
Трек 15 точное извлечение (доверие 4) [01E4278D]
Трек 16 точное извлечение (доверие 4) [230B2383]
Трек 17 точное извлечение (доверие 4) [F888150E]
Трек 18 точное извлечение (доверие 4) [367B30A7]
Трек 19 точное извлечение (доверие 4) [15DE68D4]
Все треки извлечены точно
Конец отчёта

2009 - Foot Of The Mountain
pic

Продолжительность:00:40:49
01 The Bandstand (4:03)
02 Riding The Crest (4:18)
03 What There Is (3:46)
04 Foot Of The Mountain (3:59)
05 Real Meaning (3:42)
06 Shadowside (4:57)
07 Nothing Is Keeping You Here (3:20)
08 Mother Nature Goes To Heaven (4:11)
09 Sunny Mystery (3:32)
10 Start The Simulator (5:12)
ЛОГ
Exact Audio Copy V0.99 prebeta 3 from 28. July 2007

Отчёт EAC об извлечении, выполненном 15. сентября 2009, 20:23

A-Ha / Foot Of The Mountain

Дисковод: PIONEER DVD-RW DVR-112D Adapter: 1 ID: 0

Режим чтения : Достоверность
Использование точного потока : Да
Отключение кэша аудио : Да
Использование указателей C2 : Нет

Коррекция смещения при чтении : 48
Способность читать области Lead-in и Lead-out : Нет
Заполнение пропущенных сэмплов тишиной : Да
Удаление блоков с тишиной в начале и конце : Нет
При вычислениях CRC использовались нулевые сэмплы : Да
Интерфейс : Встроенный Win32-интерфейс для Win NT/2000

Выходной формат : Внутренние WAV-операции
Формат сэмплов : 44.100 Гц; 16 бит; стерео

TOC извлечённого CD

Трек | Старт | Длительность | Начальный сектор | Конечный сектор
---------------------------------------------------------------------
1 | 0:00.00 | 4:02.27 | 0 | 18176
2 | 4:02.27 | 4:16.71 | 18177 | 37447
3 | 8:19.23 | 3:43.20 | 37448 | 54192
4 | 12:02.43 | 3:57.47 | 54193 | 72014
5 | 16:00.15 | 3:40.38 | 72015 | 88552
6 | 19:40.53 | 4:55.06 | 88553 | 110683
7 | 24:35.59 | 3:17.37 | 110684 | 125495
8 | 27:53.21 | 4:08.50 | 125496 | 144145
9 | 32:01.71 | 3:30.47 | 144146 | 159942
10 | 35:32.43 | 5:17.12 | 159943 | 183729

Характеристики диапазона извлечения и сообщения об ошибках

Выбранный диапазон

Имя файла I:\0002\A-ha - 2009 - Foot Of The Mountain\CDImage.wav

Пиковый уровень 100.0 %
Качество диапазона 100.0 %
CRC копии 7512E7E2
Копирование... OK

Ошибок не произошло

AccurateRip: сводка
Трек 1 точное извлечение (доверие 18) [CC2CCCA4]
Трек 2 точное извлечение (доверие 18) [61218EF6]
Трек 3 точное извлечение (доверие 17) [03578BA6]
Трек 4 точное извлечение (доверие 17) [DDB47739]
Трек 5 точное извлечение (доверие 17) [6265379B]
Трек 6 точное извлечение (доверие 17) [6EB92F77]
Трек 7 точное извлечение (доверие 17) [806A92FD]
Трек 8 точное извлечение (доверие 17) [C0E3FCC8]
Трек 9 точное извлечение (доверие 17) [919C63EB]
Трек 10 точное извлечение (доверие 17) [575AC90A]
Все треки извлечены точно

Конец отчёта

Оформлено by Архон

A-ha - Full Albums Discography.torrent
Трекер: Зарегистрирован

magnet ссылка

 


Скачать .torrent

45 KB

Статус: проверено (by Архон в 17-Окт-10 08:14)
Зарегистрирован: 17-Окт-10 08:13
Скачан: 77 раз
Размер: 5.66 GB | 
Поблагодарили:
Скачать (Pop) A-ha - Дискография (13 Albums) (1985 - 2009) APE (image+.cue), lossless торрент
 


Похожие раздачи

gosharuss588

post 11-Июл-10 10:03 (спустя 8 месяцев)

большое человеческое спасибо! 4.1Мб/с!

добавлено спустя:

спасибо!

Архон

post 17-Окт-10 08:14 (спустя 3 месяца 5 дней)

добавил альбом 2004 - Swing Of Things - The Demo Tapes

vitaliku1976

post 06-Сен-15 14:21 (спустя 4 года 10 месяцев)

Новый выходит...

Igor_1974

post 23-Ноя-18 21:51 (спустя 3 года 2 месяца)

А можно попросить кого-нибуть из скачавших стать на раздачу?

Текущее время: 02-Дек 11:44

Часовой пояс: GMT + 3



Вы не можете начинать темы
Вы не можете отвечать на сообщения
Вы не можете редактировать свои сообщения
Вы не можете удалять свои сообщения
Вы не можете голосовать в опросах
Вы не можете прикреплять файлы к сообщениям
Вы не можете скачивать файлы