Loading...
Error
 

Скачать торрент Быстрее, чем кролики (Дмитрий Дьяченко) [2014, комедия, DVDRip-AVC][Лицензия] R.G. RustorRipper's

 
Автор Сообщение

Boika

post 19-Фев-14 21:39


Быстрее, чем кролики

pic
pic Год выпуска: 2013
pic Страна: Россия
pic Жанр: Комедия
pic Продолжительность:01:39:08
pic Перевод:Не требуется (Русский)
pic Cубтитры:Нет
pic Режиссер:Дмитрий Дьяченко
pic В ролях: Леонид Барац, Александр Демидов, Камиль Ларин, Ростислав Хаит, Игорь Золотовицкий, Екатерина Кузнецова, Артем Смола, Григорий Данцигер, Дмитрий Дибров, Валдис Пельш
pic Описание:Трое друзей после бурной вечеринки просыпаются в совершенно незнакомом месте в компании незнакомых людей и пытаются понять, как они здесь оказались, кто все эти люди, и что на самом деле произошло накануне… Что делают и о чем говорят мужчины в такой необычной ситуации?
pic Качество видео:DVDRip-AVC
pic Формат:MKV
pic Видео кодек:AVC
pic Аудио кодек:AC3
pic Видео:AVC at 2717 Кбит/сек, 1024 x 424 (2.415) at 25.000 fps
pic Аудио:AC-3 at 448 Кбит/сек, 6 каналов, 48,0 КГц
pic Автор рипа:Boika
pic
Трейлер
[youtube]http://www.youtube.com/watch?v=8SKuUkOLn3A[/youtube]
Скриншоты
MediaInfo

Код:

Общее
Уникальный идентификатор                 : 244602084669131800021186141644266834468 (0xB804A5DEE587FB649417144FF2A28A24)
Полное имя                               : C:\Users\Raul\Downloads\Kroliki.2014.O.DVDRip-AVC, [by Boika] R.G. RustorRipper's.mkv
Формат                                   : Matroska
Версия формата                           : Version 2
Размер файла                             : 2,03 Гбайт
Продолжительность                        : 1 ч. 31 м.
Общий поток                              : 3166 Кбит/сек
Дата кодирования                         : UTC 2014-02-19 03:29:07
Программа кодирования                    : mkvmerge v4.5.0 ('Speed of Light') сборка от Feb 15 2011 12:50:20
Библиотека кодирования                   : libebml v1.2.0 + libmatroska v1.1.0

Видео
Идентификатор                            : 1
Формат                                   : AVC
Формат/Информация                        : Advanced Video Codec
Профиль формата                          : [email protected]
Параметр CABAC формата                   : Да
Параметр ReFrames формата                : 8 кадров
Идентификатор кодека                     : V_MPEG4/ISO/AVC
Продолжительность                        : 1 ч. 31 м.
Битрейт                                  : 2717 Кбит/сек
Ширина                                   : 1024 пикселя
Высота                                   : 424 пикселя
Соотношение сторон                       : 2,40:1
Режим частоты кадров                     : Постоянный
Частота кадров                           : 25,000 кадров/сек
Цветовое пространство                    : YUV
Субдискретизация насыщенности            : 4:2:0
Битовая глубина                          : 8 бит
Тип развёртки                            : Прогрессивная
Бит/(Пиксели*Кадры)                      : 0.250
Размер потока                            : 1,70 Гбайт (84%)
Библиотека кодирования                   : x264 core 114 r1913 5fd3dce
Настройки программы                      : cabac=1 / ref=8 / deblock=1:-2:-2 / analyse=0x3:0x133 / me=umh / subme=7 / psy=1 / psy_rd=1.00:0.10 / mixed_ref=1 / me_range=32 / chroma_me=1 / trellis=2 / 8x8dct=1 / cqm=0 / deadzone=21,11 / fast_pskip=0 / chroma_qp_offset=-3 / threads=3 / sliced_threads=0 / nr=0 / decimate=1 / interlaced=0 / constrained_intra=0 / bframes=3 / b_pyramid=2 / b_adapt=2 / b_bias=0 / direct=3 / weightb=1 / open_gop=0 / weightp=2 / keyint=240 / keyint_min=24 / scenecut=40 / intra_refresh=0 / rc_lookahead=50 / rc=2pass / mbtree=1 / bitrate=2717 / ratetol=1.0 / qcomp=0.60 / qpmin=0 / qpmax=69 / qpstep=4 / cplxblur=20.0 / qblur=0.5 / ip_ratio=1.40 / aq=1:1.00
Default                                  : Да
Forced                                   : Нет

Аудио
Идентификатор                            : 2
Формат                                   : AC-3
Формат/Информация                        : Audio Coding 3
Расширение режима                        : CM (complete main)
Параметр Endianness формата              : Big
Идентификатор кодека                     : A_AC3
Продолжительность                        : 1 ч. 31 м.
Вид битрейта                             : Постоянный
Битрейт                                  : 448 Кбит/сек
Каналы                                   : 6 каналов
Расположение каналов                     : Front: L C R, Side: L R, LFE
Частота                                  : 48,0 КГц
Битовая глубина                          : 16 бит
Метод сжатия                             : С потерями
Размер потока                            : 295 Мбайт (14%)
Default                                  : Да
Forced                                   : Нет
pic
© Оформление by Boika
Kroliki.2014.O.DVDRip-AVC, [by Boika] R.G. RustorRipper's.mkv.torrent
Трекер: Зарегистрирован

magnet ссылка

 


Скачать .torrent

11 KB

Статус: проверено (by Tarkin в 19-Фев-14 22:45)
Зарегистрирован: 19-Фев-14 21:39
Скачан: 925 раз
Размер: 2.03 GB | 
Поблагодарили:
Скачать Быстрее, чем кролики (Дмитрий Дьяченко) [2014, комедия, DVDRip-AVC][Лицензия] R.G. RustorRipper's торрент
 


Похожие раздачи

Puzortos

post 19-Фев-14 22:38 (спустя 58 минут)

Слишком философски чтоли, на фоне угарного "дня выборов" и задумчиво-забавного "о чем говорят мужчины" выглядит просто ужасно.

DginGrin

post 20-Фев-14 14:52 (спустя 16 часов)

Фильм хорош! Не "Выборы"конечно и не "Радио". Другой. По юмору не уступает вышесказанным фильмам. Философия мужчин после сорока. Мне понравился! +5

Mr

post 11-Июн-14 19:33 (спустя 3 месяца 19 дней)

ну я как бы близко к сорока:)
Фильм не понравился, после правдиво-патриотичного Дня ... и философски мне близкого О чем... и О чем ...2.
Актеры играют хорошо, но сюжет отвратный, мое ИМХО.
ЗЫ. в кинотеатре смотрел трезвым с женой, сейчас пьяный посмотрю, может будет ближе и понятней.

ZLoDeU4

post 12-Июл-14 17:55 (спустя 1 месяц)

посмотрите спектакль - полнее и понятнее будет, мне он больше понравился, чем фильм, ходил на него еще лет 6 назад, если память не изменяет... на спектакль в смысле...

post 22-Дек-14 23:13 (спустя 5 месяцев 10 дней)

Топик был перенесен из форума DVDRip в форум Комедия

Причина переноса: Перенос из новинок
арт33
 

Mr

post 26-Окт-18 19:47 (спустя 4 года 3 месяца)

Прошло 3 года и фильм зацепил. Похоже нужно было перешагнуть 40, многое стало понятно. Вобщем квартет И как всегда на высоте оказался.

Текущее время: 15-Ноя 22:10

Часовой пояс: GMT + 3



Вы не можете начинать темы
Вы не можете отвечать на сообщения
Вы не можете редактировать свои сообщения
Вы не можете удалять свои сообщения
Вы не можете голосовать в опросах
Вы не можете прикреплять файлы к сообщениям
Вы не можете скачивать файлы