Loading...
Error
 

Скачать торрент Дом: История путешествия. Свидание с планетой / Home (Янн Артюс-Бертран) [2009, документальный, HDRip-AVC]R.G. RustorRipper's

 
Автор Сообщение

Tarkin

post 04-Мар-14 11:43

Дом: История путешествия. Свидание с планетой / Home


pic
Год выпуска: 2009
Страна: Франция
Жанр: Документальный
Продолжительность: 02:00:03
Перевод: Дублированный
Субтитры: Нет

В ролях: Ян Артус Бертранд, Гленн Клоуз, Жак Гамблен
Режиссёр: Янн Артюс-Бертран

pic
Фильм демонстрирует нам красоту планеты и последствия разрушений, нанесенных деятельностью человека. Незаживающие шрамы, нанесенные Земле промышленными производствами, последствия войн, экологических катастроф, раскрывают зрителю реальную ситуацию на планете.

Качество: HDRip-AVC
Формат: MKV
Видео кодек: AVC
Аудио кодек: AC3
Видео: AVC at 2900 Кбит/сек, 1024 x 576 at 23.976 fps
Аудио: AC3 at 448 Кбит/сек, 6 каналов, 48,0 КГц
Автор рипа: Tarkin pic
Релиз группа:
pic

MI

Код:

Формат                                   : Matroska
Версия формата                           : Version 2
Размер файла                             : 1,32 Гбайт
Продолжительность                        : 56 м.
Общий поток                              : 3346 Кбит/сек
Дата кодирования                         : UTC 2014-03-04 03:16:33
Программа кодирования                    : mkvmerge v5.0.1 ('Es ist Sommer') built on Nov  6 2011 16:23:40
Библиотека кодирования                   : libebml v1.2.2 + libmatroska v1.3.0

Видео
Идентификатор                            : 1
Формат                                   : AVC
Формат/Информация                        : Advanced Video Codec
Профиль формата                          : [email protected]
Параметр CABAC формата                   : Да
Параметр ReFrames формата                : 10 кадров
Идентификатор кодека                     : V_MPEG4/ISO/AVC
Продолжительность                        : 56 м.
Битрейт                                  : 2900 Кбит/сек
Ширина                                   : 1024 пикселя
Высота                                   : 576 пикселей
Соотношение сторон                       : 16:9
Режим частоты кадров                     : Постоянный
Частота кадров                           : 23,976 кадра/сек
Цветовое пространство                    : YUV
Субдискретизация насыщенности            : 4:2:0
Битовая глубина                          : 8 бит
Тип развёртки                            : Прогрессивная
Бит/(Пиксели*Кадры)                      : 0.205
Размер потока                            : 1,12 Гбайт (85%)
Библиотека кодирования                   : x264 core 119 r2106 07efeb4
Настройки программы                      : cabac=1 / ref=10 / deblock=1:-2:-2 / analyse=0x3:0x133 / me=umh / subme=11 / psy=1 / psy_rd=1.00:0.10 / mixed_ref=1 / me_range=32 / chroma_me=1 / trellis=2 / 8x8dct=1 / cqm=0 / deadzone=21,11 / fast_pskip=0 / chroma_qp_offset=-3 / threads=6 / sliced_threads=0 / nr=0 / decimate=1 / interlaced=0 / bluray_compat=0 / constrained_intra=0 / bframes=3 / b_pyramid=2 / b_adapt=2 / b_bias=0 / direct=3 / weightb=1 / open_gop=0 / weightp=2 / keyint=240 / keyint_min=23 / scenecut=40 / intra_refresh=0 / rc_lookahead=60 / rc=2pass / mbtree=1 / bitrate=2900 / ratetol=1.0 / qcomp=0.70 / qpmin=0 / qpmax=69 / qpstep=4 / cplxblur=20.0 / qblur=0.5 / ip_ratio=1.35 / aq=1:1.00
Default                                  : Да
Forced                                   : Нет

Аудио
Идентификатор                            : 2
Формат                                   : AC-3
Формат/Информация                        : Audio Coding 3
Расширение режима                        : CM (complete main)
Параметр Endianness формата              : Big
Идентификатор кодека                     : A_AC3
Продолжительность                        : 56 м.
Вид битрейта                             : Постоянный
Битрейт                                  : 448 Кбит/сек
Каналы                                   : 6 каналов
Расположение каналов                     : Front: L C R, Side: L R, LFE
Частота                                  : 48,0 КГц
Битовая глубина                          : 16 бит
Метод сжатия                             : С потерями
Размер потока                            : 182 Мбайт (13%)
Default                                  : Да
Forced                                   : Нет

Рейтинг
Трейлер
[youtube]https://www.youtube.com/watch?v=JHHEosknToQ[/youtube]
Скриншоты
Дом. История путешествия.[Tarkin].torrent
Трекер: Зарегистрирован

magnet ссылка

 


Скачать .torrent

14 KB

Статус: проверено (by Tarkin в 04-Мар-14 11:44)
Зарегистрирован: 04-Мар-14 11:43
Скачан: 149 раз
Размер: 2.64 GB | 
Поблагодарили:
Скачать Дом: История путешествия. Свидание с планетой / Home (Янн Артюс-Бертран) [2009, документальный, HDRip-AVC]R.G. RustorRipper's торрент
 


Похожие раздачи

leon822

post 04-Мар-14 12:01 (спустя 17 минут)

каким боком сюда приплели Люка Бессона :shock: :?: в описании о нем ни слова нет

N1ntendo

post 04-Мар-14 12:04 (спустя 3 минуты)

Блин, опять матроска. У меня телек не воспроизводит долбанную MKV

Russ_lan

post 04-Мар-14 13:43 (спустя 1 час 39 минут)

Круто! Спасибо за рип :D

Tarkin

post 04-Мар-14 15:14 (спустя 1 час 30 минут)

Dohlerd
http://rustorka.com/forum/viewtopic.php?t=161331
вот ави

Romazan

post 04-Мар-14 16:53 (спустя 1 час 39 минут)

leon822
Продюсер он, вот так вот.

Текущее время: 12-Дек 10:15

Часовой пояс: GMT + 3



Вы не можете начинать темы
Вы не можете отвечать на сообщения
Вы не можете редактировать свои сообщения
Вы не можете удалять свои сообщения
Вы не можете голосовать в опросах
Вы не можете прикреплять файлы к сообщениям
Вы не можете скачивать файлы