Loading...
Error
 

Скачать торрент Фотошоп - Креатив. Видеокурс [Алексей Кузьмичев] (2013, Photoshop, PCRec) R.G. Мастер-Класс

 
Автор Сообщение

Music Listener

post 07-Сен-14 20:44

Фотошоп - Креатив


pic
  • Год выпуска: 2013
  • Страна: Россия
  • Тематика: Photoshop
  • Тип материала: Видеокурс
  • Продолжительность: ~15 часов
  • Автор: Алексей Кузьмичев
  • Язык: Русский

    Описание:
    Как фотографу за 10 дней создать свой неповторимый стиль? Создайте свой собственный стиль в обработке фотографий. Перейдите на новый уровень профессионального мастерства, добавив в свои работы больше творчества! Представляю вам новый видеокурс "Фотошоп-Креатив". Курс включает в себя создание сложных эффектов, стилизацию фотографий и совмещение нескольких снимков в одном. В результате его прохождения вы создадите 10 разных по стилю композиций. Вы повторите путь от фотографий-заготовок до готовых произведений. На выполнение одной работы вам потребуется от полутора до 3 часов. Таким образом, вы пройдёте этот курс без спешки за 10 дней.
    Содержание:
    Ступень 1. “Прокачиваем ретушёрские навыки”
    • Как найти настройки кистей и других инструментов?
    • Зачем нужна маска слоя?.
    • Секретный способ разглаживания кожи.
    • Как восстановить “замыленные” и потерянные детали?
    • Как исправить причёску модели?
    • Как найти пред-установки для редактирования цвета?
    • Как провести цветокоррекцию и постобработку композиции?

    Ступень 2. “Создаём эффекты и стиль фото”
    • Как избавиться от старого фона?
    • Какие ещё инструменты могут быть использованы для отделения модели от старого фона, кроме “быстрого выделения”?
    • Как на новом фоне сделать реалистичную тень от модели?
    • Как ускорить обработку схожих элементов?
    • Как добавить воздуха в композицию?
    • Как сделать переднюю часть фото четкой, а заднюю - размытой?
    • Как сделать кожу пластиковой и добавить характерные блики?
    • Как добавить эффект растекания и брызг?
    • Как совместить несколько снимков в одну композицию?

    В курсе нет скучных и долгих лекций об инструментах программы Photoshop, её настройках и функциональности.
    Курс построен так, что Вы не заметите, как будете переходить с одной ступени мастерства на другую.


  • Качество: PCRec
  • Формат: MP4
  • Видео кодек: AVC
  • Аудио кодек: AAC-LC
  • Видео: avc1, 1440x860, 30.000 fps, ~2189 Kbps
  • Аудио: AAC-LC, 44,1 KHz, 2ch, 61.7 Kbps



MediaInfo

Код:

Общее
Полное имя                               : E:\R.G. Мастер-Класс\Фотошоп-Креатив (2013)\Диск 1\lessons\abstract\4\4.mp4
Формат                                   : MPEG-4
Профиль формата                          : Base Media / Version 2
Идентификатор кодека                     : mp42
Размер файла                             : 94,6 Мбайт
Продолжительность                        : 4 м. 18 с.
Режим общего битрейта                    : Переменный
Общий поток                              : 3072 Кбит/сек
Дата кодирования                         : UTC 2013-10-14 22:36:17
Дата пометки                             : UTC 2013-10-14 22:36:17

Видео
Идентификатор                            : 1
Формат                                   : AVC
Формат/Информация                        : Advanced Video Codec
Профиль формата                          : [email protected]
Параметр CABAC формата                   : Нет
Параметр ReFrames формата                : 3 кадра
Идентификатор кодека                     : avc1
Идентификатор кодека/Информация          : Advanced Video Coding
Продолжительность                        : 4 м. 18 с.
Продолжительность оригинала              : 4 м. 18 с.
Битрейт                                  : 3008 Кбит/сек
Ширина                                   : 1440 пикселей
Высота                                   : 860 пикселей
Соотношение сторон                       : 1,674
Режим частоты кадров                     : Переменный
Частота кадров                           : 30,000 кадров/сек
Минимальная частота кадров               : 30,000 кадров/сек
Максимальная частота кадров              : 30,030 кадров/сек
Стандарт вещания                         : NTSC
Цветовое пространство                    : YUV
Субдискретизация насыщенности            : 4:2:0
Битовая глубина                          : 8 бит
Тип развёртки                            : Прогрессивная
Бит/(Пиксели*Кадры)                      : 0.081
Размер потока                            : 92,6 Мбайт (98%)
Размер потока оригинала                  : 92,6 Мбайт (98%)
Язык                                     : English
Дата кодирования                         : UTC 2013-10-14 22:36:20
Дата пометки                             : UTC 2013-10-14 22:36:20
mdhd_Duration                            : 258233

Аудио
Идентификатор                            : 2
Формат                                   : AAC
Формат/Информация                        : Advanced Audio Codec
Профиль формата                          : LC
Идентификатор кодека                     : 40
Продолжительность                        : 4 м. 18 с.
Продолжительность оригинала              : 4 м. 18 с.
Вид битрейта                             : Переменный
Битрейт                                  : 61,7 Кбит/сек
Максимальный битрейт                     : 73,7 Кбит/сек
Каналы                                   : 2 канала
Расположение каналов                     : Front: L R
Частота                                  : 44,1 КГц
Метод сжатия                             : С потерями
Размер потока                            : 1,90 Мбайт (2%)
Размер потока оригинала                  : 1,90 Мбайт (2%)
Язык                                     : English
Дата кодирования                         : UTC 2013-10-14 22:36:20
Дата пометки                             : UTC 2013-10-14 22:36:20
mdhd_Duration                            : 258276
Скриншоты
     
pic
[rustorka.com]Фотошоп-Креатив (2013).torrent
 СЕРЕБРЯНАЯ РАЗДАЧА! СКАЧАННОЕ ЗАСЧИТЫВАЕТСЯ ТОЛЬКО НАПОЛОВИНУ! 
Вечный
Трекер: Зарегистрирован

magnet ссылка

 


Скачать .torrent

138 KB

Статус: проверено (by Арт33 в 07-Сен-14 21:48)
Зарегистрирован: 07-Сен-14 20:44
Скачан: 132 раза
Размер: 8.36 GB | 
Поблагодарили:
Скачать Фотошоп - Креатив. Видеокурс [Алексей Кузьмичев] (2013, Photoshop, PCRec) R.G. Мастер-Класс торрент
 


Похожие раздачи

Текущее время: 24-Июн 19:06

Часовой пояс: GMT + 3



Вы не можете начинать темы
Вы не можете отвечать на сообщения
Вы не можете редактировать свои сообщения
Вы не можете удалять свои сообщения
Вы не можете голосовать в опросах
Вы не можете прикреплять файлы к сообщениям
Вы не можете скачивать файлы