Loading...
Error
 

Скачать торрент Мастер-классы по Adobe Illustrator CS6 (Николай Миронов) [2013, видеотуторы, HDTV 720] R.G. Мастер-Класс

 
Автор Сообщение

Tarkin

post 23-Сен-14 10:24

Мастер-классы по Adobe Illustrator CS6


pic
  • pic Год выпуска: 2013
  • pic Страна: Россия

  • pic Тематика: Adobe Illustrator
  • pic Тип материала: Видеотуторы

  • pic Продолжительность: 03:26:00
  • pic Язык: Русский

  • pic Автор: Николай Миронов

    pic
    pic Видеотуторы Николая Миронова по цвету, паттернам, градиентам и прозрачности в Adobe Illustrator CS6.

  • pic Качество: HDTV 720
  • pic Формат: MP4
  • pic Видео кодек: AVC
  • pic Аудио кодек: AAC
  • pic Видео: 1280х720, ~417 Kbps, 15 fps
  • pic Аудио: 192 Kbps, 2 ch, 44.1 Кгц


MI
Формат : MPEG-4
Профиль формата : Base Media / Version 2
Идентификатор кодека : mp42
Размер файла : 206 Мбайт
Продолжительность : 54 м.
Режим общего битрейта : Переменный
Общий поток : 534 Кбит/сек
Дата кодирования : UTC 2012-07-11 09:04:40
Дата пометки : UTC 2012-07-11 09:04:40
gsst : 0
gstd : 3240645
gssd : BADC23A67HH1365682934433550
gshh : r7---sn-n8v7ln7y.c.youtube.com

Видео
Идентификатор : 1
Формат : AVC
Формат/Информация : Advanced Video Codec
Профиль формата : [email protected]
Параметр CABAC формата : Да
Параметр ReFrames формата : 1 кадр
Идентификатор кодека : avc1
Идентификатор кодека/Информация : Advanced Video Coding
Продолжительность : 54 м.
Битрейт : 410 Кбит/сек
Максимальный битрейт : 3862 Кбит/сек
Ширина : 1280 пикселей
Высота : 720 пикселей
Соотношение сторон : 16:9
Режим частоты кадров : Постоянный
Частота кадров : 15,000 кадров/сек
Цветовое пространство : YUV
Субдискретизация насыщенности : 4:2:0
Битовая глубина : 8 бит
Тип развёртки : Прогрессивная
Бит/(Пиксели*Кадры) : 0.030
Размер потока : 158 Мбайт (77%)
Дата пометки : UTC 2012-07-11 09:04:41

Аудио
Идентификатор : 2
Формат : AAC
Формат/Информация : Advanced Audio Codec
Профиль формата : LC
Идентификатор кодека : 40
Продолжительность : 54 м.
Вид битрейта : Переменный
Битрейт : 122 Кбит/сек
Максимальный битрейт : 186 Кбит/сек
Каналы : 2 канала
Расположение каналов : Front: L R
Частота : 44,1 КГц
Метод сжатия : С потерями
Размер потока : 47,2 Мбайт (23%)
Заголовок : IsoMedia File Produced by Google, 5-11-2011
Дата кодирования : UTC 2012-07-11 09:04:40
Дата пометки : UTC 2012-07-11 09:04:41
Скриншоты
pic
Master classes in Adobe Illustrator CS6.torrent
Трекер: Зарегистрирован

magnet ссылка

 


Скачать .torrent

20 KB

Статус: проверено (by Music Listener в 23-Сен-14 21:05)
Зарегистрирован: 23-Сен-14 10:24
Скачан: 104 раза
Размер: 973 MB | 
Поблагодарили:
Скачать Мастер-классы по Adobe Illustrator CS6 (Николай Миронов) [2013, видеотуторы, HDTV 720] R.G. Мастер-Класс торрент
 


Похожие раздачи

SANNY

post 14-Дек-14 16:12 (спустя 2 месяца 21 день)

http://rustorka.com/forum/viewtopic.php?t=156702

Текущее время: 19-Июн 21:54

Часовой пояс: GMT + 3



Вы не можете начинать темы
Вы не можете отвечать на сообщения
Вы не можете редактировать свои сообщения
Вы не можете удалять свои сообщения
Вы не можете голосовать в опросах
Вы не можете прикреплять файлы к сообщениям
Вы не можете скачивать файлы