Loading...
Error
 

Скачать торрент AutoCAD для дизайнера интерьера. Видеокурс (Сергей Чурсинов) [2014, обучающее видео, PCRec] R.G. Мастер-Класс

 
Автор Сообщение

Tarkin

post 27-Мар-15 17:25

AutoCAD для дизайнера интерьера


pic
  • pic Год выпуска: 2014
  • pic Страна: Россия

  • pic Тематика: Обучающее видео
  • pic Тип материала: Видеокурс

  • pic Продолжительность: 05:15:47
  • pic Язык: Русский
  • pic Автор: Сергей Чурсинов

    pic
    pic Курс направлен на то, чтобы научить дизайнера легко и быстро чертить в программе AutoCAD. Очень часто на практике приходится сталкиваться с файлами, созданными в программе AutoCAD. И умение обращаться с такими файлами только ускорит работу с проектом. Создать чертеж вашего проекта в AutoCAD, отредактировать готовый файл в формате DWG и экспортировать его для дальнейшей работы в 3ds Max.

  • pic Качество: PCRec
  • pic Формат: MP4
  • pic Видео кодек: AVC
  • pic Аудио кодек: AAC
  • pic Видео: 509 kb/s, 1024*768 - 5.000 fps
  • pic Аудио: AAC, 126 kb/s (2 ch)


Содержание
Изучив материалы этого модуля, вы научитесь:

Модуль первый:
Материалы этого дня посвящены основам работы в программе AutoCAD.
· Правильно настраивать интерфейс программы для удобной работы;
· Пользоваться декартовыми и полярными координатами;
· Пользоваться инструментом Отрезок;
· Использовать систему привязок при выполнении построений в программе;
· Общим принципам редактирования всех объектов в программе AutoCAD;
· Использовать инструменты редактирования: Обрезка, Смещение, Перемещение, Копирование, Смещение.

Модуль второй:
· Правильно работать с инструментами Полиния и Дуга;
· Создавать и работать со слоями;

Модуль третий:
Материалы этого дня познакомят вас с инструментами Штриховка и Градиент
· Настраивать и использовать инструмент Штриховка для оформления чертежей;
· Работать с инструментом Градиент для заливки фасадов или разверток стен;
· Создавать, редактировать и использовать блоки.

Модуль четвертый:
Материалы этого дня продолжают знакомить вас с программой AutoCAD.
· Работать с текстом в программе AutoCAD, создавать и настраивать текстовые стили;
· Наносить любые размеры на чертеже;
· Создавать размерные стили для различных вариантов размеров.

Модуль пятый:
Материалы этого дня продолжают знакомить вас с программой AutoCAD.
· Создавать различные планы дизайнерского проекта.

Модуль шестой:
Материалы этого дня содержат все необходимое для создания чертежей дизайнерского проекта в программе AutoCAD.
· Создавать рамки со штампом и сохранять их в виде блока;
· Настраивать листы нужного формата;
· Работать с видовыми экранами в пространстве листа;
· Правильно распечатывать созданные чертежи.

Модуль седьмой:
Материалы этого дня содержат все необходимое для экспорта плана помещения из программы AutoCAD в программу 3ds MAX.
MI

Код:

Формат                                   : MPEG-4
Профиль формата                          : Base Media / Version 2
Идентификатор кодека                     : mp42
Размер файла                             : 51,6 Мбайт
Продолжительность                        : 13 м.
Общий поток                              : 551 Кбит/сек
Дата кодирования                         : UTC 2012-03-15 21:01:49
Дата пометки                             : UTC 2012-03-15 21:01:49

Видео
Идентификатор                            : 1
Формат                                   : AVC
Формат/Информация                        : Advanced Video Codec
Профиль формата                          : [email protected]
Параметр CABAC формата                   : Да
Параметр ReFrames формата                : 4 кадра
Параметр GOP формата                     : M=1, N=25
Идентификатор кодека                     : avc1
Идентификатор кодека/Информация          : Advanced Video Coding
Продолжительность                        : 13 м.
Продолжительность оригинала              : 13 м.
Битрейт                                  : 422 Кбит/сек
Ширина                                   : 1024 пикселя
Высота                                   : 768 пикселей
Соотношение сторон                       : 4:3
Режим частоты кадров                     : Постоянный
Частота кадров                           : 5,000 кадров/сек
Цветовое пространство                    : YUV
Субдискретизация насыщенности            : 4:2:0
Битовая глубина                          : 8 бит
Тип развёртки                            : Прогрессивная
Бит/(Пиксели*Кадры)                      : 0.107
Размер потока                            : 39,5 Мбайт (77%)
Размер потока оригинала                  : 39,6 Мбайт (77%)
Язык                                     : English
Дата кодирования                         : UTC 2012-03-15 21:01:49
Дата пометки                             : UTC 2012-03-15 21:01:49
Основные цвета                           : BT.709
Характеристики трансфера                 : BT.709
Коэффициенты матрицы                     : BT.709
mdhd_Duration                            : 785229

Аудио
Идентификатор                            : 2
Формат                                   : AAC
Формат/Информация                        : Advanced Audio Codec
Профиль формата                          : LC
Идентификатор кодека                     : 40
Продолжительность                        : 13 м.
Продолжительность оригинала              : 13 м.
Вид битрейта                             : Постоянный
Битрейт                                  : 126 Кбит/сек
Каналы                                   : 2 канала
Расположение каналов                     : Front: L R
Частота                                  : 44,1 КГц
Метод сжатия                             : С потерями
Размер потока                            : 11,8 Мбайт (23%)
Размер потока оригинала                  : 11,8 Мбайт (23%)
Язык                                     : English
Дата кодирования                         : UTC 2012-03-15 21:01:49
Дата пометки                             : UTC 2012-03-15 21:01:49
mdhd_Duration                            : 784832
Скриншоты
pic
AutoCAD для дизайнера.torrent
Трекер: Зарегистрирован

magnet ссылка

 


Скачать .torrent

31 KB

Статус: проверено (by Tarkin в 27-Мар-15 17:25)
Зарегистрирован: 27-Мар-15 17:25
Скачан: 78 раз
Размер: 2.11 GB | 
Поблагодарили:
Скачать AutoCAD для дизайнера интерьера. Видеокурс (Сергей Чурсинов) [2014, обучающее видео, PCRec] R.G. Мастер-Класс торрент
 


Похожие раздачи

Текущее время: 22-Сен 19:48

Часовой пояс: GMT + 3



Вы не можете начинать темы
Вы не можете отвечать на сообщения
Вы не можете редактировать свои сообщения
Вы не можете удалять свои сообщения
Вы не можете голосовать в опросах
Вы не можете прикреплять файлы к сообщениям
Вы не можете скачивать файлы