Loading...
Error
 

Скачать торрент Lightroom для свадебного фотографа . Видеокурс [Владимир Котов (Fotoshkola.net)] (2015, Photoshop, PCRec) R.G. Мастер-Класс

 
Автор Сообщение

Music Listener

post 09-Июл-15 16:44

Lightroom для свадебного фотографа


pic
  • Год выпуска: 2015
  • Страна: Россия
  • Тематика: Photoshop
  • Тип материала: Обучающее видео
  • Продолжительность: 01:45:48
  • Автор: Владимир Котов (Fotoshkola.net)
  • Язык: Русский
    Описание:
    Курс предназначен для фотографов, желающих вывести обработку фотографий на профессиональный уровень. Обучение ведется в специфике работы свадебного фотографа, однако материал весьма подробен и будет полезен всем, кто хочет освоить Adobe Lightroom.

    Вам понадобится: компьютер с доступом в интернет, наличие нескольких фотографий, которые вы будете использовать для обработки и желание создавать красивые стилизованные изображения.


    Программа курса:
    • Организация рабочего процесса
    В этом уроке об основных принципах потоковой обработки изображений и сформируем наш рабочий процесс, а также экспорт и первичный отбор изображений.

    • Базовые коррекции
    Базовые коррекции, несмотря на их кажущуюся простоту, используются при обработке наиболее часто — поэтому вы должны знать их в совершенстве.

    • Цветовая коррекция
    В этом уроке о мощных средствах цветовой коррекции, позволяющие настраивать цвет в соответствии с вашими замыслами. Кроме того, о способах повышения детализации изображения.

    • Ретушь и локальная коррекция
    Часто бывает, что впечатление от снимка портят какие-то мелочи. В этом уроке научимся устранять их при помощи ретуши. А с помощью инструментов локальной коррекции вы научитесь влиять на отдельные фрагменты изображения, чтобы сделать их более выразительными.

    • Творческая обработка
    В этом уроке вы научитесь тонировать снимки, узнаете о нюансах преобразования цветных изображений в черно-белые, а также познакомитесь с другими средствами для творческой обработки изображений.

    • Автоматизация обработки изображений
    Автоматизируя рутинные операции, можно значительно ускорить процесс обработки и облегчить себе жизнь. В этом уроке вы познакомитесь не только со встроенными в Lightroom средствами автоматизации рабочего процесса, но и с дополнительными плагинами, которые позволят легко и быстро получить высококачественные снимки.

    • Ретушь в Photoshop
    Как бы вы не хотели автоматизировать весь процесс обработки, ретушь парадных портретов все-таки придется делать вручную. В этом уроке вы познакомитесь с техниками ретуши, применение которых даст максимально качественный результат.

    • Экспорт и печать
    Последний урок посвящен финальным этапам рабочего процесса — сохранению и печати обработанных изображений. Кроме того, поговорим об общей настройке системы на комфортную работу и максимальную производительность.


  • Качество: PCRec
  • Формат: MP4, docx
  • Видео кодек: AVC
  • Аудио кодек: AAC-LC
  • Видео: avc1, 1280x720, 25.000 fps, 1050 Kbps
  • Аудио: AAC-LC, 44.1 KHz, 2 ch stereo, 126 Kbps



MediaInfo

Код:

Общее
Полное имя                               : D:\Мастер-Класс\Lightroom для свадебного фотографа (2015)\1.mp4
Формат                                   : MPEG-4
Профиль формата                          : Base Media / Version 2
Идентификатор кодека                     : mp42
Размер файла                             : 143 Мбайт
Продолжительность                        : 16 м.
Режим общего битрейта                    : Переменный
Общий поток                              : 1181 Кбит/сек
Дата кодирования                         : UTC 2011-09-22 11:04:22
Дата пометки                             : UTC 2011-09-22 11:04:22
©TIM                                     : 00:00:00:00
©TSC                                     : 25
©TSZ                                     : 1

Видео
Идентификатор                            : 1
Формат                                   : AVC
Формат/Информация                        : Advanced Video Codec
Профиль формата                          : [email protected]
Параметр CABAC формата                   : Да
Параметр ReFrames формата                : 3 кадра
Идентификатор кодека                     : avc1
Идентификатор кодека/Информация          : Advanced Video Coding
Продолжительность                        : 16 м.
Битрейт                                  : 1050 Кбит/сек
Ширина                                   : 1280 пикселей
Высота                                   : 720 пикселей
Соотношение сторон                       : 16:9
Режим частоты кадров                     : Постоянный
Частота кадров                           : 25,000 кадров/сек
Стандарт вещания                         : PAL
Цветовое пространство                    : YUV
Субдискретизация насыщенности            : 4:2:0
Битовая глубина                          : 8 бит
Тип развёртки                            : Прогрессивная
Бит/(Пиксели*Кадры)                      : 0.046
Размер потока                            : 127 Мбайт (89%)
Язык                                     : English
Дата кодирования                         : UTC 2011-09-22 11:04:22
Дата пометки                             : UTC 2011-09-22 11:04:22
Цветовой диапазон                        : Limited

Аудио
Идентификатор                            : 2
Формат                                   : AAC
Формат/Информация                        : Advanced Audio Codec
Профиль формата                          : LC
Идентификатор кодека                     : 40
Продолжительность                        : 16 м.
Продолжительность оригинала              : 16 м.
Вид битрейта                             : Переменный
Битрейт                                  : 126 Кбит/сек
Максимальный битрейт                     : 209 Кбит/сек
Каналы                                   : 2 канала
Расположение каналов                     : Front: L R
Частота                                  : 44,1 КГц
Метод сжатия                             : С потерями
Размер потока                            : 15,2 Мбайт (11%)
Размер потока оригинала                  : 15,2 Мбайт (11%)
Язык                                     : English
Дата кодирования                         : UTC 2011-09-22 11:04:22
Дата пометки                             : UTC 2011-09-22 11:04:22
Скриншоты
     
pic
[rustorka.com]Lightroom для свадебного фотографа (2015).torrent
Трекер: Зарегистрирован

magnet ссылка

 


Скачать .torrent

14 KB

Статус: проверено (by Арт33 в 09-Июл-15 18:09)
Зарегистрирован: 09-Июл-15 16:44
Скачан: 152 раза
Размер: 1.36 GB | 
Поблагодарили:
Скачать Lightroom для свадебного фотографа . Видеокурс [Владимир Котов (Fotoshkola.net)] (2015, Photoshop, PCRec) R.G. Мастер-Класс торрент
 


Похожие раздачи

Текущее время: 24-Июн 18:25

Часовой пояс: GMT + 3



Вы не можете начинать темы
Вы не можете отвечать на сообщения
Вы не можете редактировать свои сообщения
Вы не можете удалять свои сообщения
Вы не можете голосовать в опросах
Вы не можете прикреплять файлы к сообщениям
Вы не можете скачивать файлы