Loading...
Error
 

Скачать торрент Быстрое обучение игре на гитаре. Видеокурс [Павел Колесников] (2010, Игра на гитаре, PCRec) R.G. Мастер-Класс

 
Автор Сообщение

Music Listener

post 22-Авг-15 17:33

Быстрое обучение игре на гитаре


pic
  • Год выпуска: 2014
  • Страна: Россия
  • Тематика: Игра на гитаре
  • Тип материала: Обучающее видео
  • Продолжительность: 06:25:33
  • Автор: Павел Колесников
  • Язык: Русский
  • Описание:
    Это комплексное пошаговое руководство в видео формате, с помощью которого Вы научитесь играть на гитаре любые песни правильно и классно в кратчайшие сроки. Все уроки в видео, где всё очень четко и понятно объясняется

    Изучив курс вы:
    • Будете уверенно брать все основные формы открытых аккордов, аккордов с баррэ во всех позициях вдоль всего грифа, получая при этом качественное, приятное звучание без дребезжания.
    • Научитесь переставлять аккорды, использующие баррэ, переходить с них на открытые аккорды и обратно, параллельно улучшив качество и скорость взятия остальных аккордов.
    • Научитесь всем основным видам боя, перебора, а так же научитесь петь под гитару.
    • Выйдете на совершенно новый качественный уровень игры и откроете для себя новые горизонты, которые позволят вам играть сложные песни, освоить которые раньше не получалось.
    • Вы сможете поразить всех друзей своей игрой на празднике в кругу друзей или участвуя в составе музыкальной группы.

    Научившись играть на гитаре, парень с легкостью может покорить сердце девушки. Как известно "женщины любят ушами". А девушки помимо очаровывания своих возлюбленных, могут стать душой вечеринки, выступая с сольными композициями.


    Содержание:
    Курс разбит на 6 разделов:
    • Раздел 1: Введение. (4:26)
    • Раздел 2: Что нужно знать! (13:24)
    • Раздел 3: Разработка рук. Первые мелодии. (01:01:47)
    • Раздел 4: Игра аккордами. (02:40:39)
    • Раздел 5: Аккорды на Баррэ. (01:56:54)
    • Раздел 6: Полезности. (28:23)


  • Качество: PCRec
  • Формат: AVI
  • Видео кодек: H.264
  • Аудио кодек: MP3
  • Видео: H264, 1280x720, 2935 Kbps, 24 fps
  • Аудио: MP3, 44.1 KHz, 2ch, 192 Kbps



MI

Код:

Общее
Полное имя                               : D:\Мастер-Класс\Быстрое обучение игре на гитаре\Диск 1\1. Введение\Введение.avi
Формат                                   : AVI
Формат/Информация                        : Audio Video Interleave
Размер файла                             : 98,8 Мбайт
Продолжительность                        : 4 м. 26 с.
Общий поток                              : 3111 Кбит/сек
Программа кодирования                    : Lavf52.94.0

Видео
Идентификатор                            : 0
Формат                                   : AVC
Формат/Информация                        : Advanced Video Codec
Профиль формата                          : [email protected]
Параметр CABAC формата                   : Да
Параметр ReFrames формата                : 2 кадра
Идентификатор кодека                     : H264
Продолжительность                        : 4 м. 26 с.
Битрейт                                  : 2935 Кбит/сек
Ширина                                   : 1280 пикселей
Высота                                   : 720 пикселей
Соотношение сторон                       : 16:9
Режим частоты кадров                     : Переменный
Частота кадров                           : 23,976 кадра/сек
Цветовое пространство                    : YUV
Субдискретизация насыщенности            : 4:2:0
Битовая глубина                          : 8 бит
Тип развёртки                            : Прогрессивная
Бит/(Пиксели*Кадры)                      : 0.133
Размер потока                            : 92,3 Мбайт (93%)
Библиотека кодирования                   : x264 core 112 r1834 a51816a
Настройки программы                      : cabac=1 / ref=1 / deblock=1:0:0 / analyse=0x1:0 / me=dia / subme=2 / psy=1 / psy_rd=0.00:0.00 / mixed_ref=0 / me_range=16 / chroma_me=1 / trellis=0 / 8x8dct=0 / cqm=0 / deadzone=21,11 / fast_pskip=1 / chroma_qp_offset=0 / threads=8 / sliced_threads=0 / nr=0 / decimate=1 / interlaced=0 / constrained_intra=0 / bframes=3 / b_pyramid=0 / b_adapt=1 / b_bias=0 / direct=3 / weightb=0 / open_gop=0 / weightp=2 / keyint=250 / keyint_min=25 / scenecut=40 / intra_refresh=0 / rc_lookahead=40 / rc=abr / mbtree=1 / bitrate=2935 / ratetol=1.0 / qcomp=0.60 / qpmin=10 / qpmax=51 / qpstep=4 / ip_ratio=1.41 / aq=1:1.00

Аудио
Идентификатор                            : 1
Формат                                   : MPEG Audio
Версия формата                           : Version 1
Профиль формата                          : Layer 3
Режим                                    : Joint stereo
Идентификатор кодека                     : 55
Идентификатор кодека/Подсказка           : MP3
Продолжительность                        : 4 м. 26 с.
Вид битрейта                             : Постоянный
Битрейт                                  : 192 Кбит/сек
Каналы                                   : 2 канала
Частота                                  : 44,1 КГц
Метод сжатия                             : С потерями
Размер потока                            : 6,09 Мбайт (6%)
Выравнивание                             : Соединение по промежуткам
Продолжительность промежутка             : 26  мс. (0,63 видеокадр)
Скриншоты
pic
[rustorka.com]Быстрое обучение игре на гитаре (2014).torrent
 СЕРЕБРЯНАЯ РАЗДАЧА! СКАЧАННОЕ ЗАСЧИТЫВАЕТСЯ ТОЛЬКО НАПОЛОВИНУ! 
Вечный
Трекер: Зарегистрирован

magnet ссылка

 


Скачать .torrent

67 KB

Статус: проверено (by Music Listener в 22-Авг-15 18:35)
Зарегистрирован: 22-Авг-15 17:33
Скачан: 206 раз
Размер: 9.17 GB | 
Поблагодарили:
Скачать Быстрое обучение игре на гитаре. Видеокурс [Павел Колесников] (2010, Игра на гитаре, PCRec) R.G. Мастер-Класс торрент
 


Похожие раздачи

ShutUp

post 16-Июл-16 07:01 (спустя 10 месяцев)

Можно ли как нибудь возобновить раздачу?

dirtzond

post 15-Мар-19 02:04 (спустя 2 года 7 месяцев)

Станьте, пожалуйста, кто нибудь на раздачу!

Текущее время: 24-Май 20:59

Часовой пояс: GMT + 3



Вы не можете начинать темы
Вы не можете отвечать на сообщения
Вы не можете редактировать свои сообщения
Вы не можете удалять свои сообщения
Вы не можете голосовать в опросах
Вы не можете прикреплять файлы к сообщениям
Вы не можете скачивать файлы