Loading...
Error
 

Скачать торрент Говоритика. Полный комплект. Видеокурс [Haдeждa Cчacтливaя] (2014-2015, Изучение языка, DVDRip) R.G. Мастер-Класс

 
Автор Сообщение

Music Listener

post 04-Сен-15 20:34

Paзбepиxa. 3-х месячный тренинг английского языка


pic
  • Год выпуска: 2014-2015
  • Страна: Россия
  • Тематика: Изучение языка
  • Тип материала: Обучающее видео
  • Продолжительность: 14:13:25
  • Автор: Haдeждa Cчacтливaя
  • Язык: Русский/английский
    Описание:
    Автор методик преподавания английского языка, создатель и руководитель школы Нарру Норе Моviе Sсhооl оf Еnglish, преподаватель, методист, автор и ведущая тренинговых программ Haдeждa Cчacтливaя. Это первый тренинг Нарру Норе Моviе Sсhооl оf Еnglish, который рекомендует Надежда.

    Что такое говоритика?
    Вы наверняка учили иностранный язык в школе — большинство «проходили» английский, кому-то достались немецкий или французский... И практически всех мучили грамматикой. Поэтому слова «грамматика английского языка» для Вас, возможно, звучат как что-то страшное, серое, пыльное и непонятное... Для своих студентов я переработала обычную грамматику и сделала из нее Говоритику. Вместо набора сухих и непонятных школьных правил, в "Говоритике" я показываю логику — как в языке можно строить предложения и почему именно так.


    Содержание:
    ● Структура английского предложения
    ● Торт английской реальности
    ● Яблочко Д С
    ● Т-образная матрица
    ● 4 формы глагола
    ● Ещё немного о яблочке
    ● Виды английских предложений
    ● Помощники и лжепомощники
    ● Вопросы
    ● Вопросы. Виды вопросов
    ● Вопросительные cоединялки
    ● Соединялка if
    ● Соединялка that
    ● To-шка и простоFOR(!)
    ● Соединялки, to шки и просто FOR
    ● Закон согласования
    ● Как избежать закон согласования
    ● Условные предложения
    ● Бышки-мечталки, хотелки
    ● Бышки-сожалелки, упрекалки
    ● Предпологалки
    ● «Хочу чтобы ты...», «Вижу как ты...»
    ● «Предполагаеся что...»

    Бонусы:
    ● Методика "Мерседес". Разговорный английский. Английский для иммигрантов.
    ● Вся английская грамматика за 77 минут. То, чего нет в учебниках
    ● DID или HAVE DONE? Как правильно употреблять английские времена
    ● Would, что это такое и как с ним НЕ бороться


  • Качество: DVDRip
  • Формат: MP4 (+ доп. материалы)
  • Видео кодек: AVC
  • Аудио кодек: AAC
  • Видео: avc1, 1280x720/640x360, ~378 - 871 Kbps, 30 fps
  • Аудио: AAC, 48 KHz, 2 ch stereo, 192/96 Kbps



MI

Код:

Общее
Полное имя                               : D:\Мастер-Класс\Говоритика. Полный комплект (2015)\ГОВОРИТИКА - ч5 - 4 формы глагола.mp4
Формат                                   : MPEG-4
Профиль формата                          : Base Media / Version 2
Идентификатор кодека                     : mp42
Размер файла                             : 381 Мбайт
Продолжительность                        : 49 м.
Режим общего битрейта                    : Переменный
Общий поток                              : 1065 Кбит/сек
Дата кодирования                         : UTC 2014-06-20 17:01:10
Дата пометки                             : UTC 2014-06-20 17:01:10
gsst                                     : 0
gstd                                     : 2998670
gssd                                     : BADC21582HM1437497780176097
gshh                                     : r2---sn-3c27ln7z.googlevideo.com

Видео
Идентификатор                            : 1
Формат                                   : AVC
Формат/Информация                        : Advanced Video Codec
Профиль формата                          : [email protected]
Параметр CABAC формата                   : Да
Параметр ReFrames формата                : 1 кадр
Параметр GOP формата                     : M=1, N=60
Идентификатор кодека                     : avc1
Идентификатор кодека/Информация          : Advanced Video Coding
Продолжительность                        : 49 м.
Битрейт                                  : 871 Кбит/сек
Максимальный битрейт                     : 3550 Кбит/сек
Ширина                                   : 1280 пикселей
Высота                                   : 720 пикселей
Соотношение сторон                       : 16:9
Режим частоты кадров                     : Постоянный
Частота кадров                           : 30,000 кадров/сек
Цветовое пространство                    : YUV
Субдискретизация насыщенности            : 4:2:0
Битовая глубина                          : 8 бит
Тип развёртки                            : Прогрессивная
Бит/(Пиксели*Кадры)                      : 0.031
Размер потока                            : 311 Мбайт (82%)
Дата пометки                             : UTC 2014-06-20 17:03:14

Аудио
Идентификатор                            : 2
Формат                                   : AAC
Формат/Информация                        : Advanced Audio Codec
Профиль формата                          : LC
Идентификатор кодека                     : 40
Продолжительность                        : 49 м.
Вид битрейта                             : Переменный
Битрейт                                  : 192 Кбит/сек
Максимальный битрейт                     : 201 Кбит/сек
Каналы                                   : 2 канала
Расположение каналов                     : Front: L R
Частота                                  : 44,1 КГц
Метод сжатия                             : С потерями
Размер потока                            : 68,6 Мбайт (18%)
Заголовок                                : IsoMedia File Produced by Google, 5-11-2011
Дата кодирования                         : UTC 2014-06-20 17:02:20
Дата пометки                             : UTC 2014-06-20 17:03:14


Код:

Общее
Полное имя                               : D:\Мастер-Класс\Говоритика. Полный комплект (2015)\Грамматика С ПРИМЕРАМИ ч12 Вопросительные cоединялки.mp4
Формат                                   : MPEG-4
Профиль формата                          : Base Media / Version 2
Идентификатор кодека                     : mp42
Размер файла                             : 62,1 Мбайт
Продолжительность                        : 18 м.
Режим общего битрейта                    : Переменный
Общий поток                              : 476 Кбит/сек
Дата кодирования                         : UTC 2014-08-31 01:28:15
Дата пометки                             : UTC 2014-08-31 01:28:15
gsst                                     : 0
gstd                                     : 1093543
gssd                                     : BADC230E4MM1437497718129143
gshh                                     : r4---sn-3c27ln7y.googlevideo.com

Видео
Идентификатор                            : 1
Формат                                   : AVC
Формат/Информация                        : Advanced Video Codec
Профиль формата                          : [email protected]
Параметр CABAC формата                   : Нет
Параметр ReFrames формата                : 1 кадр
Параметр GOP формата                     : M=1, N=60
Идентификатор кодека                     : avc1
Идентификатор кодека/Информация          : Advanced Video Coding
Продолжительность                        : 18 м.
Битрейт                                  : 378 Кбит/сек
Максимальный битрейт                     : 947 Кбит/сек
Ширина                                   : 640 пикселей
Высота                                   : 360 пикселей
Соотношение сторон                       : 16:9
Режим частоты кадров                     : Постоянный
Частота кадров                           : 30,000 кадров/сек
Цветовое пространство                    : YUV
Субдискретизация насыщенности            : 4:2:0
Битовая глубина                          : 8 бит
Тип развёртки                            : Прогрессивная
Бит/(Пиксели*Кадры)                      : 0.055
Размер потока                            : 49,2 Мбайт (79%)
Дата пометки                             : UTC 2014-08-31 01:28:20

Аудио
Идентификатор                            : 2
Формат                                   : AAC
Формат/Информация                        : Advanced Audio Codec
Профиль формата                          : LC
Идентификатор кодека                     : 40
Продолжительность                        : 18 м.
Вид битрейта                             : Переменный
Битрейт                                  : 96,0 Кбит/сек
Максимальный битрейт                     : 103 Кбит/сек
Каналы                                   : 2 канала
Расположение каналов                     : Front: L R
Частота                                  : 44,1 КГц
Метод сжатия                             : С потерями
Размер потока                            : 12,5 Мбайт (20%)
Заголовок                                : IsoMedia File Produced by Google, 5-11-2011
Дата кодирования                         : UTC 2014-08-31 01:28:18
Дата пометки                             : UTC 2014-08-31 01:28:20

Скриншоты
     

pic
[rustorka.com]Говоритика. Полный комплект (2015).torrent
 СЕРЕБРЯНАЯ РАЗДАЧА! СКАЧАННОЕ ЗАСЧИТЫВАЕТСЯ ТОЛЬКО НАПОЛОВИНУ! 
Вечный
Трекер: Зарегистрирован

magnet ссылка

 


Скачать .torrent

39 KB

Статус: проверено (by Music Listener в 04-Сен-15 22:29)
Зарегистрирован: 04-Сен-15 20:34
Скачан: 352 раза
Размер: 7.15 GB | 
Поблагодарили:
Скачать Говоритика. Полный комплект. Видеокурс [Haдeждa Cчacтливaя] (2014-2015, Изучение языка, DVDRip) R.G. Мастер-Класс торрент
 


Похожие раздачи

izumindai

post 19-Окт-15 20:16 (спустя 1 месяц 14 дней)

Доходчиво объясняет, все понятно. Лучше даже чем некоторые тематические курсы. Кстати девушка довольно красивая и умная. :oops:

remix11

post 14-Фев-16 17:40 (спустя 3 месяца 25 дней)

Классно объясняет Надежда, всем кто изучает английский обязательно к просмотру!!! :D :D :D :D :D :D :D :D

trorhold

post 08-Фев-19 06:41 (спустя 2 года 11 месяцев)

Раздайте пожалуйста!!!

Текущее время: 26-Июн 08:55

Часовой пояс: GMT + 3



Вы не можете начинать темы
Вы не можете отвечать на сообщения
Вы не можете редактировать свои сообщения
Вы не можете удалять свои сообщения
Вы не можете голосовать в опросах
Вы не можете прикреплять файлы к сообщениям
Вы не можете скачивать файлы