Loading...
Error
 

Скачать торрент Тяжёлый Объект / Heavy Object (Ватанабэ Такаси) [24 из 24] [TV] [JAP+SUB] [без хардсаба] [2015 г., фантастика, приключения, комедия, HDTVRip 720p]

Страницы:  1, 2  След.

 
Автор Сообщение

onemeshnig

post 04-Окт-15 18:48

pic
pic
Год выпуска: 2015
Страна: Япония
Жанр: фантастика, приключения, комедия
Продолжительность: 24 мин.
Кол-во эпизодов: 24 эпизода
Перевод: Субтитры
Студия: pic
Режиссёр: Ватанабэ Такаси

Описание:
Теперь, когда их Объект уничтожен, вражеский может перемещаться беспрепятственно.
А означает это одну простую вещь.
Их всех убьют.
Несметный поток огня из пушек отправит их плоть, кости и внутренние органы в далёкий полёт, разбивая вдребезги всякую надежду.
Им не осталось других вариантов, кроме как бежать. И даже если они без колебаний пустятся в бегство, это будет чудо, если хотя бы каждый десятый солдат базы останется жив. Ни один из них не вспомнит основной приказ, действующий внутри армии — оставаться на своих местах и держать оборону.
Бесчеловечная игра в салки началась.

Качество: HDTVRip 720p
Формат: MP4
Видео кодек: H.264
Аудио кодек: AAC
Видео: MPEG4 Video (H264) 1280x720, 23.976 кадра/сек, 2870 Кбит/сек
Аудио: AAC 48 КГц, 2 канала, 213 Кбит/сек
Субтитры: RUS Soft [YakuSub Studio](внешним файлом)
MediaInfo
Общее
Полное имя : ...\Heavy Object\Heavy Object - 01.mp4
Формат : MPEG-4
Профиль формата : Base Media
Идентификатор кодека : isom
Размер файла : 530 Мбайт
Продолжительность : 23 м.
Режим общего битрейта : Переменный
Общий поток : 3087 Кбит/сек
Дата кодирования : UTC 2015-10-02 16:25:39
Дата пометки : UTC 2015-10-02 16:25:39

Видео
Идентификатор : 1
Формат : AVC
Формат/Информация : Advanced Video Codec
Профиль формата : [email protected]
Параметр CABAC формата : Да
Параметр ReFrames формата : 4 кадра
Идентификатор кодека : avc1
Идентификатор кодека/Информация : Advanced Video Coding
Продолжительность : 23 м.
Битрейт : 2870 Кбит/сек
Максимальный битрейт : 14,5 Мбит/сек
Ширина : 1280 пикселей
Высота : 720 пикселей
Соотношение сторон : 16:9
Режим частоты кадров : Постоянный
Частота кадров : 23,976 кадра/сек
Цветовое пространство : YUV
Субдискретизация насыщенности : 4:2:0
Битовая глубина : 8 бит
Тип развёртки : Прогрессивная
Бит/(Пиксели*Кадры) : 0.130
Размер потока : 493 Мбайт (93%)
Библиотека кодирования : x264 core 148 r2597 e86f3a1
Настройки программы : cabac=1 / ref=3 / deblock=1:0:0 / analyse=0x1:0x111 / me=hex / subme=7 / psy=1 / psy_rd=1.00:0.00 / mixed_ref=1 / me_range=16 / chroma_me=1 / trellis=1 / 8x8dct=0 / cqm=0 / deadzone=21,11 / fast_pskip=1 / chroma_qp_offset=-2 / threads=12 / lookahead_threads=2 / sliced_threads=0 / nr=0 / decimate=1 / interlaced=0 / bluray_compat=0 / constrained_intra=0 / bframes=3 / b_pyramid=2 / b_adapt=1 / b_bias=0 / direct=1 / weightb=1 / open_gop=0 / weightp=2 / keyint=240 / keyint_min=1 / scenecut=40 / intra_refresh=0 / rc_lookahead=40 / rc=crf / mbtree=1 / crf=20.0 / qcomp=0.60 / qpmin=0 / qpmax=69 / qpstep=4 / ip_ratio=1.40 / aq=1:1.50
Дата кодирования : UTC 2015-10-02 16:25:39
Дата пометки : UTC 2015-10-02 16:25:42
Цветовой диапазон : Limited
Основные цвета : BT.709
Характеристики трансфера : BT.709
Коэффициенты матрицы : BT.709

Аудио
Идентификатор : 2
Формат : AAC
Формат/Информация : Advanced Audio Codec
Профиль формата : LC
Идентификатор кодека : 40
Продолжительность : 23 м.
Вид битрейта : Переменный
Битрейт : 213 Кбит/сек
Максимальный битрейт : 259 Кбит/сек
Каналы : 2 канала
Расположение каналов : Front: L R
Частота : 48,0 КГц
Метод сжатия : С потерями
Размер потока : 36,6 Мбайт (7%)
Язык : Japanese
Дата кодирования : UTC 2015-10-02 16:13:36
Дата пометки : UTC 2015-10-02 16:25:42
Названия эпизодов
pic
01. ガリバーを縛る雑兵たち〜アラスカ極寒環境雪上戦Ⅰ 〜
02. ガリバーを縛る雑兵たち〜アラスカ極寒環境雪上戦ⅠⅠ 〜
03. ガリバーを縛る雑兵たち〜アラスカ極寒環境雪上戦Ⅲ 〜
04. 親指トムは油田を走る〜ジブラルタル通行阻止戦Ⅰ〜
05. 親指トムは油田を走る〜ジブラルタル通行阻止戦Ⅱ〜
06. 蟻とキリギリスの戦争〜オセアニア軍事国攻略戦Ⅰ〜
07. 蟻とキリギリスの戦争〜オセアニア軍事国攻略戦Ⅱ〜
08. 蟻とキリギリスの戦争〜オセアニア軍事国攻略戦Ⅲ〜
09. 障害物競走なら普通は泥まみれ〜南極大陸制圧戦〜
10. ニ人三脚登山は命懸けで〜イグアス山岳砲撃戦Ⅰ〜
11. ニ人三脚登山は命懸けで〜イグアス山岳砲撃戦Ⅱ〜
12. 二人三脚登山は命懸けで イグアス山岳砲撃戦Ⅲ〜
13. 騎馬戦は足元を崩すべし アマゾンシティ総力戦I〜
14. 騎馬戦は足元を崩すべし〜アマゾンシティ総力戦Ⅱ〜
15. ジャンクの墓はレアメタルの山〜アラスカ戦場跡迎撃戦Ⅰ〜
16. ジャンクの墓はレアメタルの山〜アラスカ戦場跡迎撃戦Ⅱ〜
17. 札束の散らばる炭鉱〜カムチャッカ半島夜間奇襲電撃戦Ⅰ〜
18. 札束の散らばる炭鉱〜カムチャッカ半島夜間奇襲電撃戦Ⅱ〜
19. 札束の散らばる炭鉱〜カムチャッカ半島夜間奇襲電撃戦Ⅲ〜
20. 名誉に値段はつけられない〜ビクトリア島緊急追撃戦Ⅰ〜
21. 名誉に値段はつけられない〜ビクトリア島緊急追撃戦Ⅱ〜
22. 名誉に値段はつけられない〜ビクトリア島緊急追撃戦Ⅲ〜
23. 野に咲く花に鎮魂の歌をベイビーマグナム破壊戦I〜
24. 野に咲く花に鎮魂の歌をベイビーマグナム破壊戦Ⅱ〜
Скриншоты
Трейлеры
Heavy Object.torrent
Трекер: Зарегистрирован

magnet ссылка

 


Скачать .torrent

28 KB

Статус: проверено (by BRinkaaa в 27-Мар-16 21:27)
Зарегистрирован: 27-Мар-16 20:14
Скачан: 89 раз
Размер: 10.03 GB | 
Поблагодарили:
Скачать Тяжёлый Объект / Heavy Object (Ватанабэ Такаси) [24 из 24] [TV] [JAP+SUB] [без хардсаба] [2015 г., фантастика, приключения, комедия, HDTVRip 720p] торрент
 


Похожие раздачи

Zimet-Derk

post 04-Окт-15 20:08 (спустя 1 час 20 минут)

На ум приходит такое сравнение: "Колобок страдающий клептоманией, объелся астертоидов и ограбил оружейный склаж"

onemeshnig

post 04-Окт-15 20:35 (спустя 27 минут)

Zimet-Derk :lol:

onemeshnig

post 11-Окт-15 10:29 (спустя 6 дней)

Добавлена 2 серия!

Zimet-Derk

post 12-Окт-15 22:10 (спустя 1 день 11 часов)

Что то не качает, уже 2 дня не могу подключиться ни к одному сидеру данной раздачи, хотя другие раздачи качаются на ура.

onemeshnig

post 13-Окт-15 08:09 (спустя 9 часов)

Zimet-Derk даже и не знаю что сказать... Если бы я был единственным сидом было бы проще искать причину...

jax1979

post 18-Окт-15 18:52 (спустя 5 дней)

Ц Zimet-Derk писал(а):

Что то не качает, уже 2 дня не могу подключиться ни к одному сидеру данной раздачи, хотя другие раздачи качаются на ура
Попробуй в проге нажать на раздаче правой клавишей и выбери - принудительно.

onemeshnig

post 24-Окт-15 06:51 (спустя 5 дней)

Переводчик бросил проект...

onemeshnig

post 26-Окт-15 21:16 (спустя 2 дня 14 часов)

Добавлены серии 3-4, заменены субтитры!

onemeshnig

post 02-Ноя-15 18:17 (спустя 6 дней)

Добавлена 5 серия!

onemeshnig

post 12-Ноя-15 17:56 (спустя 9 дней)

Добавлена 6 серия!

onemeshnig

post 15-Ноя-15 01:47 (спустя 2 дня 7 часов)

Добавлена 7 серия!

onemeshnig

post 26-Ноя-15 23:36 (спустя 11 дней)

Добавлена 8 серия!

onemeshnig

post 04-Дек-15 19:22 (спустя 7 дней)

Добавлена 9 серия!

SMOK17

post 04-Дек-15 21:33 (спустя 2 часа 10 минут)

Ребят это первый сезон или какое то продолжение чего то?

suffering_pain

post 04-Дек-15 23:04 (спустя 1 час 31 минута)

Первый сезон.

onemeshnig

post 16-Дек-15 21:00 (спустя 11 дней)

Добавлена 10 серия!

onemeshnig

post 31-Дек-15 23:23 (спустя 15 дней)

Добавлены серии 11-12!

onemeshnig

post 25-Янв-16 23:48 (спустя 25 дней)

Добавлены серии 13-14!

onemeshnig

post 01-Фев-16 19:37 (спустя 6 дней)

Добавлена 15 серия!

Текущее время: 21-Июл 03:05

Часовой пояс: GMT + 3



Вы не можете начинать темы
Вы не можете отвечать на сообщения
Вы не можете редактировать свои сообщения
Вы не можете удалять свои сообщения
Вы не можете голосовать в опросах
Вы не можете прикреплять файлы к сообщениям
Вы не можете скачивать файлы