Loading...
Error
 

( Heavy Metal / Hard Rock ) Ozzy Osbourne - Ozzmosis Demos 1992. Flac,( img+cue), Lossles

 
Автор Сообщение

ikar666

post 20-Ноя-15 08:37

pic
Ozzy Osbourne - Ozzmosis Demos 1992

Год выпуска:1992
Жанр:Heavy Metal / Hard Rock
Продолжительность:00:58:28
Тип рипа:img+cue
Кодек:Flac
Битрейт:Lossles
Треклист:
01-Ozzy Osbourne-Feels So Good To Be Bad-04:27
02-Ozzy Osbourne-Denial-05:22
03-Ozzy Osbourne-Too Far Gone-04:26
04-Ozzy Osbourne-Ghost Behind My Eyes-05:14
05-Ozzy Osbourne-Frustrated Yes I'm Hated-04:42
06-Ozzy Osbourne-Dream For Tomorrow-05:20
07-Ozzy Osbourne-Say Yeah Yeah-04:25
08-Ozzy Osbourne-Oh No The Bitch Won't Go-03:23
09-Ozzy Osbourne-My New Rock And Roll-03:16
10-Ozzy Osbourne-Perry Mason-06:02
11-Ozzy Osbourne-Old L.A. Tonight-04:51
12-Ozzy Osbourne-See You On The Other Side-07:04
.log

Код:

Exact Audio Copy V1.0 beta 1 from 15. November 2010

EAC extraction logfile from 18. November 2014, 1:15

Ozzy Osbourne / Ozzmosis Demos

Used drive  : MATSHITABD-MLT UJ230AS   Adapter: 0  ID: 1

Read mode               : Secure
Utilize accurate stream : Yes
Defeat audio cache      : Yes
Make use of C2 pointers : No

Read offset correction                      : 102
Overread into Lead-In and Lead-Out          : No
Fill up missing offset samples with silence : Yes
Delete leading and trailing silent blocks   : No
Null samples used in CRC calculations       : Yes
Used interface                              : Native Win32 interface for Win NT & 2000

Used output format : Internal WAV Routines
Sample format      : 44.100 Hz; 16 Bit; Stereo

TOC of the extracted CD

     Track |   Start  |  Length  | Start sector | End sector
    ---------------------------------------------------------
        1  |  0:00.00 |  4:26.72 |         0    |    20021   
        2  |  4:26.72 |  5:21.65 |     20022    |    44161   
        3  |  9:48.62 |  4:25.38 |     44162    |    64074   
        4  | 14:14.25 |  5:13.73 |     64075    |    87622   
        5  | 19:28.23 |  4:41.38 |     87623    |   108735   
        6  | 24:09.61 |  5:19.49 |    108736    |   132709   
        7  | 29:29.35 |  4:24.23 |    132710    |   152532   
        8  | 33:53.58 |  3:22.72 |    152533    |   167754   
        9  | 37:16.55 |  3:15.49 |    167755    |   182428   
       10  | 40:32.29 |  6:01.60 |    182429    |   209563   
       11  | 46:34.14 |  4:50.23 |    209564    |   231336   
       12  | 51:24.37 |  7:03.38 |    231337    |   263099   

Range status and errors

Selected range

     Filename C:\Users\Konstantin\Documents\Ozzy Osbourne - Ozzmosis Demos.wav

     Peak level 97.7 %
     Extraction speed 0.2 X
     Range quality 100.0 %
     Test CRC 1470F45B
     Copy CRC 1470F45B
     Copy OK

No errors occurred

End of status report

==== Log checksum 33AD8B229A128FC966836FDD120576FC08F2F3B8477C047E632585E2E11B683D ====
.CUE

Код:

REM DATE 1992
REM DISCID A60DB40C
REM COMMENT "ExactAudioCopy v1.0b1"
PERFORMER "Ozzy Osbourne"
TITLE "Ozzmosis Demos"
FILE "Ozzy Osbourne - Ozzmosis Demos.wav" WAVE
  TRACK 01 AUDIO
    TITLE "Feels So Good To Be Bad"
    PERFORMER "Ozzy Osbourne"
    INDEX 01 00:00:00
  TRACK 02 AUDIO
    TITLE "Denial"
    PERFORMER "Ozzy Osbourne"
    INDEX 01 04:26:72
  TRACK 03 AUDIO
    TITLE "Too Far Gone"
    PERFORMER "Ozzy Osbourne"
    INDEX 01 09:48:62
  TRACK 04 AUDIO
    TITLE "Ghost Behind My Eyes"
    PERFORMER "Ozzy Osbourne"
    INDEX 01 14:14:25
  TRACK 05 AUDIO
    TITLE "Frustrated Yes I'm Hated"
    PERFORMER "Ozzy Osbourne"
    INDEX 01 19:28:23
  TRACK 06 AUDIO
    TITLE "Dream For Tomorrow"
    PERFORMER "Ozzy Osbourne"
    INDEX 01 24:09:61
  TRACK 07 AUDIO
    TITLE "Say Yeah Yeah"
    PERFORMER "Ozzy Osbourne"
    INDEX 01 29:29:35
  TRACK 08 AUDIO
    TITLE "Oh No The Bitch Won't Go"
    PERFORMER "Ozzy Osbourne"
    INDEX 01 33:53:58
  TRACK 09 AUDIO
    TITLE "My New Rock And Roll"
    PERFORMER "Ozzy Osbourne"
    INDEX 01 37:16:55
  TRACK 10 AUDIO
    TITLE "Perry Mason"
    PERFORMER "Ozzy Osbourne"
    INDEX 01 40:32:29
  TRACK 11 AUDIO
    TITLE "Old L.A. Tonight"
    PERFORMER "Ozzy Osbourne"
    INDEX 01 46:34:14
  TRACK 12 AUDIO
    TITLE "See You On The Other Side"
    PERFORMER "Ozzy Osbourne"
    INDEX 01 51:24:37



ikar666

post 10-Апр-17 23:50 (спустя 1 год 4 месяца)

Заменил торрент файл.

Текущее время: 25-Апр 05:48

Часовой пояс: GMT + 3



Вы не можете начинать темы
Вы не можете отвечать на сообщения
Вы не можете редактировать свои сообщения
Вы не можете удалять свои сообщения
Вы не можете голосовать в опросах
Вы не можете прикреплять файлы к сообщениям
Вы не можете скачивать файлы