Loading...
Error
 

Скачать торрент Хоббит: Трилогия (Расширенная версия)/ The Hobbit: Trilogy (Extended Cut) (Питер Джексон / Peter Jackson) [2012, 2013, 2014 г., фэнтези, приключения, HDRip ] [Лицензия]

Страницы:  1, 2  След.

 
Автор Сообщение

Мелега

post 08-Дек-15 14:22

pic
О трилогии: С чего началось то, что навсегда изменило мир? С потери гномьим народом своего родного дома и горячего желания его вернуть, пронесенного даже сквозь года! А причем же здесь хоббит Бильбо Бэггинс? Ведь он не гном и с домом у него все в порядке - кладовые полны припасов, а шкафчики - маминой посуды! Почему волшебник Гэндальф выбрал именно его в спутники тринадцати гномам под предводительством легендарного воина Торина Дубощита? Что же на самом деле так глубоко спрятано в этом полурослике, и поможет ли это отважным гномам обрести то, ради чего они не раз будут готовы встречаться со смертью?
pic
Хоббит: Нежданное путешествие


pic
Год выпуска: 2012 г.
Страна: США, Новая Зеландия
Жанр: фэнтези, приключения
Продолжительность: 03:02:31
Перевод: Дублированный
Cубтитры: нет
Режиссер: Питер Джексон / Peter Jackson

В ролях: Мартин Фриман , Иэн МакКеллен , Ричард Армитедж, Джеймс Несбитт , Кен Стотт , Грэм МакТавиш , Дин О’Горман, Эйдан Тернер , Стивен Хантер , Сильвестр МакКой , Джед Брофи , Марк Хэдлоу

Описание: Фильм повествует о путешествии Бильбо Бэггинса, который пускается в грандиозный поход, целью которого является отвоевание утраченного королевства гномов Эребор у зловещего дракона Смауга. Совершенно неожиданно с хоббитом налаживает контакт волшебник Гэндальф Серый. Так Бильбо находит себя, присоединяясь к компании тринадцати гномов, возглавляемых легендарным воином, Торином Дубощитом. Их путешествие проляжет через Дикий Край, через предательские земли, населенные гоблинами и орками, смертоносными варгами и гигантскими пауками, народом, меняющим шкуры, и волшебниками.
И хотя их цель находится на Востоке, среди пустошей Одинокой Горы, сначала им придется выбраться из туннелей гоблинов, где Бильбо встретит существо, которое изменит его жизнь навсегда... Голлума.
Здесь, один на один с Голлумом, на берегу подземного озера, непритязательный Бильбо Бэггинс обнаружит не только скрытые в глубине души хитрость и отвагу, которые удивят даже его, но и завладеет «прелестным» колечком Голлума, которое обладает нежданными и полезными свойствами... Простое золотое кольцо, c которым связана судьба всего Средиземья, нитями, о которых Бильбо не мог даже вообразить.

pic
Качество видео:HDRip
Формат: AVI
Видео кодек: XVID
Аудио кодек: AC3
Видео:MPEG-4 Visual at 1408 Кбит/сек : 720 x 304 at 25.000 fps
Аудио #1AC-3 at 448 Кбит/сек : 6 каналов, 48,0 КГц | [Russian]
Рейтинг
pic pic
Media Info
Общее
Полное имя : E:\µTorrent\загрузки\The Hobbit. Trilogy.EXTENDED.HDR\The.Hobbit.An.Unexpected.Journey.2012.EXTENDED.NDrip.HDR
Формат : AVI
Формат/Информация : Audio Video Interleave
Профиль формата : OpenDML
Размер файла : 2,38 Гбайт
Продолжительность : 3 ч. 2 м.
Общий поток : 1868 Кбит/сек
Название фильма : Мелега для rustorka.com
Программа кодирования : VirtualDubMod 1.5.10.3 (build 2550/release)

Видео
Идентификатор : 0
Формат : MPEG-4 Visual
Профиль формата : Advanced [email protected]
Параметр BVOP формата : 2
Параметр QPel формата : Нет
Параметр GMC формата : Без точки перехода
Параметр матрицы формата : Выборочная
Идентификатор кодека : XVID
Идентификатор кодека/Подсказка : XviD
Продолжительность : 3 ч. 2 м.
Битрейт : 1408 Кбит/сек
Ширина : 720 пикселей
Высота : 304 пикселя
Соотношение сторон : 2,35:1
Частота кадров : 25,000 кадров/сек
Цветовое пространство : YUV
Субдискретизация насыщенности : 4:2:0
Битовая глубина : 8 бит
Тип развёртки : Прогрессивная
Метод сжатия : С потерями
Бит/(Пиксели*Кадры) : 0.257
Размер потока : 1,79 Гбайт (75%)
Библиотека кодирования : XviD 1.2.1 (UTC 2008-12-04)

Аудио
Идентификатор : 1
Формат : AC-3
Формат/Информация : Audio Coding 3
Расширение режима : CM (complete main)
Параметр Endianness формата : Big
Идентификатор кодека : 2000
Продолжительность : 3 ч. 2 м.
Вид битрейта : Постоянный
Битрейт : 448 Кбит/сек
Каналы : 6 каналов
Расположение каналов : Front: L C R, Side: L R, LFE
Частота : 48,0 КГц
Битовая глубина : 16 бит
Метод сжатия : С потерями
Размер потока : 585 Мбайт (24%)
Выравнивание : Разделение по промежуткам
Продолжительность промежутка : 40 мс. (1,00 видеокадр)
Время предзагрузки промежутка : 500 мс.
Скриншоты
Хоббит: Пустошь Смауга


pic
Год выпуска: 2013 г.
Страна:США, Новая Зеландия
Жанр: фэнтези, приключения
Продолжительность:03:06:35
Перевод: Дублированный
Cубтитры: нет

Режиссер: Питер Джексон / Peter Jackson

В ролях: Мартин Фриман , Ричард Армитедж , Иэн МакКеллен, Эванджелин Лилли , Орландо Блум , Люк Эванс , Бенедикт Камбербэтч , Ли Пейс , Кен Стотт , Эйдан Тернер , Грэм МакТавиш , Джеймс Несбитт

Описание:Продолжение путешествия хоббита Бильбо Бэггинса, волшебника Гэндальфа и 13 отважных гномов. Их компания обязана завершить своё путешествие к Одинокой горе. Там они должны встретиться с величайшей опасностью из всех - созданием куда более ужасающим, чем все их прошлые противники, которое проверит на прочность не только их мужество, но крепость их дружбы и правильность выбранного пути, - драконом Смаугом.

pic
Качество видео:HDRip
Формат: AVI
Видео кодек: XVID
Аудио кодек: AC3
Видео: MPEG-4 Visual at 1680 Кбит/сек : 720 x 304 at 25.000 fps
Аудио #1:AC-3 at 384 Кбит/сек : 6 каналов, 48,0 КГц | [Russian]
Рейтинг
pic pic
Media Info
Общее
Полное имя : E:\µTorrent\загрузки\The Hobbit. Trilogy.EXTENDED.HDR\The.Hobbit.The.Desolation.of.Smaug.2013.EXTENDED.NDRip.HDR.avi
Формат : AVI
Формат/Информация : Audio Video Interleave
Профиль формата : OpenDML
Размер файла : 2,38 Гбайт
Продолжительность : 3 ч. 6 м.
Общий поток : 1828 Кбит/сек
Название фильма : Мелега для rustorka.com
Программа кодирования : VirtualDubMod 1.5.10.3 (build 2550/release)

Видео
Идентификатор : 0
Формат : MPEG-4 Visual
Профиль формата : Advanced [email protected]
Параметр BVOP формата : 2
Параметр QPel формата : Нет
Параметр GMC формата : Без точки перехода
Параметр матрицы формата : Выборочная
Идентификатор кодека : XVID
Идентификатор кодека/Подсказка : XviD
Продолжительность : 3 ч. 6 м.
Битрейт : 1368 Кбит/сек
Ширина : 720 пикселей
Высота : 304 пикселя
Соотношение сторон : 2,35:1
Частота кадров : 25,000 кадров/сек
Цветовое пространство : YUV
Субдискретизация насыщенности : 4:2:0
Битовая глубина : 8 бит
Тип развёртки : Прогрессивная
Метод сжатия : С потерями
Бит/(Пиксели*Кадры) : 0.250
Размер потока : 1,78 Гбайт (75%)
Библиотека кодирования : XviD 1.2.1 (UTC 2008-12-04)

Аудио
Идентификатор : 1
Формат : AC-3
Формат/Информация : Audio Coding 3
Расширение режима : CM (complete main)
Параметр Endianness формата : Big
Идентификатор кодека : 2000
Продолжительность : 3 ч. 6 м.
Вид битрейта : Постоянный
Битрейт : 448 Кбит/сек
Каналы : 6 каналов
Расположение каналов : Front: L C R, Side: L R, LFE
Частота : 48,0 КГц
Битовая глубина : 16 бит
Метод сжатия : С потерями
Размер потока : 598 Мбайт (25%)
Выравнивание : Разделение по промежуткам
Продолжительность промежутка : 40 мс. (1,00 видеокадр)
Время предзагрузки промежутка : 500 мс.
Скриншоты
Хоббит: Битва пяти воинств


pic
Год выпуска: 2014 г.
Производство:Новая Зеландия, США
Жанр: фэнтези, приключения
Продолжительность:02:44:03
Перевод: Дублированный
Cубтитры: нет

Режиссер: Питер Джексон / Peter Jackson

В ролях: Мартин Фриман , Иэн МакКеллен , Ричард Армитедж , Люк Эванс , Эванджелин Лилли , Ли Пейс , Орландо Блум , Бенедикт Камбербэтч , Кен Стотт , Эйдан Тернер, Грэм МакТавиш, Уильям Кирчер

Описание:Когда отряд из тринадцати гномов нанимал хоббита Бильбо Бэгинса в качестве взломщика и четырнадцатого, «счастливого», участника похода к Одинокой горе, Бильбо полагал, что его приключения закончатся, когда он выполнит свою задачу - найдет сокровище, которое так необходимо предводителю гномов Торину. Путешествие в Эребор, захваченное драконом Смаугом королевство гномов, оказалось еще более опасным, чем предполагали гномы и даже Гэндальф - мудрый волшебник, протянувший Торину и его отряду руку помощи.
В погоню за гномами устремилась армия орков, ведомых пробудившимся в руинах древним злом, а эльфы и люди, с которыми Бильбо и его товарищам пришлось иметь дело во время путешествия и которые пострадали от последствий желания гномов вернуть свой дом, предъявили права на щедрое вознаграждение - часть сокровищ Одинокой горы. Скоро неподалеку от Одинокой горы встретятся пять армий, и лишь кровопролитная битва определит результаты смелого гномьего похода.

pic
Качество видео:HDRip
Формат: AVI
Видео кодек: XVID
Аудио кодек: AC3
Видео: MPEG-4 Visual at 1368 Кбит/сек : 720 x 304at 25.000 fps
Аудио #1: AC-3 at 448 Кбит/сек : 6 каналов, 48,0 КГц| [Russian]
Рейтинг
pic pic
Media Info
Общее
Полное имя : E:\µTorrent\загрузки\The Hobbit. Trilogy.EXTENDED.HDR\The.Hobbit.The.Battle.of.the.Five.Armies.2014.EXTENDED.NDRip.HDR
Формат : AVI
Формат/Информация : Audio Video Interleave
Профиль формата : OpenDML
Размер файла : 2,38 Гбайт
Продолжительность : 2 ч. 44 м.
Общий поток : 2075 Кбит/сек
Название фильма : Мелега для rustorka.com
Программа кодирования : VirtualDubMod 1.5.10.3 (build 2550/release)

Видео
Идентификатор : 0
Формат : MPEG-4 Visual
Профиль формата : Advanced [email protected]
Параметр BVOP формата : 2
Параметр QPel формата : Нет
Параметр GMC формата : Без точки перехода
Параметр матрицы формата : Выборочная
Идентификатор кодека : XVID
Идентификатор кодека/Подсказка : XviD
Продолжительность : 2 ч. 44 м.
Битрейт : 1680 Кбит/сек
Ширина : 720 пикселей
Высота : 304 пикселя
Соотношение сторон : 2,35:1
Частота кадров : 25,000 кадров/сек
Цветовое пространство : YUV
Субдискретизация насыщенности : 4:2:0
Битовая глубина : 8 бит
Тип развёртки : Прогрессивная
Метод сжатия : С потерями
Бит/(Пиксели*Кадры) : 0.307
Размер потока : 1,92 Гбайт (81%)
Библиотека кодирования : XviD 1.2.1 (UTC 2008-12-04)

Аудио
Идентификатор : 1
Формат : AC-3
Формат/Информация : Audio Coding 3
Расширение режима : CM (complete main)
Параметр Endianness формата : Big
Идентификатор кодека : 2000
Продолжительность : 2 ч. 44 м.
Вид битрейта : Постоянный
Битрейт : 384 Кбит/сек
Каналы : 6 каналов
Расположение каналов : Front: L C R, Side: L R, LFE
Частота : 48,0 КГц
Битовая глубина : 16 бит
Метод сжатия : С потерями
Размер потока : 450 Мбайт (18%)
Выравнивание : Разделение по промежуткам
Продолжительность промежутка : 40 мс. (1,00 видеокадр)
Время предзагрузки промежутка : 500 мс.
Скриншоты
Приятного просмотра!!!
The Hobbit. Trilogy.EXTENDED.HDR.torrent
Трекер: Зарегистрирован

magnet ссылка

 


Скачать .torrent

19 KB

Статус: проверено (by Snowden в 08-Дек-15 17:38)
Зарегистрирован: 08-Дек-15 17:32
Скачан: 913 раз
Размер: 7.14 GB | 
Поблагодарили:
Скачать Хоббит: Трилогия (Расширенная версия)/ The Hobbit: Trilogy (Extended Cut) (Питер Джексон / Peter Jackson) [2012, 2013, 2014 г., фэнтези, приключения, HDRip ] [Лицензия] торрент
 


Похожие раздачи

Мелега

post 08-Дек-15 14:26 (спустя 3 минуты)

Бывает не поддерживает формат MKV на телеке, вот сделал AVI.

Snowden

post 08-Дек-15 14:56 (спустя 30 минут)

Хоббит: Пустошь Смауга и Хоббит: Битва пяти воинств продолжительность указано не верно!
Во всех MediaInfo убрать ссылку!
Рейтинг фильма убрать в спойлер!

post 08-Дек-15 15:04 (спустя 8 минут)

Топик был перенесен из форума Зарубежное кино (DVD / DVDRip / WEB-DLRip / HDRip / HDRip-AVC) в форум DVDRip / HDRip / BDRip / AVC


Mr Murderer
 

Мелега

post 08-Дек-15 15:54 (спустя 58 минут)

Mr Murderer
поправил

Snowden

post 08-Дек-15 16:19 (спустя 25 минут)

Мелега
Продолжительность я должен исправлять? Рейтинг перенести после аудио, перед MediaInfo

Мелега

post 08-Дек-15 16:21 (спустя 1 минута)

Mr Murderer
Не знаю у меня время такое от куда вы взяли другое?

Snowden

post 08-Дек-15 16:29 (спустя 8 минут)

Мелега
MediaInfo поставьте соответствующие к фильмам. И тег спойлера поправьте.
Ц Цитата:

The.Hobbit.An.Unexpected.Journey.2012.EXTENDED.NDrip.HDR первая серия.avi
The.Hobbit.The.Battle.of.the.Five.Armies.2014.EXTENDED.NDRip.HDR фильм второй.avi
Что бессмысленные слова в названии фильма? Убрать!

Мелега

post 08-Дек-15 16:30 (спустя 55 секунд)

Mr Murderer
это для себя делал

Snowden

post 08-Дек-15 16:35 (спустя 4 минуты)

Мелега
Для себя, но сейчас у Вас другие пользователи качают. Я понимаю если было бы аккуратно(Фильм первый, фильм второй и т.д) но не как не "первая серия", убрать или сделать как подобает.

Мелега

post 08-Дек-15 16:56 (спустя 21 минута)

Mr Murderer
Вроде исправил

добавлено спустя 12 минут:

Mr Murderer
Это принципе первый рип мой

Golab

post 08-Дек-15 18:22 (спустя 1 час 26 минут)

Мелега
И скрины поменяй местами :)

Мелега

post 08-Дек-15 18:30 (спустя 7 минут)

Golab
А еще что тебе поменять? :mrgreen:

Golab

post 08-Дек-15 18:32 (спустя 1 минута)

Мелега
в 3 части скрины из второй

DrDzhekill

post 08-Дек-15 19:02 (спустя 30 минут)

Спасибо огромное старик, у меня как раз телик мкв не читает, молюсь на тебя, не опускай руки, первый блин всегда комом 8)

Мелега

post 08-Дек-15 19:11 (спустя 8 минут)

pic

Ivan28

post 12-Дек-15 22:51 (спустя 4 дня)

спасибо. Вот бы еще властелина колец в AVI увидеть

FaTaL61

post 04-Янв-17 13:35 (спустя 1 год)

10 из 10!!!! :)

MaxysT

post 19-Янв-17 23:29 (спустя 15 дней)

Речь орков и эльфов на английском или вышиты русские субтитры?

Наташа325

post 21-Сен-17 22:52 (спустя 8 месяцев)

Встаньте на раздачу кто то, пожалуйста:)

Текущее время: 15-Дек 07:54

Часовой пояс: GMT + 3



Вы не можете начинать темы
Вы не можете отвечать на сообщения
Вы не можете редактировать свои сообщения
Вы не можете удалять свои сообщения
Вы не можете голосовать в опросах
Вы не можете прикреплять файлы к сообщениям
Вы не можете скачивать файлы