Loading...
Error
 

Скачать торрент Магазинчик сладостей / Dagashi Kashi (Сигэхито Такаянаги) [TV] [12 из 12] [JAP+SUB] [2016, комедия, сёнен, HDTVRip][720p]

 
Автор Сообщение

Vickers

post 09-Янв-16 11:42

pic
pic
Магазинчик сладостей / Dagashi Kashi

Год выпуска: 2016
Страна: Япония
Жанр: комедия, сёнен
Продолжительность: 1 эп. - 24 мин.
Перевод:
  • Русские субтитры: YakuSub Studio
    Nika_Elrik [Переводчик]
    SapogaN [Редактор]
    licuma [Оформление]

Студия: pic
Режиссёр: Сигэхито Такаянаги
Описание: Коконоцу Шикада — юный наследник семейного бизнеса, в отношении которого отец лелеет большие надежды. На месте Шикады любой молодой человек, обладающий деловой хваткой, был бы рад вверенному в его распоряжение прибыльному предприятию. Однако парень отказывается от наследства. Может показаться, что причина этому заключается в том, что под многозначительным словосочетанием «семейный бизнес» имеется в виду крошечный бесперспективный магазинчик сладостей, расположенный на отшибе. Но нет, дорогие дамы и господа. Шикада просто метит выше: он хочет стать известным сёдзё-мангакой!

Однажды летом в магазинчик наведывается эксцентричная девушка, которая представляется дочерью владельца крупной кондитерской компании с мировым именем. По ее словам, отец Шикады настоящая знаменитость среди японских конфетчиков, и, в связи с этим, она, Хотару Шидарэ, планирует рекрутировать его в штат семейной компании. Но папочка оказывается не лыком шит и согласится работать на стороне лишь при условии, что девушка сможет убедить его сына принять бразды правления над крошечным бесперспективным магазинчиком сладостей, расположенном на отшибе.
Качество: HDTVRip
Формат: MP4
Видео: x264, 1280x720, ~ 1657 kbps, 23.976 fps
Автор рипа: Ohys-Raws
Аудио: JAP - AAC, 210 kbps, 48 kHz, 2ch.
MediaInfo

Код:

Общее
Полное имя                               : D:\Anime\Раздачи\Dagashi Kashi [HDTVRip] [720p]\[Ohys-Raws] Dagashi Kashi - 01.mp4
Формат                                   : MPEG-4
Профиль формата                          : Base Media
Идентификатор кодека                     : isom
Размер файла                             : 328 Мбайт
Продолжительность                        : 24 м.
Режим общего битрейта                    : Переменный
Общий поток                              : 1871 Кбит/сек
Дата кодирования                         : UTC 2016-01-07 18:29:19
Дата пометки                             : UTC 2016-01-07 18:29:19

Видео
Идентификатор                            : 1
Формат                                   : AVC
Формат/Информация                        : Advanced Video Codec
Профиль формата                          : [email protected]
Параметр CABAC формата                   : Да
Параметр ReFrames формата                : 4 кадра
Идентификатор кодека                     : avc1
Идентификатор кодека/Информация          : Advanced Video Coding
Продолжительность                        : 24 м.
Битрейт                                  : 1657 Кбит/сек
Максимальный битрейт                     : 10,8 Мбит/сек
Ширина                                   : 1280 пикселей
Высота                                   : 720 пикселей
Соотношение сторон                       : 16:9
Режим частоты кадров                     : Постоянный
Частота кадров                           : 23,976 кадра/сек
Цветовое пространство                    : YUV
Субдискретизация насыщенности            : 4:2:0
Битовая глубина                          : 8 бит
Тип развёртки                            : Прогрессивная
Бит/(Пиксели*Кадры)                      : 0.075
Размер потока                            : 290 Мбайт (89%)
Библиотека кодирования                   : x264 core 148 r2638 7599210
Настройки программы                      : cabac=1 / ref=3 / deblock=1:0:0 / analyse=0x1:0x111 / me=hex / subme=7 / psy=1 / psy_rd=1.00:0.00 / mixed_ref=1 / me_range=16 / chroma_me=1 / trellis=1 / 8x8dct=0 / cqm=0 / deadzone=21,11 / fast_pskip=1 / chroma_qp_offset=-2 / threads=12 / lookahead_threads=2 / sliced_threads=0 / nr=0 / decimate=1 / interlaced=0 / bluray_compat=0 / constrained_intra=0 / bframes=3 / b_pyramid=2 / b_adapt=1 / b_bias=0 / direct=1 / weightb=1 / open_gop=0 / weightp=2 / keyint=240 / keyint_min=1 / scenecut=40 / intra_refresh=0 / rc_lookahead=40 / rc=crf / mbtree=1 / crf=20.0 / qcomp=0.60 / qpmin=0 / qpmax=69 / qpstep=4 / ip_ratio=1.40 / aq=1:1.50
Дата кодирования                         : UTC 2016-01-07 18:29:19
Дата пометки                             : UTC 2016-01-07 18:29:21
Цветовой диапазон                        : Limited
Основные цвета                           : BT.709
Характеристики трансфера                 : BT.709
Коэффициенты матрицы                     : BT.709

Аудио
Идентификатор                            : 2
Формат                                   : AAC
Формат/Информация                        : Advanced Audio Codec
Профиль формата                          : LC
Идентификатор кодека                     : 40
Продолжительность                        : 24 м.
Вид битрейта                             : Переменный
Битрейт                                  : 210 Кбит/сек
Максимальный битрейт                     : 242 Кбит/сек
Каналы                                   : 2 канала
Расположение каналов                     : Front: L R
Частота                                  : 48,0 КГц
Метод сжатия                             : С потерями
Размер потока                            : 36,8 Мбайт (11%)
Язык                                     : Japanese
Дата кодирования                         : UTC 2016-01-07 18:16:16
Дата пометки                             : UTC 2016-01-07 18:29:21
Скриншоты
Dagashi Kashi (HDTVRip) (720p).torrent
Трекер: Зарегистрирован

magnet ссылка

 


Скачать .torrent

21 KB

Статус: проверено (by Арт33 в 21-Апр-16 22:45)
Зарегистрирован: 21-Апр-16 21:02
Скачан: 64 раза
Размер: 3.93 GB | 
Поблагодарили:
Скачать Магазинчик сладостей / Dagashi Kashi (Сигэхито Такаянаги) [TV] [12 из 12] [JAP+SUB] [2016, комедия, сёнен, HDTVRip][720p] торрент
 


Похожие раздачи

Vickers

post 16-Янв-16 23:26 (спустя 7 дней)

16.01.2016 - Торрент обновлён. Добавлена вторая серия. Субтитры заменены на YakuSub Studio.

Vickers

post 25-Янв-16 23:13 (спустя 8 дней)

25.01.2016 - Торрент обновлен. Добавлена третья серия.

Vickers

post 04-Фев-16 13:32 (спустя 9 дней)

04.02.2016 - Торрент обновлен. Добавлена четвертая серия.

Vickers

post 11-Фев-16 17:10 (спустя 7 дней)

11.02.2016 - Торрент обновлен. Добавлена пятая серия.

Vickers

post 21-Фев-16 12:13 (спустя 9 дней)

21.02.2016 - Торрент обновлён. Добавлена шестая серия.

Vickers

post 02-Мар-16 22:16 (спустя 10 дней)

02.03.2016 - Торрент обновлён. Добавлена седьмая серия.

Vickers

post 28-Мар-16 17:49 (спустя 25 дней)

28.03.2016 - Торрент обновлён. Добавлены 8-9 серии.

Vickers

post 21-Апр-16 21:03 (спустя 24 дня)

21.04.2016 - Торрент обновлён. Добавлены 10-12 серии.
Релиз завершен.

post 10-Май-17 16:37 (спустя 1 год)

Топик был перенесен из форума Новинки в форум HDTVRip / HDTV 720 / 1080


Snowden
 

Текущее время: 23-Июл 14:58

Часовой пояс: GMT + 3



Вы не можете начинать темы
Вы не можете отвечать на сообщения
Вы не можете редактировать свои сообщения
Вы не можете удалять свои сообщения
Вы не можете голосовать в опросах
Вы не можете прикреплять файлы к сообщениям
Вы не можете скачивать файлы