Loading...
Error
 

Скачать торрент Сказка о Хвосте Феи ТВ-1 / Fairy Tail TV-1 [175 из 175 + 6 OVA] [RUS(int)+JAP][2009г.-2013г.,приключения,фэнтези,сёнэн][HDTVRip, 720p][Озвучка AniDub]

 
Автор Сообщение

Lynk

post 31-Янв-16 13:30


pic

pic
Год: 2009, 2010, 2011, 2012, 2013
Жанр: приключения, комедия, фэнтези, сёнэн
Страна: Япония
Количество серий: 175 + 6 OVA
Продолжительность серии: ~24мин.
Дата выпуска: c 05.04.2014
Режиссер: Исихира Синдзи
Автор оригинала / Сценарист: Масима Хиро
Озвучивание: Ancord
Перевод: Мария Гостюхина, Blazing Wizard, Jenia aka Zub
Описание: Фейри Тейл — знаменитая на весь мир Гильдия волшебников по найму. Молодая волшебница Люси была уверена, что, став одним из её членов, попала в самую замечательную на свете Гильдию… до тех пор, пока не познакомилась со своими новыми друзьями — взрывным огнедышащим и сметающим всё на своём пути Нацу, летающим говорящим котом Хэппи, эксгибиционистом Греем, занудой-берсерком Эрзой, гламурным и любвеобильным Локи… Вместе им предстоит одолеть немало врагов и пережить множество незабываемых приключений!
Автор рипа: AniDub
Тип видео: HDTVRip
Формат: mp4
Видео: 1280х720 (16:9), AVC, 23,976 fps, 1500Кбит/сек, 0,071 bit/pixel
Аудио:
Аудио #1 48kHz, AAC, 2Ch, 192kbps
Аудио #2 48kHz, AAC, 2Ch, 192kbps
MediaInfo
Формат : MPEG-4
Профиль формата : JVT
Идентификатор кодека : avc1 (isom/avc1)
Размер файла : 346 Мбайт
Продолжительность : 24 м.
Режим общего битрейта : Переменный
Общий поток : 1953 Кбит/сек
Дата кодирования : UTC 2009-11-03 17:01:02
Дата пометки : UTC 2009-11-03 17:01:02
Программа кодирования : Yamb 2.1.0.0 [http://yamb.unite-video.com]

Видео
Идентификатор : 1
Формат : AVC
Формат/Информация : Advanced Video Codec
Профиль формата : [email protected]
Параметр CABAC формата : Да
Параметр ReFrames формата : 5 кадров
Идентификатор кодека : avc1
Идентификатор кодека/Информация : Advanced Video Coding
Продолжительность : 24 м.
Битрейт : 1563 Кбит/сек
Максимальный битрейт : 5952 Кбит/сек
Ширина : 1280 пикселей
Высота : 720 пикселей
Соотношение сторон : 16:9
Режим частоты кадров : Постоянный
Частота кадров : 23,976 (24000/1001) кадра/сек
Цветовое пространство : YUV
Субдискретизация насыщенности : 4:2:0
Битовая глубина : 8 бит
Тип развёртки : Прогрессивная
Бит/(Пиксели*Кадры) : 0.071
Размер потока : 277 Мбайт (80%)
Заголовок : FAIRY TAIL 01 [AniDub.com]
Библиотека кодирования : x264 core 68 r1183M f21daff
Настройки программы : cabac=1 / ref=5 / deblock=1:-1:-1 / analyse=0x3:0x113 / me=umh / subme=9 / psy_rd=0.3:0.1 / mixed_ref=1 / me_range=32 / chroma_me=1 / trellis=2 / 8x8dct=1 / cqm=0 / deadzone=21,11 / chroma_qp_offset=-3 / threads=3 / nr=0 / decimate=0 / mbaff=0 / bframes=4 / b_pyramid=1 / b_adapt=2 / b_bias=0 / direct=3 / wpredb=1 / keyint=240 / keyint_min=1 / scenecut=64 / rc=crf / crf=24.0 / qcomp=0.60 / qpmin=10 / qpmax=40 / qpstep=8 / ip_ratio=1.40 / pb_ratio=1.30 / aq=1:1.00
Язык : Japanese
Дата кодирования : UTC 2009-10-14 18:14:01
Дата пометки : UTC 2009-11-03 17:01:20

Аудио #1
Идентификатор : 2
Формат : AAC
Формат/Информация : Advanced Audio Codec
Профиль формата : LC
Идентификатор кодека : 40
Продолжительность : 24 м.
Вид битрейта : Переменный
Битрейт : 192 Кбит/сек
Максимальный битрейт : 195 Кбит/сек
Каналы : 2 канала
Расположение каналов : Front: L R
Частота : 48,0 КГц
Частота кадров : 46,875 кадров/сек (1024 spf)
Метод сжатия : С потерями
Размер потока : 34,0 Мбайт (10%)
Заголовок : Russian [Ancord]
Язык : Russian
Дата кодирования : UTC 2009-11-03 17:01:14
Дата пометки : UTC 2009-11-03 17:01:20

Аудио #2
Идентификатор : 3
Формат : AAC
Формат/Информация : Advanced Audio Codec
Профиль формата : LC
Идентификатор кодека : 40
Продолжительность : 24 м.
Вид битрейта : Переменный
Битрейт : 192 Кбит/сек
Максимальный битрейт : 250 Кбит/сек
Каналы : 2 канала
Расположение каналов : Front: L R
Частота : 48,0 КГц
Частота кадров : 46,875 кадров/сек (1024 spf)
Метод сжатия : С потерями
Размер потока : 34,0 Мбайт (10%)
Заголовок : Original
Язык : Japanese
Дата кодирования : UTC 2009-11-03 17:01:16
Дата пометки : UTC 2009-11-03 17:01:20
Эпизоды
001. Хвост Феи
002. Дракон, обезьяна и бык
003. Проникновение в особняк Эверли
004. Дорогому Каби
005. Волшебница в доспехах
006. Захваченные ветром Феи
007. Огонь и Ветер
008. Сильнейшая Команда
009. Нацу - пожиратель деревень!
010. Нацу vs. Эльза
011. Проклятый остров
012. Лунная Капля
013. Нацу vs. Волновой Юка!
014. Делай, что хочешь!
015. Вечная магия
016. Последняя битва на острове Галуна
017. Взрыв
018. Достигнуть этого неба!
019. Обмен
020. Нацу и яйцо дракона
021. Повелитель Призраков
022. Люси Хартфилия
023. 15 минут
024. Чтобы не видеть эти слёзы
025. Цветок, расцветающий под дождём
026. Огненные крылья
027. Два Драгон Слэера
028. Закон Феи
029. Моё решение
030. Новое поколение
031. Звезда, что не может вернуться на небеса
032. Король Духов
033. Райская башня
034. Жерар
035. Голос тьмы
036. Райская игра
037. Доспехи сердца
038. Судьба
039. Молись под божественным светом!
040. Падение Титании
041. Дом
042. Битва за Хвост Феи
043. Победить одних друзей чтобы сохранить других
044. Дворец грома
045. Пришествие Сатаны
046. Битва в Соборе Кардия
047. Тройной Дракон
048. Фантазия
049. День судьбоносной встречи
050. Специальное задание. Берегитесь своего возлюбленного!
051. Любовь и удача
052. К оружию, союзники!
053. Появление Орасьон Сейс
054. Небесная жрица
055. Девочка и Призрак
056. Смертельное Гран При
057. Тьма
058. Сражение Звёздных Духов
059. Воспоминания Жерара
060. Марш Разрушения
061. Воздушная супер-битва! Нацу vs. Кобра
062. Юра, десятый Богоизбранный
063. Моя звезда, сияющая в ночных небесах
064. Зеро
065. Феям — от Пегасов
066. Сила чувств
067. Я с тобой!
068. Гильдия для одного человека
069. Зов Дракона
070. Нацу против Грея!
071. Дружба побеждает смерть
072. Волшебники Хвоста Феи
073. Радужная сакура
074. Новая большая миссия Венди?
075. Суточный забег на выносливость
076. Гилдартс
077. Земля
078. Эдорас
079. Охота на фей
080. Ключ Надежды
081. Огненный Шар
082. Добро пожаловать домой
083. Эксталия
084. Лети к своим друзьям!
085. Код ETD
086. Эльза против Эльзы
087. Вот она, Жизнь!
088. Величавые потоки звёздной реки
089. Смертоносная драконья пушка
090. Тот самый парень
091. Драконье чутьё
092. Ради всех живых
093. Я здесь
094. Прощай, Эдорас
095. Лисанна
096. Забирающий жизнь
097. Лучший партнёр
098. Кому повезёт?
099. Нацу против Гилдартса
100. Мест
101. Чёрный маг
102. Железная душа
103. Наступающий Макаров
104. Потерянная магия
105. Огненный дракон против бога пламени
106. Мир великого волшебства
107. Воплощение
108. Врата человека!
109. Огонь Люси!
110. Тупик отчаяния!
111. Слёзы сильной любви!
112. Невысказанные слова
113. Древо небесного волка
114. Эльза против Древмона!
115. Морозный дух!
116. Святая сила!
117. Громовой рёв!
118. Человек без герба
119. В самой глубине
120. Закат на острове Небесного волка
121. Право на любовь
122. Взявшись за руки!
123. Семьсот девяносто первый год, Хвост Феи!
124. Семилетняя брешь
125. Волшебный бал!
126. Банда злобных попотрясов!
127. Ужас! Люси-невидимка!
128. То, что оставил отец.
129. Суровый махач - Нацу против Лексуса.
130. Они пришли за Люси!
131. Ярость Легиона
132. Ключи от звёздного неба
133. Странствующие товарищи
134. Песнь лабиринта!
135. По следам мифа!
136. Истинное злодейство возвращается!
137. За гранью ожидаемого!
138. Цель крестового похода!
139. Час пробил!
140. Появление нового Орасьон Сейс
141. Погоня за "Часами вечности"!
142. Не битва, а бардак!
143. Анти связь!
144. Сплошная безнадёга!
145. Настоящий кошмар!
146. Спираль времени!
147. Дворец вечности!
148. Ангельские слезы
149. Я слышу своих друзей
150. Люси и Мишель
151. Саблезуб!
152. Впереди планеты всей!
153. Звёздная песня.
154. Времени хоть отбавляй!
155. Цветущая столица Шафран!
156. Небесный лабиринт!
157. Новая гильдия!
158. В ночь, когда пролились звёзды!
159. Люси против Искры!
160. Дурной знак!
161. Колесница!
162. Эльфман против Бухуса!
163. Миражана против Жени!
164. Кагура против Юкино!
165. Обида под покровом ночи!
166. Обитель дьявола!
167. Сотня против одного!
168. Лексус против Алексея!
169. Венди против Шерии!
170. Крохотный кулак!
171. Морская битва!
172. Аромат только для тебя!
173. Битва убийц драконов!
174. Четыре дракона!
175. Нацу против двух драконов!
Скриншоты


В связи с критическим состоянием ОС и жесткого диска поддержка данной раздачи прекращена.
Fairy_Tail_(Ancord).torrent
 ЗОЛОТАЯ РАЗДАЧА! СКАЧАННОЕ НЕ ЗАСЧИТЫВАЕТСЯ! 
Вечный
Трекер: Зарегистрирован

magnet ссылка

 


Скачать .torrent

180 KB

Статус: проверено (by BRinkaaa в 31-Янв-16 16:02)
Зарегистрирован: 31-Янв-16 13:30
Скачан: 19 раз
Размер: 64.63 GB | 
Поблагодарили:
Скачать Сказка о Хвосте Феи ТВ-1 / Fairy Tail TV-1 [175 из 175 + 6 OVA] [RUS(int)+JAP][2009г.-2013г.,приключения,фэнтези,сёнэн][HDTVRip, 720p][Озвучка AniDub] торрент
 


Похожие раздачи

BRinkaaa

post 31-Янв-16 15:05 (спустя 1 час 34 минуты)

 !  Lynk
Добавь к каждой ссылке на скрин :!:

Код:

[thumb]ссылка на скрин[/thumb]
Так смотреть удобнее.

Lynk

post 31-Янв-16 15:55 (спустя 50 минут)

BRinkaaa
Исправил. Сейчас так же сделаю в этой раздаче.

vkcuba

post 27-Апр-16 21:10 (спустя 2 месяца 27 дней)

дАЙТЕ СКОРОСТИ

Beyzell

post 18-Сен-16 13:06 (спустя 4 месяца 20 дней)

Вернитесь!) Не могу скачать)

dimon45

post 03-Окт-16 21:18 (спустя 15 дней)

Прошу встать на раздачу!

BlackStarTM

post 04-Сен-18 16:39 (спустя 1 год 11 месяцев)

Газку бы

Текущее время: 17-Окт 08:31

Часовой пояс: GMT + 3



Вы не можете начинать темы
Вы не можете отвечать на сообщения
Вы не можете редактировать свои сообщения
Вы не можете удалять свои сообщения
Вы не можете голосовать в опросах
Вы не можете прикреплять файлы к сообщениям
Вы не можете скачивать файлы