Loading...
Error
 

Скачать торрент Боруто: Наруто. Фильм 11 / Boruto: Naruto the Movie 11 / Боруто: фильм Наруто [Movie] [Без хардсаба] [RUS(int)] [2015 г., Приключения, комедия, боевые искусства, сёнэн, WEBRip] [720p]

 
Автор Сообщение

FalloutWait

post 15-Фев-16 13:12

pic
Боруто: Наруто. Фильм 11 / Boruto: Naruto the Movie 11 / Боруто: фильм Наруто

Год выпуска: 2015 г.
Страна: Япония
Жанр: Приключения, комедия, боевые искусства, сёнэн
Продолжительность: 95 мин
Перевод: Любительский (двухголосый закадровый)
Роли озвучивали:
Никита MC Freeze Рябых(Freeze Studio)
AriannaFray
Студия: Studio Pierrot
Режиссёр: Хироюки Ямасита
Описание: Боруто Узумаки — сын Узумаки Наруто — Седьмой Хокаге Конохи. Услышав рассказы про своего отца героя, Боруто желает превзойти Наруто. Узнав от Сарады Учихи, что ее отец — Саске Учиха является другом и соперником его отца, Боруто желает, стать учеником Саске.
Качество: WEBRip
Тип релиза: Без хардсаба
Формат: MP4
Релиз/Автор рипа: Freeze Studio
Видео: MPEG-4 AVC, 1280x720 (16:9), 29,970 fps, 1980 kbps
Аудио: AAC, 2 ch, 256 kbps, 44 kHz
MediaInfo
Общее
Формат : MPEG-4
Профиль формата : Base Media
Идентификатор кодека : isom
Размер файла : 1,50 Гбайт
Продолжительность : 1 ч. 35 м.
Общий поток : 2245 Кбит/сек
Программа кодирования : Lavf56.25.101
Видео
Идентификатор : 1
Формат : AVC
Формат/Информация : Advanced Video Codec
Профиль формата : [email protected]
Параметр CABAC формата : Да
Параметр ReFrames формата : 4 кадра
Параметр GOP формата : M=4, N=30
Идентификатор кодека : avc1
Идентификатор кодека/Информация : Advanced Video Coding
Продолжительность : 1 ч. 35 м.
Битрейт : 1980 Кбит/сек
Ширина : 1280 пикселей
Высота : 720 пикселей
Соотношение сторон : 16:9
Режим частоты кадров : Постоянный
Частота кадров : 29,970 кадров/сек
Цветовое пространство : YUV
Субдискретизация насыщенности : 4:2:0
Битовая глубина : 8 бит
Тип развёртки : Прогрессивная
Бит/(Пиксели*Кадры) : 0.072
Размер потока : 1,32 Гбайт (88%)
Библиотека кодирования : x264 core 142
Настройки программы : cabac=1 / ref=3 / deblock=1:0:0 / analyse=0x3:0x113 / me=hex / subme=7 / psy=1 / psy_rd=1.00:0.00 / mixed_ref=1 / me_range=16 / chroma_me=1 / trellis=1 / 8x8dct=1 / cqm=0 / deadzone=21,11 / fast_pskip=1 / chroma_qp_offset=-2 / threads=4 / lookahead_threads=1 / sliced_threads=0 / nr=0 / decimate=1 / interlaced=0 / bluray_compat=0 / constrained_intra=0 / bframes=3 / b_pyramid=2 / b_adapt=1 / b_bias=0 / direct=1 / weightb=1 / open_gop=0 / weightp=2 / keyint=30 / keyint_min=3 / scenecut=40 / intra_refresh=0 / rc_lookahead=30 / rc=2pass / mbtree=1 / bitrate=1980 / ratetol=1.0 / qcomp=0.60 / qpmin=0 / qpmax=69 / qpstep=4 / cplxblur=20.0 / qblur=0.5 / ip_ratio=1.40 / aq=1:1.00
Аудио
Идентификатор : 2
Формат : AAC
Формат/Информация : Advanced Audio Codec
Профиль формата : LC
Идентификатор кодека : 40
Продолжительность : 1 ч. 35 м.
Вид битрейта : Постоянный
Битрейт : 256 Кбит/сек
Каналы : 2 канала
Расположение каналов : Front: L R
Частота : 44,1 КГц
Метод сжатия : С потерями
Размер потока : 175 Мбайт (11%)

Trailer

Скриншоты
Boruto Naruto the Movie 11.mp4.torrent
Трекер: Зарегистрирован

magnet ссылка

 


Скачать .torrent

15 KB

Статус: проверено (by BRinkaaa в 15-Фев-16 15:23)
Зарегистрирован: 15-Фев-16 13:12
Скачан: 388 раз
Размер: 1.5 GB | 
Поблагодарили:
Скачать Боруто: Наруто. Фильм 11 / Boruto: Naruto the Movie 11 / Боруто: фильм Наруто [Movie] [Без хардсаба] [RUS(int)] [2015 г., Приключения, комедия, боевые искусства, сёнэн, WEBRip] [720p] торрент
 


Похожие раздачи

Wolfel

post 15-Фев-16 14:01 (спустя 49 минут)

Автору спасибо, но мне одному кажется, что Наруто себя изжил?

Uzumaki_NARUT0

post 15-Фев-16 14:16 (спустя 14 минут)

+ уже давно!

BRinkaaa

post 15-Фев-16 14:41 (спустя 24 минуты)

FalloutWait
 !  Никита MC Freeze Рябых(Freeze Studio)
Красный цвет использует только администрация, так что меняй цвет :!:

Moor4ik

post 16-Фев-16 22:23 (спустя 1 день 7 часов)

Почему в мувиках все злодеи - какие-то опереточные клоуны ни в какое сравнение не идущие с Орычем, Пэйном, Мадарой?

post 10-Май-17 16:41 (спустя 1 год 2 месяца)

Топик был перенесен из форума Новинки в форум HDTVRip / HDTV 720 / 1080


Snowden
 

Текущее время: 22-Ноя 16:27

Часовой пояс: GMT + 3



Вы не можете начинать темы
Вы не можете отвечать на сообщения
Вы не можете редактировать свои сообщения
Вы не можете удалять свои сообщения
Вы не можете голосовать в опросах
Вы не можете прикреплять файлы к сообщениям
Вы не можете скачивать файлы