Loading...
Error
 

Скачать торрент Барса: Больше, чем клуб / Barça Dreams (Жорди Льомпарт) [2015, Документальный, спорт, HDRip-AVC] [iTunes] R.G. RustorRipper's

 
Автор Сообщение

Dimmоn

post 12-Апр-16 21:11

Барса: Больше, чем клуб / Barça Dreams


pic
    Год выпуска » 2015
    Страна » Испания
    Жанр » Документальный, спорт
    Продолжительность » 02:02:47
    Перевод » Профессиональный (многоголосый) iTunes
    Субтитры » Отсутствуют


В ролях
» Хосе Рамон Алечанко, Хосе Мария Бакеро, Рамон Беса, Йохан Кройф, Жауме Дескальс, Карлес Фолгуэра, Эмма Гампер, По Газоль, Хосеп Гвардиола, Хави Эрнандес

Режиссёр
» Жорди Льомпарт

ОПИСАНИЕ:

» «Барса»: Больше, чем клуб» — фильм-путешествие по закоулкам души одного из самых титулованных футбольных клубов и его легенд, рассказ о том, как «Барселона» стала командой, вызывающей восхищение у всего мира. Лента рассказывает о самых знаменитых игроках и тренерах клуба за всю историю, многие из которых лично приняли участие в съемках.

    Качество » HDRip-AVC
    Формат » MKV
    Видео кодек » AVC
    Аудио кодек » AC3
    Видео » AVC at 2 006 kb/s, 1024x576 at 24.000 fps
    Аудио » АС3, 384 kb/s, 6 каналов, 48.0 КгцРусский


Автор рипа » Dimmon
pic

СЭМПЛ:

Рейтинг:
Медиа инфо
Уникальный идентификатор : 200109781115414655755779482392777529716 (0x968BBDF13044FC0B8ACA974457791974)
Полное имя : Barsa.2015.HDRip-AVC.mkv
Формат : Matroska
Версия формата : Version 2
Размер файла : 2,05 Гбайт
Продолжительность : 2 ч. 2 м.
Общий поток : 2391 Кбит/сек
Дата кодирования : UTC 2016-04-12 17:55:38
Программа кодирования : mkvmerge v7.8.0 ('River Man') 32bit built on Apr 3 2015 12:11:22
Библиотека кодирования : libebml v1.3.1 + libmatroska v1.4.2

Видео
Идентификатор : 1
Формат : AVC
Формат/Информация : Advanced Video Codec
Профиль формата : [email protected]
Параметр CABAC формата : Да
Параметр ReFrames формата : 10 кадров
Идентификатор кодека : V_MPEG4/ISO/AVC
Продолжительность : 2 ч. 2 м.
Битрейт : 2006 Кбит/сек
Ширина : 1024 пикселя
Высота : 576 пикселей
Соотношение сторон : 16:9
Режим частоты кадров : Постоянный
Частота кадров : 24,000 кадра/сек
Цветовое пространство : YUV
Субдискретизация насыщенности : 4:2:0
Битовая глубина : 8 бит
Тип развёртки : Прогрессивная
Бит/(Пиксели*Кадры) : 0.142
Размер потока : 1,68 Гбайт (82%)
Библиотека кодирования : x264 core 146 r2538 121396c
Настройки программы : cabac=1 / ref=10 / deblock=1:-2:-2 / analyse=0x3:0x113 / me=umh / subme=11 / psy=1 / psy_rd=1.00:0.20 / mixed_ref=1 / me_range=32 / chroma_me=1 / trellis=2 / 8x8dct=1 / cqm=0 / deadzone=21,11 / fast_pskip=0 / chroma_qp_offset=-3 / threads=6 / lookahead_threads=1 / sliced_threads=0 / nr=0 / decimate=0 / interlaced=0 / bluray_compat=0 / constrained_intra=0 / bframes=3 / b_pyramid=2 / b_adapt=2 / b_bias=0 / direct=3 / weightb=1 / open_gop=0 / weightp=2 / keyint=240 / keyint_min=24 / scenecut=40 / intra_refresh=0 / rc_lookahead=60 / rc=2pass / mbtree=1 / bitrate=2006 / ratetol=1.0 / qcomp=0.60 / qpmin=0 / qpmax=69 / qpstep=4 / cplxblur=20.0 / qblur=0.5 / ip_ratio=1.40 / aq=1:1.00
Default : Да
Forced : Нет

Аудио
Идентификатор : 2
Формат : AC-3
Формат/Информация : Audio Coding 3
Расширение режима : CM (complete main)
Параметр Endianness формата : Big
Идентификатор кодека : A_AC3
Продолжительность : 2 ч. 2 м.
Вид битрейта : Постоянный
Битрейт : 384 Кбит/сек
Каналы : 6 каналов
Расположение каналов : Front: L C R, Side: L R, LFE
Частота : 48,0 КГц
Частота кадров : 31,250 кадров/сек (1536 spf)
Метод сжатия : С потерями
Размер потока : 337 Мбайт (16%)
Default : Да
Forced : Нет
Трейлер:
Скриншоты:
Barsa.2015.HDRip-AVC.mkv.torrent
Трекер: Зарегистрирован

magnet ссылка

 


Скачать .torrent

11 KB

Статус: проверено (by Dimmоn в 12-Апр-16 21:11)
Зарегистрирован: 12-Апр-16 21:11
Скачан: 215 раз
Размер: 2.05 GB | 
Поблагодарили:
Скачать Барса: Больше, чем клуб / Barça Dreams (Жорди Льомпарт) [2015, Документальный, спорт, HDRip-AVC] [iTunes] R.G. RustorRipper's торрент
 


Похожие раздачи

Fisher

post 12-Апр-16 22:13 (спустя 1 час 2 минуты)

юхуууу Супер! ;) Спасибо бро, давно искал де бы скачать! Мой любимый клуб! pic
Visca el Barça y visca Catalunya!

6eJIblu_BoJIK

post 12-Апр-16 23:37 (спустя 1 час 23 минуты)

Fisher
полностью с Вами солидарен :beer2:
благодарю, Dimmon

ХАЛИД

post 13-Апр-16 01:28 (спустя 1 час 51 минута)

Ясно :roll:

Дилмурод

post 14-Апр-16 02:23 (спустя 1 день)

:lol:

levandosiy

post 14-Апр-16 15:05 (спустя 12 часов)

Барса: как вылететь в 1\4 Лиги Чемпионов

post 03-Июл-16 14:33 (спустя 2 месяца 18 дней)

Топик был перенесен из форума HDRip / BDRip-AVC в форум Научно-популярные и познавательные фильмы


Snowden
 

Текущее время: 16-Янв 22:03

Часовой пояс: GMT + 3



Вы не можете начинать темы
Вы не можете отвечать на сообщения
Вы не можете редактировать свои сообщения
Вы не можете удалять свои сообщения
Вы не можете голосовать в опросах
Вы не можете прикреплять файлы к сообщениям
Вы не можете скачивать файлы