Loading...
Error
 

Скачать торрент Безумный Макс: Дорога ярости / Mad Max: Fury Road (Джордж Миллер) [2015, боевик, фантастика, приключения, BDRip 1080p][iTunes]горизонтальная анаморфная стереопара

 
Автор Сообщение

brother225

post 23-Апр-16 23:41

pic
Безумный Макс: Дорога ярости
Mad Max: Fury Road

Год выпуска: 2015
Страна: Австралия, США
Жанр: боевик, фантастика, приключения
Продолжительность: 01:53:20
Перевод: Дублированный [iTunes]
Субтитры: отсутствуют
В ролях: Том Харди, Шарлиз Терон, Николас Холт, Хью Кияс-Бёрн, Райли Кио, Роузи Хантингтон-Уайтли, Зои Кравиц, Эбби Ли, Кортни Итон, Нэйтан Джонс
Режиссёр: Джордж Миллер
Описание: Преследуемый призраками беспокойного прошлого, Макс уверен, что лучший способ выжить — скитаться в одиночестве. Несмотря на это, он присоединяется к бунтарям, бегущим через всю пустыню на боевой фуре, под предводительством военачальника Фуриосы.

Они пытаются сбежать из Цитадели, страдающей от тирании Несмертного Джо, у которого они забрали кое-что очень ценное. Разъярённый военачальник бросает все свои силы на погоню за мятежниками, ступая на дорогу войны — дорогу ярости.
Качество: BDRip 1080p
Формат: MKV
Формат 3D: SbS / горизонтальная анаморфная стереопара
Порядок ракурсов: левый ракурс первый
Видео кодек: AVC
Аудио кодек: AC3
Видео: AVC 1920х1080 23.976 fps 8000Kbps
Аудио: Русский: AC3, 6 ch, 48 KHz, 384 Kbps
MediaInfo
Complete name : G:\безумныймакс.mk3d
Format : Matroska
Format version : Version 4 / Version 2
File size : 6.64 GiB
Duration : 1h 53mn
Overall bit rate : 8 384 Kbps
Encoded date : UTC 2016-04-20 03:56:10
Writing application : mkvmerge v9.0.1 ('Obstacles') 64bit
Writing library : libebml v1.3.3 + libmatroska v1.4.4

Video
ID : 1
Format : AVC
Format/Info : Advanced Video Codec
Format profile : [email protected]
MultiView_Count : 2
MultiView_Layout : Side by Side (left eye first)
Format settings, CABAC : Yes
Format settings, ReFrames : 4 frames
Codec ID : V_MPEG4/ISO/AVC
Duration : 1h 53mn
Bit rate : 8 000 Kbps
Width : 1 920 pixels
Height : 1 080 pixels
Display aspect ratio : 16:9
Frame rate mode : Constant
Frame rate : 23.976 (24000/1001) fps
Color space : YUV
Chroma subsampling : 4:2:0
Bit depth : 8 bits
Scan type : Progressive
Bits/(Pixel*Frame) : 0.161
Stream size : 6.33 GiB (95%)
Title : 3D Half-SBS (x264 [email protected] 2-pass 8000 Kbps preset veryslow, tune film)
Writing library : x264 core 148 r2692 64f4e24
Encoding settings : cabac=1 / ref=4 / deblock=1:-1:-1 / analyse=0x3:0x133 / me=umh / subme=10 / psy=1 / psy_rd=1.00:0.15 / mixed_ref=1 / me_range=24 / chroma_me=1 / trellis=2 / 8x8dct=1 / cqm=0 / deadzone=21,11 / fast_pskip=1 / chroma_qp_offset=-3 / threads=12 / lookahead_threads=2 / sliced_threads=0 / nr=0 / decimate=1 / interlaced=0 / bluray_compat=0 / constrained_intra=0 / bframes=8 / b_pyramid=2 / b_adapt=2 / b_bias=0 / direct=3 / weightb=1 / open_gop=0 / weightp=2 / keyint=250 / keyint_min=23 / scenecut=40 / intra_refresh=0 / rc_lookahead=60 / rc=2pass / mbtree=1 / bitrate=8000 / ratetol=1.0 / qcomp=0.60 / qpmin=0 / qpmax=69 / qpstep=4 / cplxblur=20.0 / qblur=0.5 / vbv_maxrate=62500 / vbv_bufsize=78125 / nal_hrd=none / filler=0 / frame-packing=3 / ip_ratio=1.40 / aq=1:1.00
Default : Yes
Forced : No
Color range : Limited
Matrix coefficients : BT.709

Audio
ID : 2
Format : AC-3
Format/Info : Audio Coding 3
Mode extension : CM (complete main)
Format settings, Endianness : Big
Codec ID : A_AC3
Duration : 1h 53mn
Bit rate mode : Constant
Bit rate : 384 Kbps
Channel(s) : 6 channels
Channel positions : Front: L C R, Side: L R, LFE
Sampling rate : 48.0 KHz
Frame rate : 31.250 fps (1536 spf)
Compression mode : Lossy
Stream size : 311 MiB (5%)
Default : Yes
Forced : No

Menu
00:00:00.000 : :1 - 0:00:00
00:05:00.000 : :2 - 0:05:00
00:10:00.000 : :3 - 0:10:00
00:15:00.000 : :4 - 0:15:00
00:20:00.000 : :5 - 0:20:00
00:25:00.000 : :6 - 0:25:00
00:30:00.000 : :7 - 0:30:00
00:35:00.000 : :8 - 0:35:00
00:40:00.000 : :9 - 0:40:00
00:45:00.000 : :10 - 0:45:00
00:50:00.000 : :11 - 0:50:00
00:55:00.000 : :12 - 0:55:00
01:00:00.000 : :13 - 1:00:00
01:05:00.000 : :14 - 1:05:00
01:10:00.000 : :15 - 1:10:00
01:15:00.000 : :16 - 1:15:00
01:20:00.000 : :17 - 1:20:00
01:25:00.000 : :18 - 1:25:00
01:30:00.000 : :19 - 1:30:00
01:35:00.000 : :20 - 1:35:00
01:40:00.000 : :21 - 1:40:00
01:45:00.000 : :22 - 1:45:00
01:50:00.000 : :23 - 1:50:00
Скринлист
.mk3d.torrent
Трекер: Зарегистрирован

magnet ссылка

 


Скачать .torrent

17 KB

Статус: проверено (by Snowden в 24-Апр-16 10:01)
Зарегистрирован: 23-Апр-16 23:41
Скачан: 132 раза
Размер: 6.64 GB | 
Поблагодарили:
Скачать Безумный Макс: Дорога ярости / Mad Max: Fury Road (Джордж Миллер) [2015, боевик, фантастика, приключения, BDRip 1080p][iTunes]горизонтальная анаморфная стереопара торрент
 


Похожие раздачи

Absurd

post 24-Апр-16 00:09 (спустя 28 минут)

звук есть давно лиц а не тунец, лайхак номер 1
более кач рип есть на клубе лайвхак номер 2
зачем эта раздача хз в х3 лайвхак номер 3
ЗЫ еще и оригин дороги нету рукаладонь

serg600

post 05-Июн-16 18:10 (спустя 1 месяц 11 дней)

не качайте фильм не запускается,раздающего в баню!

brother225

post 05-Июн-16 19:04 (спустя 54 минуты)

serg600
скачанный этот же фильм в HEVCe точно запустится :) Удачи.

Chozy

post 13-Окт-18 02:54 (спустя 2 года 4 месяца)

скринов нет. Баньте

Snowden

post 13-Окт-18 14:39 (спустя 11 часов)

Chozy
Фотохостинг savepic.biz уже давно не существует!

Текущее время: 15-Ноя 09:10

Часовой пояс: GMT + 3



Вы не можете начинать темы
Вы не можете отвечать на сообщения
Вы не можете редактировать свои сообщения
Вы не можете удалять свои сообщения
Вы не можете голосовать в опросах
Вы не можете прикреплять файлы к сообщениям
Вы не можете скачивать файлы