Loading...
Error
 

Скачать торрент Rage - The Video Link [1994 г., Heavy Metal, DVDRip-AVC]

 
Автор Сообщение

JPriest

post 09-Авг-16 16:04

Rage - The Video Link

pic
Страна: Germany
Жанр: Heavy Metal
Продолжительность: 00:57:17 + 00:13:16
Год выпуска: 1994 г.
Описание: В релиз вошло всё содержание диска: концерт в Гамбурге, интервью и отрывки выступлений.

Треклист:
01. Shame on You
02. Don't Fear The Winter
03. Certain Days
04. Suicide
05. Band Interview
06. Refuge
07. Baby I'm Your Nightmare
08. Down By Law
09. Firestorm
10. Behind-The-Scenes 1
11. Solitary Man
12. Behind-The-Scenes 2
13. Enough Is Enough
14. Invisible Horizons
Bonus:
15. On the edge
16. Interview
17. Nevermore
18. From the underworld

Качество: DVDRip-AVC
Контейнер: MKV
Видео кодек: H.264
Аудио кодек: AC3
Видео: [email protected]; 25 fps; 2547 kbps
Аудио: 448 kbps; 48 KHz; 6 channels
Навигация по главам: есть
Скриншоты
pic pic pic pic
MediaInfo
Общее
Уникальный идентификатор : 179148745660891760606604251310404782468 (0x86C6CB1ABD7B0159974E30D26C75C984)
Полное имя : D:\MY VIDEO\Rage.-.The.Video.Link.1994.DVDRip-AVC\01. Live in Hamburg '93.mkv
Формат : Matroska
Версия формата : Version 4 / Version 2
Размер файла : 1,20 Гбайт
Продолжительность : 57 м.
Режим общего битрейта : Переменный
Общий поток : 2997 Кбит/сек
Дата кодирования : UTC 2016-08-08 14:44:21
Программа кодирования : mkvmerge v8.2.0 ('World of Adventure') 64bit
Библиотека кодирования : libebml v1.3.1 + libmatroska v1.4.2

Видео
Идентификатор : 1
Формат : AVC
Формат/Информация : Advanced Video Codec
Профиль формата : [email protected]
Параметр CABAC формата : Да
Параметр ReFrames формата : 6 кадров
Идентификатор кодека : V_MPEG4/ISO/AVC
Продолжительность : 57 м.
Вид битрейта : Переменный
Битрейт : 2547 Кбит/сек
Максимальный битрейт : 17,5 Мбит/сек
Ширина : 704 пикселя
Высота : 576 пикселей
Соотношение сторон : 1,719
Соотношение сторон в оригинале : 1,222
Режим частоты кадров : Постоянный
Частота кадров : 25,000 кадров/сек
Стандарт вещания : PAL
Цветовое пространство : YUV
Субдискретизация насыщенности : 4:2:0
Битовая глубина : 8 бит
Тип развёртки : Прогрессивная
Бит/(Пиксели*Кадры) : 0.251
Размер потока : 1,02 Гбайт (85%)
Библиотека кодирования : x264 core 148 r2638 7599210
Настройки программы : cabac=1 / ref=6 / deblock=1:0:0 / analyse=0x3:0x133 / me=umh / subme=11 / psy=1 / psy_rd=1.00:0.00 / mixed_ref=1 / me_range=32 / chroma_me=1 / trellis=2 / 8x8dct=1 / cqm=0 / deadzone=21,11 / fast_pskip=0 / chroma_qp_offset=10 / threads=9 / lookahead_threads=1 / sliced_threads=0 / nr=0 / decimate=1 / interlaced=0 / bluray_compat=0 / constrained_intra=0 / bframes=6 / b_pyramid=2 / b_adapt=2 / b_bias=0 / direct=3 / weightb=1 / open_gop=0 / weightp=2 / keyint=250 / keyint_min=25 / scenecut=40 / intra_refresh=0 / rc_lookahead=120 / rc=crf / mbtree=1 / crf=20.0 / qcomp=0.60 / qpmin=0 / qpmax=69 / qpstep=4 / vbv_maxrate=17500 / vbv_bufsize=17500 / crf_max=0.0 / nal_hrd=vbr / filler=0 / ip_ratio=1.40 / aq=2:1.00
Default : Да
Forced : Нет

Аудио
Идентификатор : 2
Формат : AC-3
Формат/Информация : Audio Coding 3
Расширение режима : CM (complete main)
Параметр Endianness формата : Big
Идентификатор кодека : A_AC3
Продолжительность : 57 м.
Вид битрейта : Постоянный
Битрейт : 448 Кбит/сек
Каналы : 6 каналов
Расположение каналов : Front: L C R, Side: L R, LFE
Частота : 48,0 КГц
Частота кадров : 31,250 кадров/сек (1536 spf)
Метод сжатия : С потерями
Задержка видео : 100 мс.
Размер потока : 184 Мбайт (15%)
Default : Да
Forced : Нет

Меню
00:00:00.000 : en:Opening Titles
00:00:48.480 : en:Shame on you
00:05:39.840 : en:Don't Fear The Winter
00:10:01.440 : en:Certain Days
00:15:38.880 : en:Suicide
00:19:45.600 : en:Band Interview
00:20:24.000 : en:Refuge
00:24:30.720 : en:Baby I'm Your Nightmare
00:29:35.520 : en:Down By Law
00:33:17.280 : en:Firestorm
00:38:13.440 : en:Behind The Scenes 1
00:39:46.560 : en:Solitary Man
00:43:28.320 : en:Behind The Scenes 2
00:45:50.880 : en:Enough Is Enough
00:50:19.680 : en:Invisible Horizons
Теххарактеристики Бонуса
Качество: DVDRip-AVC
Контейнер: MKV
Видео кодек: H.264
Аудио кодек: AC3
Видео: [email protected]; 25 fps; 2044 kbps
Аудио: 384 kbps; 48 KHz; 2 channels
Навигация по главам: есть
Скриншоты
pic pic pic pic
MediaInfo
Общее
Уникальный идентификатор : 171451798562591771759630185386286618520 (0x80FC6A5040F2F8B9972BC8A5609D9798)
Полное имя : D:\MY VIDEO\Rage.-.The.Video.Link.1994.DVDRip-AVC\02. Bonus.mkv
Формат : Matroska
Версия формата : Version 4 / Version 2
Размер файла : 231 Мбайт
Продолжительность : 13 м.
Режим общего битрейта : Переменный
Общий поток : 2430 Кбит/сек
Дата кодирования : UTC 2016-08-08 14:46:41
Программа кодирования : mkvmerge v8.2.0 ('World of Adventure') 64bit
Библиотека кодирования : libebml v1.3.1 + libmatroska v1.4.2

Видео
Идентификатор : 1
Формат : AVC
Формат/Информация : Advanced Video Codec
Профиль формата : [email protected]
Параметр CABAC формата : Да
Параметр ReFrames формата : 6 кадров
Идентификатор кодека : V_MPEG4/ISO/AVC
Продолжительность : 13 м.
Вид битрейта : Переменный
Битрейт : 2044 Кбит/сек
Максимальный битрейт : 17,5 Мбит/сек
Ширина : 708 пикселей
Высота : 576 пикселей
Соотношение сторон : 16:9
Соотношение сторон в оригинале : 1,229
Режим частоты кадров : Постоянный
Частота кадров : 25,000 кадров/сек
Цветовое пространство : YUV
Субдискретизация насыщенности : 4:2:0
Битовая глубина : 8 бит
Тип развёртки : Прогрессивная
Бит/(Пиксели*Кадры) : 0.200
Размер потока : 194 Мбайт (84%)
Библиотека кодирования : x264 core 148 r2638 7599210
Настройки программы : cabac=1 / ref=6 / deblock=1:0:0 / analyse=0x3:0x133 / me=umh / subme=11 / psy=1 / psy_rd=1.00:0.00 / mixed_ref=1 / me_range=32 / chroma_me=1 / trellis=2 / 8x8dct=1 / cqm=0 / deadzone=21,11 / fast_pskip=0 / chroma_qp_offset=10 / threads=9 / lookahead_threads=1 / sliced_threads=0 / nr=0 / decimate=1 / interlaced=0 / bluray_compat=0 / constrained_intra=0 / bframes=6 / b_pyramid=2 / b_adapt=2 / b_bias=0 / direct=3 / weightb=1 / open_gop=0 / weightp=2 / keyint=250 / keyint_min=25 / scenecut=40 / intra_refresh=0 / rc_lookahead=120 / rc=crf / mbtree=1 / crf=20.0 / qcomp=0.60 / qpmin=0 / qpmax=69 / qpstep=4 / vbv_maxrate=17500 / vbv_bufsize=17500 / crf_max=0.0 / nal_hrd=vbr / filler=0 / ip_ratio=1.40 / aq=2:1.00
Default : Да
Forced : Нет

Аудио
Идентификатор : 2
Формат : AC-3
Формат/Информация : Audio Coding 3
Расширение режима : CM (complete main)
Параметр Endianness формата : Big
Идентификатор кодека : A_AC3
Продолжительность : 13 м.
Вид битрейта : Постоянный
Битрейт : 384 Кбит/сек
Каналы : 2 канала
Расположение каналов : Front: L R
Частота : 48,0 КГц
Частота кадров : 31,250 кадров/сек (1536 spf)
Метод сжатия : С потерями
Задержка видео : 60 мс.
Размер потока : 36,4 Мбайт (16%)
Default : Да
Forced : Нет

Меню
00:00:00.000 : en:On The Edge
00:04:28.800 : en:Interview
00:05:46.080 : en:Nevermore
00:10:01.920 : en:From The Underworld
Rage.-.The.Video.Link.1994.DVDRip-AVC.torrent
Трекер: Зарегистрирован

magnet ссылка

 


Скачать .torrent

15 KB

Статус: проверено (by E IL o T IR i X в 09-Авг-16 16:27)
Зарегистрирован: 09-Авг-16 16:04
Скачан: 14 раз
Размер: 1.42 GB | 
Поблагодарили:
Скачать Rage - The Video Link [1994 г., Heavy Metal, DVDRip-AVC] торрент
 


Похожие раздачи

Текущее время: 16-Дек 00:15

Часовой пояс: GMT + 3



Вы не можете начинать темы
Вы не можете отвечать на сообщения
Вы не можете редактировать свои сообщения
Вы не можете удалять свои сообщения
Вы не можете голосовать в опросах
Вы не можете прикреплять файлы к сообщениям
Вы не можете скачивать файлы