Loading...
Error
 

Скачать торрент Powerwolf - The Metal Mass Live [2016 г., Power/Heavy Metal, BDRip-AVC, 720p]

 
Автор Сообщение

JPriest

post 26-Авг-16 20:12

Powerwolf - The Metal Mass Live

pic
Страна: Germany
Жанр: Power/Heavy Metal
Продолжительность: 05:54:08
Год выпуска: 2016 г.
Состав:
Attila Dorn – Vocals; Falk Maria Schlegel – Keyboards; Roel van Helden – Drums; Matthew Greywolf – Guitars; Charles Greywolf – Bass, Guitars
Описание: В релизе всё видеосодержимое двухдискового издания группы.
Качество: BDRip-AVC
Контейнер: MKV
Видео: H.264
Аудио: PCM, DTS, AAC
Треклист
Masters of Rock 2015 Show
01. Sanctified with Dynamite
02. Coleus Sanctus
03. Army Of The Night
04. Amen & Attack
05. Resurrection by Erection
06. Armata Strigoi
07. Sacred & Wild
08. All we need is Blood
09. Drumsolo
10. Kreuzfeuer
11. Werewolves of Armenia
12. We drink your blood
13. Lupus Dei
14. Raise Your Fist, Evangelist
15. In The Name Of God (Deus Vult)

Summer Breeze 2015 Show
01. Sanctified with Dynamite
02. Coleus Sanctus
03. Army Of The Night
04. Amen & Attack
05. Resurrection by Erection
06. Armata Strigoi
07. Kreuzfeuer
08. Werewolves of Armenia
09. In The Name Of God (Deus Vult)
10. Blessed & Possessed
11. All We Need Is Blood
12. Dead Boys Don‘t Cry
13. We drink your blood
14. Lupus Dei

Wolfsnachte Tour 2015 Show
01. Blessed & Possessed
02. Coleus Sanctus
03. Amen & Attack
04. Cardinal Sin
05. Army Of The Night
06. Resurrection by Erection
07. Armata Strigoi
08. Drumsolo
09. Dead Boys Don‘t Cry
10. Let There Be Night
11. Werewolves of Armenia
12. In The Name Of God (Deus Vult)
13. We drink your blood
14. Lupus Dei
15. Sanctified with Dynamite
16. Kreuzfeuer
17. All We Need Is Blood

Documentation: Summer Breeze
Documentation: Kreuzweg - Of Wolves And Men
Videoclips
01. Amen & Attack
02. Army Of The Night
03. We drink your blood
04. Sanctified with Dynamite
Техданные
Masters Of Rock 2015 Show
Продолжительность: 01:25:37
Видео: H.264; 1280x720; 24 fps; 7175 kbps; [email protected]
Аудио 1: PCM; 1536 kbps; 48 KHz; 2 channels
Аудио 2: DTS; 768 kbps; 48 KHz; 6 channels
MediaInfo
Общее
Уникальный идентификатор : 241924050820042086474928605419809891248 (0xB600E09B981835D4AF69EACE5B2D63B0)
Полное имя : D:\MY VIDEO\Powerwolf.-.The.Metal.Mass.Live.2016.BDRip-AVC.720p\01. Masters Of Rock 2015 Show.mkv
Формат : Matroska
Версия формата : Version 4 / Version 2
Размер файла : 5,67 Гбайт
Продолжительность : 1 ч. 25 м.
Режим общего битрейта : Переменный
Общий поток : 9482 Кбит/сек
Дата кодирования : UTC 2016-08-25 10:20:06
Программа кодирования : mkvmerge v8.2.0 ('World of Adventure') 64bit
Библиотека кодирования : libebml v1.3.1 + libmatroska v1.4.2

Видео
Идентификатор : 1
Формат : AVC
Формат/Информация : Advanced Video Codec
Профиль формата : [email protected]
Параметр CABAC формата : Да
Параметр ReFrames формата : 9 кадров
Идентификатор кодека : V_MPEG4/ISO/AVC
Продолжительность : 1 ч. 25 м.
Вид битрейта : Переменный
Битрейт : 7175 Кбит/сек
Максимальный битрейт : 62,5 Мбит/сек
Ширина : 1280 пикселей
Высота : 720 пикселей
Соотношение сторон : 16:9
Режим частоты кадров : Постоянный
Частота кадров : 24,000 кадра/сек
Цветовое пространство : YUV
Субдискретизация насыщенности : 4:2:0
Битовая глубина : 8 бит
Тип развёртки : Прогрессивная
Бит/(Пиксели*Кадры) : 0.324
Размер потока : 4,29 Гбайт (76%)
Библиотека кодирования : x264 core 148 r2638 7599210
Настройки программы : cabac=1 / ref=9 / deblock=1:-2:0 / analyse=0x3:0x133 / me=umh / subme=11 / psy=1 / psy_rd=1.12:0.08 / mixed_ref=1 / me_range=32 / chroma_me=1 / trellis=2 / 8x8dct=1 / cqm=0 / deadzone=21,11 / fast_pskip=0 / chroma_qp_offset=-3 / threads=9 / lookahead_threads=2 / sliced_threads=0 / nr=0 / decimate=1 / interlaced=0 / bluray_compat=0 / constrained_intra=0 / bframes=11 / b_pyramid=2 / b_adapt=2 / b_bias=0 / direct=3 / weightb=1 / open_gop=0 / weightp=2 / keyint=240 / keyint_min=24 / scenecut=40 / intra_refresh=0 / rc_lookahead=120 / rc=crf / mbtree=1 / crf=19.8 / qcomp=0.66 / qpmin=0 / qpmax=69 / qpstep=4 / vbv_maxrate=62500 / vbv_bufsize=78125 / crf_max=0.0 / nal_hrd=vbr / filler=0 / ip_ratio=1.40 / aq=2:1.00
Default : Да
Forced : Нет

Аудио #1
Идентификатор : 2
Формат : PCM
Идентификатор кодека : A_PCM/INT/LIT
Продолжительность : 1 ч. 25 м.
Вид битрейта : Постоянный
Битрейт : 1536 Кбит/сек
Каналы : 2 канала
Частота : 48,0 КГц
Частота кадров : 32,000 кадра/сек (1500 spf)
Битовая глубина : 16 бит
Задержка видео : -66 мс.
Размер потока : 941 Мбайт (16%)
Default : Да
Forced : Нет

Аудио #2
Идентификатор : 3
Формат : DTS
Формат/Информация : Digital Theater Systems
Режим : 16
Параметр Endianness формата : Big
Идентификатор кодека : A_DTS
Продолжительность : 1 ч. 25 м.
Вид битрейта : Постоянный
Битрейт : 768 Кбит/сек
Каналы : 6 каналов
Расположение каналов : Front: L C R, Side: L R, LFE
Частота : 48,0 КГц
Частота кадров : 93,750 кадра/сек (512 spf)
Битовая глубина : 24 бит
Метод сжатия : С потерями
Задержка видео : -66 мс.
Размер потока : 470 Мбайт (8%)
Default : Нет
Forced : Нет

Меню
00:00:00.000 : en:Sanctified with Dynamite
00:06:42.083 : en:Coleus Sanctus
00:11:49.375 : en:Army Of The Night
00:16:54.583 : en:Amen & Attack
00:21:29.583 : en:Resurrection by Erection
00:26:23.333 : en:Armata Strigoi
00:33:13.750 : en:Sacred & Wild
00:38:00.208 : en:All We Need is Blood
00:42:44.583 : en:Drumsolo
00:48:21.042 : en:Kreuzfeuer
00:56:33.750 : en:Werewolves of Armenia
01:01:07.708 : en:We Drink Your Blood
01:07:05.000 : en:Lupus Dei
01:13:45.000 : en:Raise Your Fist, Evangelist
01:19:24.583 : en:In The Name Of God (Deus Vult)
logx264
---[Information] [25.08.2016 6:11:38] raw [info]: 1280x720p 1:1 @ 24/1 fps (cfr)
---[Information] [25.08.2016 6:11:38] x264 [info]: using SAR=1/1
---[Information] [25.08.2016 6:11:38] x264 [info]: using cpu capabilities: MMX2 SSE2Fast LZCNT
---[Information] [25.08.2016 6:11:38] x264 [info]: profile High, level 4.1
---[Information] [25.08.2016 12:49:23] x264 [info]: frame I:1426 Avg QP:18.09 size:137205
---[Information] [25.08.2016 12:49:23] x264 [info]: frame P:29928 Avg QP:22.08 size: 56922
---[Information] [25.08.2016 12:49:23] x264 [info]: frame B:91924 Avg QP:24.04 size: 29453
---[Information] [25.08.2016 12:49:23] x264 [info]: consecutive B-frames: 4.1% 3.9% 9.9% 28.9% 17.1% 23.7% 4.4% 2.3% 2.5% 1.1% 1.0% 1.0%
---[Information] [25.08.2016 12:49:23] x264 [info]: mb I I16..4: 8.9% 64.3% 26.8%
---[Information] [25.08.2016 12:49:23] x264 [info]: mb P I16..4: 4.0% 23.9% 4.2% P16..4: 26.1% 25.9% 8.2% 1.6% 0.2% skip: 6.0%
---[Information] [25.08.2016 12:49:23] x264 [info]: mb B I16..4: 1.2% 6.7% 0.9% B16..8: 33.1% 18.6% 3.6% direct:12.0% skip:24.0% L0:42.3% L1:42.0% BI:15.8%
---[Information] [25.08.2016 12:49:23] x264 [info]: 8x8 transform intra:74.7% inter:60.1%
---[Information] [25.08.2016 12:49:23] x264 [info]: direct mvs spatial:100.0% temporal:0.0%
---[Information] [25.08.2016 12:49:23] x264 [info]: coded y,uvDC,uvAC intra: 73.6% 68.7% 34.1% inter: 41.1% 33.1% 3.8%
---[Information] [25.08.2016 12:49:23] x264 [info]: i16 v,h,dc,p: 32% 17% 7% 43%
---[Information] [25.08.2016 12:49:23] x264 [info]: i8 v,h,dc,ddl,ddr,vr,hd,vl,hu: 8% 6% 11% 10% 13% 14% 12% 13% 13%
---[Information] [25.08.2016 12:49:23] x264 [info]: i4 v,h,dc,ddl,ddr,vr,hd,vl,hu: 11% 8% 7% 9% 13% 14% 12% 12% 13%
---[Information] [25.08.2016 12:49:23] x264 [info]: i8c dc,h,v,p: 31% 28% 20% 22%
---[Information] [25.08.2016 12:49:23] x264 [info]: Weighted P-Frames: Y:26.7% UV:21.3%
---[Information] [25.08.2016 12:49:23] x264 [info]: ref P L0: 44.5% 10.9% 18.0% 8.3% 5.7% 4.2% 3.4% 2.2% 2.0% 0.8% 0.1%
---[Information] [25.08.2016 12:49:23] x264 [info]: ref B L0: 73.8% 11.9% 5.7% 3.2% 2.3% 1.8% 1.0% 0.3%
---[Information] [25.08.2016 12:49:23] x264 [info]: ref B L1: 92.7% 7.3%
---[Information] [25.08.2016 12:49:23] encoded 123278 frames, 5.16 fps, 7174.71 kb/s
Summer Breeze 2015 Show
Продолжительность: 01:18:22
Видео: H.264; 1280x720; 24 fps; 5435 kbps; [email protected]
Аудио 1: PCM; 1536 kbps; 48 KHz; 2 channels
Аудио 2: DTS; 768 kbps; 48 KHz; 6 channels
MediaInfo
Общее
Уникальный идентификатор : 177452784874688701352861043092727615969 (0x858029C829EDA4F1B691FBA703F551E1)
Полное имя : D:\MY VIDEO\Powerwolf.-.The.Metal.Mass.Live.2016.BDRip-AVC.720p\02. Summer Breeze 2015 Show.mkv
Формат : Matroska
Версия формата : Version 4 / Version 2
Размер файла : 4,24 Гбайт
Продолжительность : 1 ч. 18 м.
Режим общего битрейта : Переменный
Общий поток : 7741 Кбит/сек
Дата кодирования : UTC 2016-08-26 04:33:45
Программа кодирования : mkvmerge v8.2.0 ('World of Adventure') 64bit
Библиотека кодирования : libebml v1.3.1 + libmatroska v1.4.2

Видео
Идентификатор : 1
Формат : AVC
Формат/Информация : Advanced Video Codec
Профиль формата : [email protected]
Параметр CABAC формата : Да
Параметр ReFrames формата : 9 кадров
Идентификатор кодека : V_MPEG4/ISO/AVC
Продолжительность : 1 ч. 18 м.
Вид битрейта : Переменный
Битрейт : 5435 Кбит/сек
Максимальный битрейт : 62,5 Мбит/сек
Ширина : 1280 пикселей
Высота : 720 пикселей
Соотношение сторон : 16:9
Режим частоты кадров : Постоянный
Частота кадров : 24,000 кадра/сек
Цветовое пространство : YUV
Субдискретизация насыщенности : 4:2:0
Битовая глубина : 8 бит
Тип развёртки : Прогрессивная
Бит/(Пиксели*Кадры) : 0.246
Размер потока : 2,98 Гбайт (70%)
Библиотека кодирования : x264 core 148 r2638 7599210
Настройки программы : cabac=1 / ref=9 / deblock=1:-2:-1 / analyse=0x3:0x133 / me=umh / subme=11 / psy=1 / psy_rd=1.00:0.04 / mixed_ref=1 / me_range=32 / chroma_me=1 / trellis=2 / 8x8dct=1 / cqm=0 / deadzone=21,11 / fast_pskip=0 / chroma_qp_offset=-3 / threads=9 / lookahead_threads=2 / sliced_threads=0 / nr=0 / decimate=1 / interlaced=0 / bluray_compat=0 / constrained_intra=0 / bframes=11 / b_pyramid=2 / b_adapt=2 / b_bias=0 / direct=3 / weightb=1 / open_gop=0 / weightp=2 / keyint=240 / keyint_min=24 / scenecut=40 / intra_refresh=0 / rc_lookahead=120 / rc=crf / mbtree=1 / crf=20.2 / qcomp=0.74 / qpmin=0 / qpmax=69 / qpstep=4 / vbv_maxrate=62500 / vbv_bufsize=78125 / crf_max=0.0 / nal_hrd=vbr / filler=0 / ip_ratio=1.40 / aq=1:1.00
Default : Да
Forced : Нет

Аудио #1
Идентификатор : 2
Формат : PCM
Идентификатор кодека : A_PCM/INT/LIT
Продолжительность : 1 ч. 18 м.
Вид битрейта : Постоянный
Битрейт : 1536 Кбит/сек
Каналы : 2 канала
Частота : 48,0 КГц
Частота кадров : 32,000 кадра/сек (1500 spf)
Битовая глубина : 16 бит
Размер потока : 861 Мбайт (20%)
Default : Да
Forced : Нет

Аудио #2
Идентификатор : 3
Формат : DTS
Формат/Информация : Digital Theater Systems
Режим : 16
Параметр Endianness формата : Big
Идентификатор кодека : A_DTS
Продолжительность : 1 ч. 18 м.
Вид битрейта : Постоянный
Битрейт : 768 Кбит/сек
Каналы : 6 каналов
Расположение каналов : Front: L C R, Side: L R, LFE
Частота : 48,0 КГц
Частота кадров : 93,750 кадра/сек (512 spf)
Битовая глубина : 24 бит
Метод сжатия : С потерями
Размер потока : 431 Мбайт (10%)
Default : Нет
Forced : Нет

Меню
00:00:00.000 : en:Sanctified with Dynamite
00:07:01.875 : en:Coleus Sanctus
00:11:46.250 : en:Army Of The Night
00:16:29.958 : en:Amen & Attack
00:21:42.083 : en:Resurrection by Erection
00:26:36.875 : en:Armata Strigoi
00:32:51.875 : en:Kreuzfeuer
00:38:57.500 : en:Werewolves of Armenia
00:44:21.458 : en:In The Name Of God (Deus Vult)
00:48:26.250 : en:Blessed & Possessed
00:54:12.083 : en:All We Need Is Blood
00:59:14.167 : en:Dead Boys Don‘t Cry
01:03:36.667 : en:We Drink Your Blood
01:11:07.708 : en:Lupus Dei
logx264
---[Information] [25.08.2016 16:29:02] raw [info]: 1280x720p 1:1 @ 24/1 fps (cfr)
---[Information] [25.08.2016 16:29:02] x264 [info]: using SAR=1/1
---[Information] [25.08.2016 16:29:02] x264 [info]: using cpu capabilities: MMX2 SSE2Fast LZCNT
---[Information] [25.08.2016 16:29:02] x264 [info]: profile High, level 4.1
---[Information] [25.08.2016 22:17:03] x264 [info]: frame I:645 Avg QP:15.67 size: 91930
---[Information] [25.08.2016 22:17:03] x264 [info]: frame P:29380 Avg QP:19.18 size: 40720
---[Information] [25.08.2016 22:17:03] x264 [info]: frame B:82831 Avg QP:20.09 size: 23407
---[Information] [25.08.2016 22:17:03] x264 [info]: consecutive B-frames: 5.4% 4.2% 11.0% 24.4% 17.8% 27.5% 4.0% 1.3% 1.3% 0.3% 1.1% 1.7%
---[Information] [25.08.2016 22:17:03] x264 [info]: mb I I16..4: 9.6% 73.6% 16.8%
---[Information] [25.08.2016 22:17:03] x264 [info]: mb P I16..4: 7.9% 22.7% 3.0% P16..4: 29.2% 27.2% 6.5% 0.9% 0.1% skip: 2.5%
---[Information] [25.08.2016 22:17:03] x264 [info]: mb B I16..4: 2.2% 5.5% 0.6% B16..8: 34.8% 19.3% 3.0% direct:13.1% skip:21.5% L0:44.4% L1:43.7% BI:11.9%
---[Information] [25.08.2016 22:17:03] x264 [info]: 8x8 transform intra:67.1% inter:69.5%
---[Information] [25.08.2016 22:17:03] x264 [info]: direct mvs spatial:99.9% temporal:0.1%
---[Information] [25.08.2016 22:17:03] x264 [info]: coded y,uvDC,uvAC intra: 48.1% 73.5% 41.5% inter: 29.7% 49.1% 10.1%
---[Information] [25.08.2016 22:17:03] x264 [info]: i16 v,h,dc,p: 34% 16% 8% 42%
---[Information] [25.08.2016 22:17:03] x264 [info]: i8 v,h,dc,ddl,ddr,vr,hd,vl,hu: 8% 6% 19% 9% 11% 11% 11% 11% 14%
---[Information] [25.08.2016 22:17:03] x264 [info]: i4 v,h,dc,ddl,ddr,vr,hd,vl,hu: 11% 8% 16% 8% 12% 11% 10% 10% 13%
---[Information] [25.08.2016 22:17:03] x264 [info]: i8c dc,h,v,p: 38% 28% 18% 16%
---[Information] [25.08.2016 22:17:03] x264 [info]: Weighted P-Frames: Y:25.0% UV:21.7%
---[Information] [25.08.2016 22:17:03] x264 [info]: ref P L0: 46.3% 7.5% 16.4% 9.0% 5.9% 5.0% 3.9% 2.6% 2.3% 1.0% 0.2%
---[Information] [25.08.2016 22:17:03] x264 [info]: ref B L0: 70.8% 12.6% 6.6% 3.7% 2.7% 2.1% 1.2% 0.4%
---[Information] [25.08.2016 22:17:03] x264 [info]: ref B L1: 91.6% 8.4%
---[Information] [25.08.2016 22:17:03] encoded 112856 frames, 5.40 fps, 5434.66 kb/s
---[Information] [25.08.2016 12:49:23] encoded 123278 frames, 5.16 fps, 7174.71 kb/s
Wolfsnachte Tour 2015 Show
Продолжительность: 01:46:14
Видео: H.264; 1280x576; 24 fps; 5061 kbps; [email protected]
Аудио: PCM; 1536 kbps; 48 KHz; 2 channels
MediaInfo
Общее
Уникальный идентификатор : 194611942069198346568498005940977046055 (0x9268E58C99B5D311B046D8F8A0189227)
Полное имя : D:\MY VIDEO\Powerwolf.-.The.Metal.Mass.Live.2016.BDRip-AVC.720p\03. Wolfsnachte Tour 2015 Show.mkv
Формат : Matroska
Версия формата : Version 4 / Version 2
Размер файла : 4,90 Гбайт
Продолжительность : 1 ч. 46 м.
Режим общего битрейта : Переменный
Общий поток : 6599 Кбит/сек
Дата кодирования : UTC 2016-08-26 11:34:27
Программа кодирования : mkvmerge v8.2.0 ('World of Adventure') 64bit
Библиотека кодирования : libebml v1.3.1 + libmatroska v1.4.2

Видео
Идентификатор : 1
Формат : AVC
Формат/Информация : Advanced Video Codec
Профиль формата : [email protected]
Параметр CABAC формата : Да
Параметр ReFrames формата : 10 кадров
Идентификатор кодека : V_MPEG4/ISO/AVC
Продолжительность : 1 ч. 46 м.
Вид битрейта : Переменный
Битрейт : 5061 Кбит/сек
Максимальный битрейт : 62,5 Мбит/сек
Ширина : 1280 пикселей
Высота : 576 пикселей
Соотношение сторон : 2,222
Режим частоты кадров : Переменный
Частота кадров : 24,000 кадра/сек
Цветовое пространство : YUV
Субдискретизация насыщенности : 4:2:0
Битовая глубина : 8 бит
Тип развёртки : Прогрессивная
Бит/(Пиксели*Кадры) : 0.286
Размер потока : 3,76 Гбайт (77%)
Библиотека кодирования : x264 core 148 r2638 7599210
Настройки программы : cabac=1 / ref=10 / deblock=1:-2:0 / analyse=0x3:0x133 / me=umh / subme=11 / psy=1 / psy_rd=1.00:0.12 / mixed_ref=1 / me_range=32 / chroma_me=1 / trellis=2 / 8x8dct=1 / cqm=0 / deadzone=21,11 / fast_pskip=0 / chroma_qp_offset=1 / threads=9 / lookahead_threads=2 / sliced_threads=0 / nr=0 / decimate=1 / interlaced=0 / bluray_compat=0 / constrained_intra=0 / bframes=10 / b_pyramid=2 / b_adapt=2 / b_bias=0 / direct=3 / weightb=1 / open_gop=0 / weightp=2 / keyint=240 / keyint_min=24 / scenecut=40 / intra_refresh=0 / rc_lookahead=120 / rc=crf / mbtree=1 / crf=19.0 / qcomp=0.74 / qpmin=0 / qpmax=69 / qpstep=4 / vbv_maxrate=62500 / vbv_bufsize=78125 / crf_max=0.0 / nal_hrd=vbr / filler=0 / ip_ratio=1.40 / aq=1:1.00
Default : Да
Forced : Нет

Аудио
Идентификатор : 2
Формат : PCM
Идентификатор кодека : A_PCM/INT/LIT
Продолжительность : 1 ч. 46 м.
Вид битрейта : Постоянный
Битрейт : 1536 Кбит/сек
Каналы : 2 канала
Частота : 48,0 КГц
Частота кадров : 32,000 кадра/сек (1500 spf)
Битовая глубина : 16 бит
Размер потока : 1,14 Гбайт (23%)
Default : Да
Forced : Нет

Меню
00:00:00.000 : en:Blessed & Possessed
00:08:08.542 : en:Coleus Sanctus
00:13:27.292 : en:Amen & Attack
00:18:13.750 : en:Cardinal Sin
00:24:07.917 : en:Army Of The Night
00:30:21.875 : en:Resurrection by Erection
00:35:04.167 : en:Armata Strigoi
00:42:52.917 : en:Drumsolo
00:48:10.625 : en:Dead Boys Don‘t Cry
00:52:41.458 : en:Let There Be Night
01:01:31.667 : en:Werewolves of Armenia
01:07:02.917 : en:In The Name Of God (Deus Vult)
01:11:47.292 : en:We Drink Your Blood
01:19:57.917 : en:Lupus Dei
01:27:21.667 : en:Sanctified with Dynamite
01:33:34.583 : en:Kreuzfeuer
01:39:31.875 : en:All We Need Is Blood
logx264
---[Information] [26.08.2016 7:25:51] raw [info]: 1280x576p 1:1 @ 24/1 fps (cfr)
---[Information] [26.08.2016 7:25:51] x264 [info]: using SAR=1/1
---[Information] [26.08.2016 7:25:51] x264 [info]: using cpu capabilities: MMX2 SSE2Fast LZCNT
---[Information] [26.08.2016 7:25:51] x264 [info]: profile High, level 4.1
---[Information] [26.08.2016 14:26:44] x264 [info]: frame I:1123 Avg QP:16.52 size:102209
---[Information] [26.08.2016 14:26:44] x264 [info]: frame P:37355 Avg QP:19.85 size: 42393
---[Information] [26.08.2016 14:26:44] x264 [info]: frame B:114508 Avg QP:21.31 size: 20386
---[Information] [26.08.2016 14:26:44] x264 [info]: consecutive B-frames: 4.2% 3.5% 8.2% 27.4% 18.6% 26.9% 4.2% 2.8% 2.0% 0.9% 1.2%
---[Information] [26.08.2016 14:26:44] x264 [info]: mb I I16..4: 4.8% 71.4% 23.8%
---[Information] [26.08.2016 14:26:44] x264 [info]: mb P I16..4: 3.4% 26.3% 4.0% P16..4: 25.6% 27.6% 10.0% 1.6% 0.2% skip: 1.2%
---[Information] [26.08.2016 14:26:44] x264 [info]: mb B I16..4: 1.2% 7.2% 0.8% B16..8: 29.5% 20.5% 4.1% direct:14.1% skip:22.6% L0:42.0% L1:39.7% BI:18.3%
---[Information] [26.08.2016 14:26:44] x264 [info]: 8x8 transform intra:77.7% inter:65.8%
---[Information] [26.08.2016 14:26:44] x264 [info]: direct mvs spatial:100.0% temporal:0.0%
---[Information] [26.08.2016 14:26:44] x264 [info]: coded y,uvDC,uvAC intra: 76.0% 71.0% 25.4% inter: 43.7% 32.0% 1.9%
---[Information] [26.08.2016 14:26:44] x264 [info]: i16 v,h,dc,p: 22% 30% 5% 43%
---[Information] [26.08.2016 14:26:44] x264 [info]: i8 v,h,dc,ddl,ddr,vr,hd,vl,hu: 10% 8% 9% 9% 12% 13% 11% 13% 14%
---[Information] [26.08.2016 14:26:44] x264 [info]: i4 v,h,dc,ddl,ddr,vr,hd,vl,hu: 13% 12% 6% 8% 13% 14% 11% 11% 12%
---[Information] [26.08.2016 14:26:44] x264 [info]: i8c dc,h,v,p: 26% 29% 21% 24%
---[Information] [26.08.2016 14:26:44] x264 [info]: Weighted P-Frames: Y:36.0% UV:28.9%
---[Information] [26.08.2016 14:26:44] x264 [info]: ref P L0: 41.4% 12.1% 17.1% 7.3% 5.7% 4.3% 3.9% 2.5% 2.4% 2.3% 0.9% 0.1%
---[Information] [26.08.2016 14:26:44] x264 [info]: ref B L0: 72.2% 11.0% 5.3% 3.5% 2.6% 2.2% 1.8% 0.9% 0.4%
---[Information] [26.08.2016 14:26:44] x264 [info]: ref B L1: 93.7% 6.3%
---[Information] [26.08.2016 14:26:44] x264 [info]: kb/s:5061.19
---[Information] [26.08.2016 14:26:44] encoded 152986 frames, 6.06 fps, 5061.19 kb/s
Summer Breeze (Documentation)
Продолжительность: 00:12:06
Видео: H.264; 1280x720; 24 fps; 4124 kbps; [email protected]
Аудио: AAC LC; 295 kbps; 48 KHz; 2 channels
MediaInfo
Общее
Уникальный идентификатор : 198663263818190657595658352548951212564 (0x957527221392B010AC18A06EAD41C214)
Полное имя : D:\MY VIDEO\Powerwolf.-.The.Metal.Mass.Live.2016.BDRip-AVC.720p\04. Summer Breeze (Documentation).mkv
Формат : Matroska
Версия формата : Version 4 / Version 2
Размер файла : 383 Мбайт
Продолжительность : 12 м.
Режим общего битрейта : Переменный
Общий поток : 4421 Кбит/сек
Дата кодирования : UTC 2016-08-26 11:37:27
Программа кодирования : mkvmerge v8.2.0 ('World of Adventure') 64bit
Библиотека кодирования : libebml v1.3.1 + libmatroska v1.4.2

Видео
Идентификатор : 1
Формат : AVC
Формат/Информация : Advanced Video Codec
Профиль формата : [email protected]
Параметр CABAC формата : Да
Параметр ReFrames формата : 8 кадров
Идентификатор кодека : V_MPEG4/ISO/AVC
Продолжительность : 12 м.
Вид битрейта : Переменный
Битрейт : 4124 Кбит/сек
Максимальный битрейт : 62,5 Мбит/сек
Ширина : 1280 пикселей
Высота : 720 пикселей
Соотношение сторон : 16:9
Режим частоты кадров : Постоянный
Частота кадров : 24,000 кадра/сек
Цветовое пространство : YUV
Субдискретизация насыщенности : 4:2:0
Битовая глубина : 8 бит
Тип развёртки : Прогрессивная
Бит/(Пиксели*Кадры) : 0.186
Размер потока : 357 Мбайт (93%)
Библиотека кодирования : x264 core 148 r2638 7599210
Настройки программы : cabac=1 / ref=8 / deblock=1:0:0 / analyse=0x3:0x133 / me=umh / subme=11 / psy=1 / psy_rd=1.08:0.10 / mixed_ref=1 / me_range=32 / chroma_me=1 / trellis=2 / 8x8dct=1 / cqm=0 / deadzone=21,11 / fast_pskip=0 / chroma_qp_offset=-3 / threads=9 / lookahead_threads=1 / sliced_threads=0 / nr=0 / decimate=1 / interlaced=0 / bluray_compat=0 / constrained_intra=0 / bframes=8 / b_pyramid=2 / b_adapt=2 / b_bias=0 / direct=3 / weightb=1 / open_gop=0 / weightp=2 / keyint=240 / keyint_min=24 / scenecut=40 / intra_refresh=0 / rc_lookahead=120 / rc=crf / mbtree=1 / crf=17.4 / qcomp=0.70 / qpmin=0 / qpmax=69 / qpstep=4 / vbv_maxrate=62500 / vbv_bufsize=78125 / crf_max=0.0 / nal_hrd=vbr / filler=0 / ip_ratio=1.40 / aq=1:1.00
Default : Да
Forced : Нет

Аудио
Идентификатор : 2
Формат : AAC
Формат/Информация : Advanced Audio Codec
Профиль формата : LC
Идентификатор кодека : A_AAC
Продолжительность : 12 м.
Битрейт : 295 Кбит/сек
Каналы : 2 канала
Расположение каналов : Front: L R
Частота : 48,0 КГц
Частота кадров : 46,875 кадров/сек (1024 spf)
Метод сжатия : С потерями
Задержка видео : 9 мс.
Размер потока : 25,5 Мбайт (7%)
Default : Да
Forced : Нет
logx264
---[Information] [24.08.2016 10:32:25] raw [info]: 1280x720p 1:1 @ 24/1 fps (cfr)
---[Information] [24.08.2016 10:32:25] x264 [info]: using SAR=1/1
---[Information] [24.08.2016 10:32:25] x264 [info]: using cpu capabilities: MMX2 SSE2Fast LZCNT
---[Information] [24.08.2016 10:32:25] x264 [info]: profile High, level 4.1
---[Information] [24.08.2016 11:17:01] x264 [info]: frame I:90 Avg QP:12.83 size:105372
---[Information] [24.08.2016 11:17:01] x264 [info]: frame P:4369 Avg QP:16.78 size: 42058
---[Information] [24.08.2016 11:17:01] x264 [info]: frame B:12972 Avg QP:18.41 size: 13963
---[Information] [24.08.2016 11:17:01] x264 [info]: consecutive B-frames: 3.0% 5.2% 9.3% 32.9% 21.5% 19.9% 3.2% 2.2% 2.7%
---[Information] [24.08.2016 11:17:01] x264 [info]: mb I I16..4: 10.1% 59.6% 30.3%
---[Information] [24.08.2016 11:17:01] x264 [info]: mb P I16..4: 2.4% 22.0% 3.8% P16..4: 25.6% 28.7% 9.8% 1.9% 0.2% skip: 5.5%
---[Information] [24.08.2016 11:17:01] x264 [info]: mb B I16..4: 0.8% 4.3% 0.5% B16..8: 31.4% 21.5% 3.6% direct: 7.7% skip:30.2% L0:41.5% L1:43.8% BI:14.8%
---[Information] [24.08.2016 11:17:01] x264 [info]: 8x8 transform intra:76.9% inter:61.7%
---[Information] [24.08.2016 11:17:01] x264 [info]: direct mvs spatial:100.0% temporal:0.0%
---[Information] [24.08.2016 11:17:01] x264 [info]: coded y,uvDC,uvAC intra: 63.2% 59.3% 38.0% inter: 23.0% 25.6% 6.5%
---[Information] [24.08.2016 11:17:01] x264 [info]: i16 v,h,dc,p: 34% 16% 7% 43%
---[Information] [24.08.2016 11:17:01] x264 [info]: i8 v,h,dc,ddl,ddr,vr,hd,vl,hu: 16% 10% 21% 7% 8% 9% 8% 10% 12%
---[Information] [24.08.2016 11:17:01] x264 [info]: i4 v,h,dc,ddl,ddr,vr,hd,vl,hu: 21% 13% 14% 6% 10% 10% 9% 8% 9%
---[Information] [24.08.2016 11:17:01] x264 [info]: i8c dc,h,v,p: 37% 37% 16% 10%
---[Information] [24.08.2016 11:17:01] x264 [info]: Weighted P-Frames: Y:11.4% UV:6.4%
---[Information] [24.08.2016 11:17:01] x264 [info]: ref P L0: 52.7% 12.2% 15.7% 5.8% 4.6% 3.4% 3.1% 2.2% 0.3% 0.0%
---[Information] [24.08.2016 11:17:01] x264 [info]: ref B L0: 83.5% 8.8% 3.5% 1.8% 1.3% 0.7% 0.4%
---[Information] [24.08.2016 11:17:01] x264 [info]: ref B L1: 95.2% 4.8%
---[Information] [24.08.2016 11:17:01] encoded 17431 frames, 6.49 fps, 4123.50 kb/s
Kreuzweg - Of Wolves And Men (Documentation)
Продолжительность: 00:53:35
Видео: H.264; 1280x606; 24 fps; 4779 kbps; [email protected]
Аудио: AAC LC; 288 kbps; 48 KHz; 2 channels
MediaInfo
Общее
Уникальный идентификатор : 229126144855567201739374195463503457953 (0xAC601720A625D4249C345B7D0EFBAEA1)
Полное имя : D:\MY VIDEO\Powerwolf.-.The.Metal.Mass.Live.2016.BDRip-AVC.720p\05. Kreuzweg - Of Wolves And Men (Documentation).mkv
Формат : Matroska
Версия формата : Version 4 / Version 2
Размер файла : 1,90 Гбайт
Продолжительность : 53 м.
Режим общего битрейта : Переменный
Общий поток : 5066 Кбит/сек
Дата кодирования : UTC 2016-08-26 14:50:44
Программа кодирования : mkvmerge v8.2.0 ('World of Adventure') 64bit
Библиотека кодирования : libebml v1.3.1 + libmatroska v1.4.2

Видео
Идентификатор : 1
Формат : AVC
Формат/Информация : Advanced Video Codec
Профиль формата : [email protected]
Параметр CABAC формата : Да
Параметр ReFrames формата : 9 кадров
Идентификатор кодека : V_MPEG4/ISO/AVC
Продолжительность : 53 м.
Вид битрейта : Переменный
Битрейт : 4779 Кбит/сек
Максимальный битрейт : 62,5 Мбит/сек
Ширина : 1280 пикселей
Высота : 606 пикселей
Соотношение сторон : 2,112
Режим частоты кадров : Переменный
Частота кадров : 24,000 кадра/сек
Цветовое пространство : YUV
Субдискретизация насыщенности : 4:2:0
Битовая глубина : 8 бит
Тип развёртки : Прогрессивная
Бит/(Пиксели*Кадры) : 0.257
Размер потока : 1,79 Гбайт (94%)
Библиотека кодирования : x264 core 148 r2638 7599210
Настройки программы : cabac=1 / ref=9 / deblock=1:-1:-1 / analyse=0x3:0x133 / me=umh / subme=11 / psy=1 / psy_rd=1.00:0.10 / mixed_ref=1 / me_range=32 / chroma_me=1 / trellis=2 / 8x8dct=1 / cqm=0 / deadzone=21,11 / fast_pskip=0 / chroma_qp_offset=1 / threads=9 / lookahead_threads=1 / sliced_threads=0 / nr=0 / decimate=1 / interlaced=0 / bluray_compat=0 / constrained_intra=0 / bframes=9 / b_pyramid=2 / b_adapt=2 / b_bias=0 / direct=3 / weightb=1 / open_gop=0 / weightp=2 / keyint=240 / keyint_min=24 / scenecut=40 / intra_refresh=0 / rc_lookahead=120 / rc=crf / mbtree=1 / crf=18.8 / qcomp=0.70 / qpmin=0 / qpmax=69 / qpstep=4 / vbv_maxrate=62500 / vbv_bufsize=78125 / crf_max=0.0 / nal_hrd=vbr / filler=0 / ip_ratio=1.40 / aq=1:1.00
Default : Да
Forced : Нет

Аудио
Идентификатор : 2
Формат : AAC
Формат/Информация : Advanced Audio Codec
Профиль формата : LC
Идентификатор кодека : A_AAC
Продолжительность : 53 м.
Битрейт : 288 Кбит/сек
Каналы : 2 канала
Расположение каналов : Front: L R
Частота : 48,0 КГц
Частота кадров : 46,875 кадров/сек (1024 spf)
Метод сжатия : С потерями
Задержка видео : 9 мс.
Размер потока : 109 Мбайт (6%)
Default : Да
Forced : Нет
logx264
---[Information] [26.08.2016 14:29:31] raw [info]: 1280x606p 1:1 @ 24/1 fps (cfr)
---[Information] [26.08.2016 14:29:31] x264 [info]: using SAR=1/1
---[Information] [26.08.2016 14:29:31] x264 [info]: using cpu capabilities: MMX2 SSE2Fast LZCNT
---[Information] [26.08.2016 14:29:31] x264 [info]: profile High, level 4.1
---[Information] [26.08.2016 17:42:31] x264 [info]: frame I:520 Avg QP:15.66 size:133586
---[Information] [26.08.2016 17:42:31] x264 [info]: frame P:17744 Avg QP:19.49 size: 45756
---[Information] [26.08.2016 17:42:31] x264 [info]: frame B:58889 Avg QP:22.30 size: 17644
---[Information] [26.08.2016 17:42:31] x264 [info]: consecutive B-frames: 2.8% 3.2% 8.4% 24.1% 18.0% 34.4% 3.5% 1.9% 1.7% 2.1%
---[Information] [26.08.2016 17:42:31] x264 [info]: mb I I16..4: 12.9% 54.6% 32.5%
---[Information] [26.08.2016 17:42:31] x264 [info]: mb P I16..4: 3.2% 20.3% 3.5% P16..4: 26.1% 25.6% 10.5% 2.2% 0.4% skip: 8.1%
---[Information] [26.08.2016 17:42:31] x264 [info]: mb B I16..4: 0.8% 5.3% 0.6% B16..8: 28.6% 16.2% 2.7% direct: 8.4% skip:37.4% L0:40.6% L1:42.0% BI:17.3%
---[Information] [26.08.2016 17:42:31] x264 [info]: 8x8 transform intra:75.7% inter:57.5%
---[Information] [26.08.2016 17:42:31] x264 [info]: direct mvs spatial:100.0% temporal:0.0%
---[Information] [26.08.2016 17:42:31] x264 [info]: coded y,uvDC,uvAC intra: 78.3% 58.2% 18.9% inter: 31.2% 17.3% 1.4%
---[Information] [26.08.2016 17:42:31] x264 [info]: i16 v,h,dc,p: 28% 30% 5% 37%
---[Information] [26.08.2016 17:42:31] x264 [info]: i8 v,h,dc,ddl,ddr,vr,hd,vl,hu: 10% 8% 9% 9% 12% 13% 12% 13% 13%
---[Information] [26.08.2016 17:42:31] x264 [info]: i4 v,h,dc,ddl,ddr,vr,hd,vl,hu: 13% 14% 8% 8% 12% 12% 11% 10% 12%
---[Information] [26.08.2016 17:42:31] x264 [info]: i8c dc,h,v,p: 22% 35% 21% 22%
---[Information] [26.08.2016 17:42:31] x264 [info]: Weighted P-Frames: Y:14.3% UV:11.2%
---[Information] [26.08.2016 17:42:31] x264 [info]: ref P L0: 44.8% 11.1% 18.2% 6.7% 5.7% 4.1% 3.9% 2.4% 2.6% 0.5% 0.0%
---[Information] [26.08.2016 17:42:31] x264 [info]: ref B L0: 78.1% 10.2% 4.7% 2.5% 1.8% 1.4% 0.8% 0.3%
---[Information] [26.08.2016 17:42:31] x264 [info]: ref B L1: 93.7% 6.3%
---[Information] [26.08.2016 17:42:31] encoded 77153 frames, 6.66 fps, 4779.03 kb/s
Amen & Attack (Videoclip)
Продолжительность: 04:12
Видео: H.264; 1280x546; 24 fps; 6189 kbps; [email protected]
Аудио: PCM; 1536 kbps; 48 KHz; 2 channels
MediaInfo
Общее
Уникальный идентификатор : 232620621890163753611875620457906554020 (0xAF011A25B7B3E4638BB318F87AE1C4A4)
Полное имя : D:\MY VIDEO\Powerwolf.-.The.Metal.Mass.Live.2016.BDRip-AVC.720p\06. Amen & Attack (Videoclip).mkv
Формат : Matroska
Версия формата : Version 4 / Version 2
Размер файла : 232 Мбайт
Продолжительность : 4 м. 12 с.
Режим общего битрейта : Переменный
Общий поток : 7725 Кбит/сек
Дата кодирования : UTC 2016-08-24 10:00:54
Программа кодирования : mkvmerge v8.2.0 ('World of Adventure') 64bit
Библиотека кодирования : libebml v1.3.1 + libmatroska v1.4.2

Видео
Идентификатор : 1
Формат : AVC
Формат/Информация : Advanced Video Codec
Профиль формата : [email protected]
Параметр CABAC формата : Да
Параметр ReFrames формата : 9 кадров
Идентификатор кодека : V_MPEG4/ISO/AVC
Продолжительность : 4 м. 12 с.
Вид битрейта : Переменный
Битрейт : 6189 Кбит/сек
Максимальный битрейт : 62,5 Мбит/сек
Ширина : 1280 пикселей
Высота : 546 пикселей
Соотношение сторон : 2,35:1
Режим частоты кадров : Переменный
Частота кадров : 24,000 кадра/сек
Цветовое пространство : YUV
Субдискретизация насыщенности : 4:2:0
Битовая глубина : 8 бит
Тип развёртки : Прогрессивная
Бит/(Пиксели*Кадры) : 0.369
Размер потока : 186 Мбайт (80%)
Библиотека кодирования : x264 core 148 r2638 7599210
Настройки программы : cabac=1 / ref=9 / deblock=1:-1:0 / analyse=0x3:0x133 / me=umh / subme=11 / psy=1 / psy_rd=1.16:0.00 / mixed_ref=1 / me_range=32 / chroma_me=1 / trellis=2 / 8x8dct=1 / cqm=0 / deadzone=21,11 / fast_pskip=0 / chroma_qp_offset=-2 / threads=9 / lookahead_threads=1 / sliced_threads=0 / nr=0 / decimate=1 / interlaced=0 / bluray_compat=0 / constrained_intra=0 / bframes=7 / b_pyramid=2 / b_adapt=2 / b_bias=0 / direct=3 / weightb=1 / open_gop=0 / weightp=2 / keyint=240 / keyint_min=24 / scenecut=40 / intra_refresh=0 / rc_lookahead=120 / rc=crf / mbtree=1 / crf=19.0 / qcomp=0.66 / qpmin=0 / qpmax=69 / qpstep=4 / vbv_maxrate=62500 / vbv_bufsize=78125 / crf_max=0.0 / nal_hrd=vbr / filler=0 / ip_ratio=1.40 / aq=1:1.00
Default : Да
Forced : Нет

Аудио
Идентификатор : 2
Формат : PCM
Идентификатор кодека : A_PCM/INT/LIT
Продолжительность : 4 м. 12 с.
Вид битрейта : Постоянный
Битрейт : 1536 Кбит/сек
Каналы : 2 канала
Частота : 48,0 КГц
Частота кадров : 32,000 кадра/сек (1500 spf)
Битовая глубина : 16 бит
Задержка видео : -60 мс.
Размер потока : 46,2 Мбайт (20%)
Default : Да
Forced : Нет
logx264
---[Information] [24.08.2016 12:42:34] raw [info]: 1280x546p 1:1 @ 24/1 fps (cfr)
---[Information] [24.08.2016 12:42:34] x264 [info]: using SAR=1/1
---[Information] [24.08.2016 12:42:34] x264 [info]: using cpu capabilities: MMX2 SSE2Fast LZCNT
---[Information] [24.08.2016 12:42:34] x264 [info]: profile High, level 4.1
---[Information] [24.08.2016 12:58:03] x264 [info]: frame I:97 Avg QP:16.06 size: 92124
---[Information] [24.08.2016 12:58:03] x264 [info]: frame P:1800 Avg QP:20.76 size: 44271
---[Information] [24.08.2016 12:58:03] x264 [info]: frame B:4154 Avg QP:21.71 size: 25616
---[Information] [24.08.2016 12:58:03] x264 [info]: consecutive B-frames: 7.9% 7.5% 14.6% 31.6% 18.2% 16.6% 3.0% 0.7%
---[Information] [24.08.2016 12:58:03] x264 [info]: mb I I16..4: 5.5% 75.9% 18.6%
---[Information] [24.08.2016 12:58:03] x264 [info]: mb P I16..4: 4.5% 27.6% 6.1% P16..4: 24.2% 28.0% 6.7% 1.3% 0.1% skip: 1.4%
---[Information] [24.08.2016 12:58:03] x264 [info]: mb B I16..4: 1.0% 6.0% 1.2% B16..8: 37.1% 22.3% 4.2% direct:11.4% skip:16.8% L0:42.7% L1:47.7% BI: 9.6%
---[Information] [24.08.2016 12:58:03] x264 [info]: 8x8 transform intra:73.1% inter:65.3%
---[Information] [24.08.2016 12:58:03] x264 [info]: direct mvs spatial:99.9% temporal:0.1%
---[Information] [24.08.2016 12:58:03] x264 [info]: coded y,uvDC,uvAC intra: 77.9% 71.2% 37.4% inter: 45.5% 39.4% 3.8%
---[Information] [24.08.2016 12:58:03] x264 [info]: i16 v,h,dc,p: 25% 22% 6% 47%
---[Information] [24.08.2016 12:58:03] x264 [info]: i8 v,h,dc,ddl,ddr,vr,hd,vl,hu: 8% 5% 6% 11% 16% 15% 14% 12% 13%
---[Information] [24.08.2016 12:58:03] x264 [info]: i4 v,h,dc,ddl,ddr,vr,hd,vl,hu: 17% 7% 5% 9% 13% 13% 12% 11% 13%
---[Information] [24.08.2016 12:58:03] x264 [info]: i8c dc,h,v,p: 30% 30% 21% 19%
---[Information] [24.08.2016 12:58:03] x264 [info]: Weighted P-Frames: Y:19.1% UV:15.9%
---[Information] [24.08.2016 12:58:03] x264 [info]: ref P L0: 46.8% 9.1% 18.8% 7.2% 5.3% 3.7% 3.4% 2.3% 2.2% 1.0% 0.1%
---[Information] [24.08.2016 12:58:03] x264 [info]: ref B L0: 80.1% 9.8% 4.4% 2.0% 1.4% 1.1% 0.8% 0.3%
---[Information] [24.08.2016 12:58:03] x264 [info]: ref B L1: 94.2% 5.8%
---[Information] [24.08.2016 12:58:03] x264 [info]: kb/s:6188.47
---[Information] [24.08.2016 12:58:03] encoded 6051 frames, 6.47 fps, 6188.47 kb/s
Army Of The Night (Videoclip)
Продолжительность: 03:31
Видео: H.264; 1280x576; 24 fps; 5935 kbps; [email protected]
Аудио: PCM; 1536 kbps; 48 KHz; 2 channels
MediaInfo
Общее
Уникальный идентификатор : 199693484976919690281575551563971078367 (0x963B90F535C9424B93CC2742576EA8DF)
Полное имя : D:\MY VIDEO\Powerwolf.-.The.Metal.Mass.Live.2016.BDRip-AVC.720p\07. Army Of The Night (Videoclip).mkv
Формат : Matroska
Версия формата : Version 4 / Version 2
Размер файла : 188 Мбайт
Продолжительность : 3 м. 31 с.
Режим общего битрейта : Переменный
Общий поток : 7473 Кбит/сек
Дата кодирования : UTC 2016-08-24 11:22:00
Программа кодирования : mkvmerge v8.2.0 ('World of Adventure') 64bit
Библиотека кодирования : libebml v1.3.1 + libmatroska v1.4.2

Видео
Идентификатор : 1
Формат : AVC
Формат/Информация : Advanced Video Codec
Профиль формата : [email protected]
Параметр CABAC формата : Да
Параметр ReFrames формата : 11 кадров
Идентификатор кодека : V_MPEG4/ISO/AVC
Продолжительность : 3 м. 31 с.
Вид битрейта : Переменный
Битрейт : 5935 Кбит/сек
Максимальный битрейт : 62,5 Мбит/сек
Ширина : 1280 пикселей
Высота : 576 пикселей
Соотношение сторон : 2,222
Режим частоты кадров : Переменный
Частота кадров : 24,000 кадра/сек
Цветовое пространство : YUV
Субдискретизация насыщенности : 4:2:0
Битовая глубина : 8 бит
Тип развёртки : Прогрессивная
Бит/(Пиксели*Кадры) : 0.335
Размер потока : 149 Мбайт (79%)
Библиотека кодирования : x264 core 148 r2638 7599210
Настройки программы : cabac=1 / ref=11 / deblock=1:0:1 / analyse=0x3:0x133 / me=umh / subme=11 / psy=1 / psy_rd=1.20:0.00 / mixed_ref=1 / me_range=32 / chroma_me=1 / trellis=2 / 8x8dct=1 / cqm=0 / deadzone=21,11 / fast_pskip=0 / chroma_qp_offset=10 / threads=9 / lookahead_threads=2 / sliced_threads=0 / nr=0 / decimate=1 / interlaced=0 / bluray_compat=0 / constrained_intra=0 / bframes=12 / b_pyramid=2 / b_adapt=2 / b_bias=0 / direct=3 / weightb=1 / open_gop=0 / weightp=2 / keyint=240 / keyint_min=24 / scenecut=40 / intra_refresh=0 / rc_lookahead=120 / rc=crf / mbtree=1 / crf=20.2 / qcomp=0.60 / qpmin=0 / qpmax=69 / qpstep=4 / vbv_maxrate=62500 / vbv_bufsize=78125 / crf_max=0.0 / nal_hrd=vbr / filler=0 / ip_ratio=1.40 / aq=1:1.20
Default : Да
Forced : Нет

Аудио
Идентификатор : 2
Формат : PCM
Идентификатор кодека : A_PCM/INT/LIT
Продолжительность : 3 м. 31 с.
Вид битрейта : Постоянный
Битрейт : 1536 Кбит/сек
Каналы : 2 канала
Частота : 48,0 КГц
Частота кадров : 32,000 кадра/сек (1500 spf)
Битовая глубина : 16 бит
Размер потока : 38,7 Мбайт (21%)
Default : Да
Forced : Нет
logx264
---[Information] [24.08.2016 13:53:56] raw [info]: 1280x576p 1:1 @ 24/1 fps (cfr)
---[Information] [24.08.2016 13:53:56] x264 [info]: using SAR=1/1
---[Information] [24.08.2016 13:53:56] x264 [info]: using cpu capabilities: MMX2 SSE2Fast LZCNT
---[Information] [24.08.2016 13:53:56] x264 [info]: profile High, level 4.1
---[Information] [24.08.2016 14:12:12] x264 [info]: frame I:24 Avg QP:19.56 size: 70235
---[Information] [24.08.2016 14:12:12] x264 [info]: frame P:1590 Avg QP:22.12 size: 33185
---[Information] [24.08.2016 14:12:12] x264 [info]: frame B:3456 Avg QP:22.62 size: 29589
---[Information] [24.08.2016 14:12:12] x264 [info]: consecutive B-frames: 7.8% 12.9% 17.5% 18.4% 18.6% 9.0% 8.4% 3.0% 1.8% 1.0% 0.2% 0.2% 1.3%
---[Information] [24.08.2016 14:12:12] x264 [info]: mb I I16..4: 5.9% 86.8% 7.3%
---[Information] [24.08.2016 14:12:12] x264 [info]: mb P I16..4: 4.2% 32.1% 2.4% P16..4: 25.4% 29.2% 5.2% 0.6% 0.0% skip: 0.9%
---[Information] [24.08.2016 14:12:12] x264 [info]: mb B I16..4: 1.4% 16.1% 0.5% B16..8: 37.1% 19.6% 2.8% direct:14.6% skip: 7.9% L0:48.6% L1:49.0% BI: 2.4%
---[Information] [24.08.2016 14:12:12] x264 [info]: 8x8 transform intra:86.1% inter:80.1%
---[Information] [24.08.2016 14:12:12] x264 [info]: direct mvs spatial:99.9% temporal:0.1%
---[Information] [24.08.2016 14:12:12] x264 [info]: coded y,uvDC,uvAC intra: 85.7% 21.7% 0.1% inter: 62.3% 24.8% 0.0%
---[Information] [24.08.2016 14:12:12] x264 [info]: i16 v,h,dc,p: 31% 15% 5% 50%
---[Information] [24.08.2016 14:12:12] x264 [info]: i8 v,h,dc,ddl,ddr,vr,hd,vl,hu: 4% 3% 3% 14% 19% 17% 16% 12% 12%
---[Information] [24.08.2016 14:12:12] x264 [info]: i4 v,h,dc,ddl,ddr,vr,hd,vl,hu: 8% 4% 3% 10% 16% 17% 15% 14% 14%
---[Information] [24.08.2016 14:12:12] x264 [info]: i8c dc,h,v,p: 55% 25% 9% 12%
---[Information] [24.08.2016 14:12:12] x264 [info]: Weighted P-Frames: Y:24.5% UV:23.2%
---[Information] [24.08.2016 14:12:12] x264 [info]: ref P L0: 45.0% 8.6% 15.6% 9.4% 5.7% 4.0% 3.0% 2.3% 1.7% 1.9% 1.9% 0.9% 0.1%
---[Information] [24.08.2016 14:12:12] x264 [info]: ref B L0: 58.5% 18.0% 9.8% 4.9% 2.9% 2.1% 1.5% 1.1% 0.8% 0.3%
---[Information] [24.08.2016 14:12:12] x264 [info]: ref B L1: 86.0% 14.0%
---[Information] [24.08.2016 14:12:12] x264 [info]: kb/s:5934.54
---[Information] [24.08.2016 14:12:12] encoded 5070 frames, 4.59 fps, 5934.54 kb/s
We Drink Your Blood (Videoclip)
Продолжительность: 03:50
Видео: H.264; 1280x554; 24 fps; 5816 kbps; [email protected]
Аудио: PCM; 1536 kbps; 48 KHz; 2 channels
MediaInfo
Общее
Уникальный идентификатор : 211447272634950070537410326271301521834 (0x9F13436E5B6D0BA4902F72BAE17411AA)
Полное имя : D:\MY VIDEO\Powerwolf.-.The.Metal.Mass.Live.2016.BDRip-AVC.720p\08. We Drink Your Blood (Videoclip).mkv
Формат : Matroska
Версия формата : Version 4 / Version 2
Размер файла : 202 Мбайт
Продолжительность : 3 м. 50 с.
Режим общего битрейта : Переменный
Общий поток : 7354 Кбит/сек
Дата кодирования : UTC 2016-08-24 12:12:14
Программа кодирования : mkvmerge v8.2.0 ('World of Adventure') 64bit
Библиотека кодирования : libebml v1.3.1 + libmatroska v1.4.2

Видео
Идентификатор : 1
Формат : AVC
Формат/Информация : Advanced Video Codec
Профиль формата : [email protected]
Параметр CABAC формата : Да
Параметр ReFrames формата : 7 кадров
Идентификатор кодека : V_MPEG4/ISO/AVC
Продолжительность : 3 м. 50 с.
Вид битрейта : Переменный
Битрейт : 5816 Кбит/сек
Максимальный битрейт : 62,5 Мбит/сек
Ширина : 1280 пикселей
Высота : 554 пикселя
Соотношение сторон : 2,35:1
Режим частоты кадров : Переменный
Частота кадров : 24,000 кадра/сек
Цветовое пространство : YUV
Субдискретизация насыщенности : 4:2:0
Битовая глубина : 8 бит
Тип развёртки : Прогрессивная
Бит/(Пиксели*Кадры) : 0.342
Размер потока : 160 Мбайт (79%)
Библиотека кодирования : x264 core 148 r2638 7599210
Настройки программы : cabac=1 / ref=7 / deblock=1:-1:0 / analyse=0x3:0x133 / me=umh / subme=11 / psy=1 / psy_rd=1.00:0.16 / mixed_ref=1 / me_range=32 / chroma_me=1 / trellis=2 / 8x8dct=1 / cqm=0 / deadzone=21,11 / fast_pskip=0 / chroma_qp_offset=9 / threads=9 / lookahead_threads=1 / sliced_threads=0 / nr=0 / decimate=1 / interlaced=0 / bluray_compat=0 / constrained_intra=0 / bframes=7 / b_pyramid=2 / b_adapt=2 / b_bias=0 / direct=3 / weightb=1 / open_gop=0 / weightp=2 / keyint=240 / keyint_min=24 / scenecut=40 / intra_refresh=0 / rc_lookahead=120 / rc=crf / mbtree=1 / crf=20.0 / qcomp=0.66 / qpmin=0 / qpmax=69 / qpstep=4 / vbv_maxrate=62500 / vbv_bufsize=78125 / crf_max=0.0 / nal_hrd=vbr / filler=0 / ip_ratio=1.40 / aq=1:1.00
Default : Да
Forced : Нет

Аудио
Идентификатор : 2
Формат : PCM
Идентификатор кодека : A_PCM/INT/LIT
Продолжительность : 3 м. 50 с.
Вид битрейта : Постоянный
Битрейт : 1536 Кбит/сек
Каналы : 2 канала
Частота : 48,0 КГц
Частота кадров : 32,000 кадра/сек (1500 spf)
Битовая глубина : 16 бит
Размер потока : 42,2 Мбайт (21%)
Default : Да
Forced : Нет
logx264
---[Information] [24.08.2016 14:51:09] raw [info]: 1280x554p 1:1 @ 24/1 fps (cfr)
---[Information] [24.08.2016 14:51:09] x264 [info]: using SAR=1/1
---[Information] [24.08.2016 14:51:09] x264 [info]: using cpu capabilities: MMX2 SSE2Fast LZCNT
---[Information] [24.08.2016 14:51:09] x264 [info]: profile High, level 4.1
---[Information] [24.08.2016 15:04:45] x264 [info]: frame I:32 Avg QP:19.19 size: 53032
---[Information] [24.08.2016 15:04:45] x264 [info]: frame P:2038 Avg QP:22.91 size: 31530
---[Information] [24.08.2016 15:04:45] x264 [info]: frame B:3456 Avg QP:23.69 size: 29351
---[Information] [24.08.2016 15:04:45] x264 [info]: consecutive B-frames: 12.3% 12.9% 18.4% 34.5% 10.9% 7.7% 2.2% 1.0%
---[Information] [24.08.2016 15:04:45] x264 [info]: mb I I16..4: 9.4% 75.3% 15.2%
---[Information] [24.08.2016 15:04:45] x264 [info]: mb P I16..4: 5.6% 46.9% 5.8% P16..4: 18.8% 17.4% 2.5% 0.2% 0.0% skip: 2.9%
---[Information] [24.08.2016 15:04:45] x264 [info]: mb B I16..4: 2.1% 19.9% 2.3% B16..8: 30.9% 19.8% 3.2% direct:11.3% skip:10.5% L0:47.2% L1:45.6% BI: 7.2%
---[Information] [24.08.2016 15:04:45] x264 [info]: 8x8 transform intra:81.0% inter:77.8%
---[Information] [24.08.2016 15:04:45] x264 [info]: direct mvs spatial:99.8% temporal:0.2%
---[Information] [24.08.2016 15:04:45] x264 [info]: coded y,uvDC,uvAC intra: 79.1% 21.7% 0.9% inter: 50.2% 10.7% 0.0%
---[Information] [24.08.2016 15:04:45] x264 [info]: i16 v,h,dc,p: 23% 22% 6% 49%
---[Information] [24.08.2016 15:04:45] x264 [info]: i8 v,h,dc,ddl,ddr,vr,hd,vl,hu: 12% 6% 6% 9% 13% 14% 13% 13% 13%
---[Information] [24.08.2016 15:04:45] x264 [info]: i4 v,h,dc,ddl,ddr,vr,hd,vl,hu: 19% 7% 6% 8% 13% 15% 11% 11% 11%
---[Information] [24.08.2016 15:04:45] x264 [info]: i8c dc,h,v,p: 44% 30% 10% 16%
---[Information] [24.08.2016 15:04:45] x264 [info]: Weighted P-Frames: Y:14.5% UV:13.0%
---[Information] [24.08.2016 15:04:45] x264 [info]: ref P L0: 45.5% 7.7% 18.6% 9.6% 6.8% 5.4% 4.5% 1.8% 0.2%
---[Information] [24.08.2016 15:04:45] x264 [info]: ref B L0: 68.3% 15.1% 8.4% 4.7% 2.6% 0.9%
---[Information] [24.08.2016 15:04:45] x264 [info]: ref B L1: 90.7% 9.3%
---[Information] [24.08.2016 15:04:45] x264 [info]: kb/s:5816.02
---[Information] [24.08.2016 15:04:45] encoded 5526 frames, 6.72 fps, 5816.02 kb/s
Sanctified with Dynamite (Videoclip)
Продолжительность: 04:41
Видео: H.264; 1280x542; 24 fps; 4823 kbps; [email protected]
Аудио: PCM; 1536 kbps; 48 KHz; 2 channels
MediaInfo
Общее
Уникальный идентификатор : 234258521108735250447979261595709199056 (0xB03C8CD047F9FCFE8C938E8BB149D2D0)
Полное имя : D:\MY VIDEO\Powerwolf.-.The.Metal.Mass.Live.2016.BDRip-AVC.720p\09. Sanctified with Dynamite (Videoclip).mkv
Формат : Matroska
Версия формата : Version 4 / Version 2
Размер файла : 213 Мбайт
Продолжительность : 4 м. 41 с.
Режим общего битрейта : Переменный
Общий поток : 6361 Кбит/сек
Дата кодирования : UTC 2016-08-24 13:24:43
Программа кодирования : mkvmerge v8.2.0 ('World of Adventure') 64bit
Библиотека кодирования : libebml v1.3.1 + libmatroska v1.4.2

Видео
Идентификатор : 1
Формат : AVC
Формат/Информация : Advanced Video Codec
Профиль формата : [email protected]
Параметр CABAC формата : Да
Параметр ReFrames формата : 9 кадров
Идентификатор кодека : V_MPEG4/ISO/AVC
Продолжительность : 4 м. 41 с.
Вид битрейта : Переменный
Битрейт : 4823 Кбит/сек
Максимальный битрейт : 62,5 Мбит/сек
Ширина : 1280 пикселей
Высота : 542 пикселя
Соотношение сторон : 2,35:1
Режим частоты кадров : Переменный
Частота кадров : 24,000 кадра/сек
Цветовое пространство : YUV
Субдискретизация насыщенности : 4:2:0
Битовая глубина : 8 бит
Тип развёртки : Прогрессивная
Бит/(Пиксели*Кадры) : 0.290
Размер потока : 162 Мбайт (76%)
Библиотека кодирования : x264 core 148 r2638 7599210
Настройки программы : cabac=1 / ref=9 / deblock=1:-1:0 / analyse=0x3:0x133 / me=umh / subme=11 / psy=1 / psy_rd=1.00:0.10 / mixed_ref=1 / me_range=32 / chroma_me=1 / trellis=2 / 8x8dct=1 / cqm=0 / deadzone=21,11 / fast_pskip=0 / chroma_qp_offset=5 / threads=9 / lookahead_threads=1 / sliced_threads=0 / nr=0 / decimate=1 / interlaced=0 / bluray_compat=0 / constrained_intra=0 / bframes=9 / b_pyramid=2 / b_adapt=2 / b_bias=0 / direct=3 / weightb=1 / open_gop=0 / weightp=2 / keyint=240 / keyint_min=24 / scenecut=40 / intra_refresh=0 / rc_lookahead=120 / rc=crf / mbtree=1 / crf=19.2 / qcomp=0.74 / qpmin=0 / qpmax=69 / qpstep=4 / vbv_maxrate=62500 / vbv_bufsize=78125 / crf_max=0.0 / nal_hrd=vbr / filler=0 / ip_ratio=1.40 / aq=1:1.00
Default : Да
Forced : Нет

Аудио
Идентификатор : 2
Формат : PCM
Идентификатор кодека : A_PCM/INT/LIT
Продолжительность : 4 м. 41 с.
Вид битрейта : Постоянный
Битрейт : 1536 Кбит/сек
Каналы : 2 канала
Частота : 48,0 КГц
Частота кадров : 32,002 кадра/сек (1500 spf)
Битовая глубина : 16 бит
Размер потока : 51,5 Мбайт (24%)
Default : Да
Forced : Нет
logx264
---[Information] [24.08.2016 15:59:51] raw [info]: 1280x542p 1:1 @ 24/1 fps (cfr)
---[Information] [24.08.2016 15:59:51] x264 [info]: using SAR=1/1
---[Information] [24.08.2016 15:59:51] x264 [info]: using cpu capabilities: MMX2 SSE2Fast LZCNT
---[Information] [24.08.2016 15:59:51] x264 [info]: profile High, level 4.1
---[Information] [24.08.2016 16:17:35] x264 [info]: frame I:58 Avg QP:16.42 size: 60476
---[Information] [24.08.2016 16:17:35] x264 [info]: frame P:2189 Avg QP:20.14 size: 31678
---[Information] [24.08.2016 16:17:35] x264 [info]: frame B:4504 Avg QP:21.31 size: 21478
---[Information] [24.08.2016 16:17:35] x264 [info]: consecutive B-frames: 8.6% 10.0% 18.0% 33.1% 16.0% 9.7% 1.7% 1.4% 1.1% 0.4%
---[Information] [24.08.2016 16:17:35] x264 [info]: mb I I16..4: 7.5% 73.1% 19.4%
---[Information] [24.08.2016 16:17:35] x264 [info]: mb P I16..4: 4.1% 35.7% 5.6% P16..4: 24.8% 23.8% 3.7% 0.4% 0.0% skip: 1.9%
---[Information] [24.08.2016 16:17:35] x264 [info]: mb B I16..4: 1.2% 10.0% 1.4% B16..8: 35.0% 23.0% 3.4% direct:11.1% skip:14.8% L0:44.7% L1:44.5% BI:10.8%
---[Information] [24.08.2016 16:17:35] x264 [info]: 8x8 transform intra:78.6% inter:67.7%
---[Information] [24.08.2016 16:17:35] x264 [info]: direct mvs spatial:99.7% temporal:0.3%
---[Information] [24.08.2016 16:17:35] x264 [info]: coded y,uvDC,uvAC intra: 76.9% 30.0% 1.8% inter: 43.6% 16.1% 0.0%
---[Information] [24.08.2016 16:17:35] x264 [info]: i16 v,h,dc,p: 18% 12% 4% 66%
---[Information] [24.08.2016 16:17:35] x264 [info]: i8 v,h,dc,ddl,ddr,vr,hd,vl,hu: 8% 6% 8% 10% 14% 13% 13% 12% 15%
---[Information] [24.08.2016 16:17:35] x264 [info]: i4 v,h,dc,ddl,ddr,vr,hd,vl,hu: 11% 7% 6% 9% 14% 14% 13% 11% 14%
---[Information] [24.08.2016 16:17:35] x264 [info]: i8c dc,h,v,p: 25% 43% 18% 14%
---[Information] [24.08.2016 16:17:35] x264 [info]: Weighted P-Frames: Y:20.2% UV:17.0%
---[Information] [24.08.2016 16:17:35] x264 [info]: ref P L0: 44.5% 8.4% 17.6% 8.7% 6.0% 4.7% 3.8% 2.6% 2.3% 1.1% 0.2%
---[Information] [24.08.2016 16:17:35] x264 [info]: ref B L0: 75.5% 10.8% 5.2% 3.1% 2.2% 1.7% 1.1% 0.4%
---[Information] [24.08.2016 16:17:35] x264 [info]: ref B L1: 93.9% 6.1%
---[Information] [24.08.2016 16:17:35] x264 [info]: kb/s:4823.09
---[Information] [24.08.2016 16:17:35] encoded 6751 frames, 6.30 fps, 4823.09 kb/s
Скриншоты
Powerwolf.-.The.Metal.Mass.Live.2016.BDRip-AVC.720p.torrent
 СЕРЕБРЯНАЯ РАЗДАЧА! СКАЧАННОЕ ЗАСЧИТЫВАЕТСЯ ТОЛЬКО НАПОЛОВИНУ! 
Вечный
Трекер: Зарегистрирован

magnet ссылка

 


Скачать .torrent

90 KB

Статус: проверено (by E IL o T IR i X в 27-Авг-16 17:58)
Зарегистрирован: 26-Авг-16 20:12
Скачан: 5 раз
Размер: 17.89 GB | 
Поблагодарили:
Скачать Powerwolf - The Metal Mass Live [2016 г., Power/Heavy Metal, BDRip-AVC, 720p] торрент
 


Похожие раздачи

E IL o T IR i X

post 26-Авг-16 23:18 (спустя 3 часа)

максимальный размер постера не должен привышать 550*550 пикселей.
"Содержание:" в спойлер.
все скриншоты добавь в тег [thumb][/thumb]

bagznet4

post 27-Авг-16 10:22 (спустя 11 часов)

? недооформлено (by E IL o T IR i X в 27-Авг-16 00:14)
Пойду искать на другом трекере. Спасибо. :P

JPriest

post 27-Авг-16 12:17 (спустя 1 час 55 минут)

bagznet4
Тебя тупого и оттуда будут гнать. Ты чё, не видишь, что модератор написал, и то, что его просьба выполнена?
К тому же на другом трекере ты долго будешь искать. Ну этот рип, во всяком случае.

bagznet4

post 27-Авг-16 16:46 (спустя 4 часа)

Уже скачал
 !  не надо сюда сторонний трекер

Текущее время: 10-Дек 05:54

Часовой пояс: GMT + 3



Вы не можете начинать темы
Вы не можете отвечать на сообщения
Вы не можете редактировать свои сообщения
Вы не можете удалять свои сообщения
Вы не можете голосовать в опросах
Вы не можете прикреплять файлы к сообщениям
Вы не можете скачивать файлы