Loading...
Error
 

Новый Камеди клаб / Comedy Club (Ксения Чашей, Дмитрий Ефимович, Роман Новиков) [2016, комедия, SATRip] (31.12.2016) скачать торрент

 
Автор Сообщение

DENZEL519

post 23-Сен-16 20:01

Новый Камеди клаб / Comedy Club
-

pic
Год выпуска: 2016
Страна: Россия
Жанр: комедия
Продолжительность: 00:44:20
Перевод: Не требуется
Субтитры: Нет
Режиссер: Ксения Чашей, Дмитрий Ефимович, Роман Новиков
Сценарий: Артур Джанибекян, Арташес Саркисян, Артак Гаспарян
Продюсер: Дмитрий Троицкий, Артур Джанибекян, Арташес Саркисян
Оператор: Кирилл Корнилов
Композитор: Юрий Прялкин, Алексей Массалитинов
Монтаж: Ирина Бычкова
В ролях: Павел Воля , Гарик Мартиросян , Гарик Харламов , Тимур Батрутдинов , Таир Мамедов , Вадим Галыгин , Алексей Лихницкий , Роман Юнусов
pic pic pic pic pic pic pic pic


Описание: Они выходят на небольшой пятачок сцены прямо из зрительного зала, по пути перебрасываясь словечками с окружающими, делая комплименты, прося прикурить. Они не признают никаких авторитетов, приличий и правил. Они запросто могут осмеять любую звездную персону — даже если она сидит в зале. Они — часть своей аудитории, они живут такими же интересами. Их цель — завести публику, а не выступить, отыграв заученную программу.


Качество: SATRip
Формат: AVI
Видео кодек: XviD
Аудио кодеk: MP3
Видео: 720x400 (16:9), 25.000 fps, XviD, 1 763 Kbps
Аудио: Аудио #1: MP3, 128 Kbps, 48.0 KHz, 2 ch [Rus]

pic
Рейтинг

МедиаИнфо

Код:

General
Complete name                            : Comedy.Club.2016.09.30.SATRip.avi
Format                                   : AVI
Format/Info                              : Audio Video Interleave
File size                                : 608 MiB
Duration                                 : 44mn 38s
Overall bit rate                         : 1 903 Kbps
Writing application                      : VirtualDubMod 1.5.10.3 (build 2550/release)
Writing library                          : VirtualDubMod build 2550/release

Video
ID                                       : 0
Format                                   : MPEG-4 Visual
Format profile                           : Advanced Simple@L5
Format settings, BVOP                    : 1
Format settings, QPel                    : No
Format settings, GMC                     : No warppoints
Format settings, Matrix                  : Default (H.263)
Codec ID                                 : XVID
Codec ID/Hint                            : XviD
Duration                                 : 44mn 37s
Bit rate                                 : 1 763 Kbps
Width                                    : 720 pixels
Height                                   : 400 pixels
Display aspect ratio                     : 16:9
Frame rate                               : 25.000 fps
Color space                              : YUV
Chroma subsampling                       : 4:2:0
Bit depth                                : 8 bits
Scan type                                : Progressive
Compression mode                         : Lossy
Bits/(Pixel*Frame)                       : 0.245
Stream size                              : 563 MiB (93%)
Writing library                          : XviD 67

Audio
ID                                       : 1
Format                                   : MPEG Audio
Format version                           : Version 1
Format profile                           : Layer 3
Mode                                     : Joint stereo
Mode extension                           : MS Stereo
Codec ID                                 : 55
Codec ID/Hint                            : MP3
Duration                                 : 44mn 38s
Bit rate mode                            : Constant
Bit rate                                 : 128 Kbps
Channel(s)                               : 2 channels
Sampling rate                            : 48.0 KHz
Compression mode                         : Lossy
Stream size                              : 40.9 MiB (7%)
Alignment                                : Aligned on interleaves
Interleave, duration                     : 24 ms (0.60 video frame)
Interleave, preload duration             : 504 ms

Скриншоты

pic
Comedy.Club.2016.12.31.SATRip.torrent
Трекер: Зарегистрирован

magnet ссылка

 


Скачать .torrent

14 KB

Статус: проверено (by DENZEL519 в 31-Дек-16 19:30)
Зарегистрирован: 31-Дек-16 19:25
Скачан: 1367 раз
Размер: 1.31 GB | 
Поблагодарили:
Скачать Новый Камеди клаб / Comedy Club (Ксения Чашей, Дмитрий Ефимович, Роман Новиков) [2016, комедия, SATRip] (31.12.2016) торрент
 

...

Похожие раздачи

DENZEL519

post 23-Сен-16 20:02 (спустя 1 минута)

В этой раздаче буду обновлять в качестве SATRip. Так как они раньше выходят.

DENZEL519

post 28-Окт-16 15:37 (спустя 1 месяц 4 дня)

Раздача обновлена 28.10.2016

pnhhhhh

post 28-Окт-16 20:47 (спустя 5 часов)

спасибо! вы конечно извините, но описание уже устарело очень давно?! Как Таир Мамедов , Вадим Галыгин , Алексей Лихницкий , Роман Юнусов

DENZEL519

post 29-Окт-16 06:37 (спустя 9 часов)

pnhhhhh
В раздаче web-dl 720p я уже описывал, что я не меняю его, только данные.

DENZEL519

post 11-Ноя-16 22:06 (спустя 13 дней)

Раздача обновлена 11.11.2016

DENZEL519

post 18-Ноя-16 16:52 (спустя 6 дней)

Раздача обновлена 18.11.2016

hummer

post 18-Ноя-16 20:27 (спустя 3 часа)

спс

DENZEL519

post 26-Ноя-16 22:21 (спустя 8 дней)

Раздача обновлена 25.11.2016 - [Лучшее]

DENZEL519

post 02-Дек-16 21:32 (спустя 5 дней)

Раздача обновлена 02.12.2016

DENZEL519

post 09-Дек-16 15:20 (спустя 6 дней)

Раздача обновлена 09.12.2016

hummer

post 09-Дек-16 19:53 (спустя 4 часа)

спс

DENZEL519

post 31-Дек-16 17:24 (спустя 21 день)

Раздача обновлена 31.12.2016 (1-2 часть из 2)

bazinazi

post 04-Мар-17 09:22 (спустя 2 месяца 3 дня)

rofl Спасибо!

Текущее время: 27-Июн 10:00

Часовой пояс: GMT + 3



Вы не можете начинать темы
Вы не можете отвечать на сообщения
Вы не можете редактировать свои сообщения
Вы не можете удалять свои сообщения
Вы не можете голосовать в опросах
Вы не можете прикреплять файлы к сообщениям
Вы не можете скачивать файлы