Loading...
Error
 

Скачать торрент Я – Болт / I Am Bolt (Бенжамин Тернер, Гейб Тернер) [2016, спорт, BDRip 1080p] MVO

 
Автор Сообщение

DENZEL519

post 03-Дек-16 19:00

Я – Болт / I Am Bolt
-

pic
pic
Год выпуска: 2016
Страна: Великобритания
Жанр: спорт
Продолжительность: 01:50:27
Перевод: Любительский многоголосый
Субтитры: Нет
Режиссер: Бенжамин Тернер, Гейб Тернер
Сценарий: -
Продюсер: Лео Перлман, Хезер Гринвуд, Matt Kaye
Оператор: Патрик Смит
Композитор: Йен Эрбер
В ролях: Пеле / Pele (играет самого себя), Неймар / Neymar (играет самого себя), Серена Уильямс / Serena Williams (играет саму себя), Asafa Powell (играет самого себя), Себастьян Коу / Sebastian Coe (играет самого себя), Зигги Марли / Ziggy Marley (играет самого себя), Нас / Nas (Voice), Chronixx / Chronixx (играет самого себя), Йохан Блейк / Yohan Blake (играет самого себя), Усэйн Болт / Usain Bolt (играет самого себя)
pic pic pic pic pic pic


Описание: Известные на весь мир спортсмены Пеле, Серена Уильямс, Асафа Пауэлл в документальной ленте режиссеров Бенджамина и Гейба Тернеров «Я – Болт» о ямайском легкоатлете Усэйне Болте. Усэйн Болт – единственный в мире спортсмен, выигравший спринтерские дистанции на трех Олимпийских играх подряд. Ему рукоплескали Пекин, Лондон и Рио. За свою пока еще продолжающуюся спортивную карьеру Болт установил 8 мировых рекордов и стал главным ямайским спринтером всех времен. Режиссеры Бенджамин и Гейб Тернер представляют захватывающий микс из трансляций и архивных кадров, которые со всей полнотой расскажут о том, что за человек Усэйн Болт и как ему дались все его огромные заслуги перед родиной и спортом. Этот фильм показывает Болта не только глазами его восхищенных товарищей – не менее великих спортсменов. Кое-что ямайский спринтер поведает о себе сам, оставляя, впрочем, больше загадок и вопросов, чем ответов. Оказывается, дома он очень любит полениться на диване и пить пиво с чипсами, что не мешает ему собрать волю в кулак и в очередной раз стать лучшим из лучших.


Качество: BDRip 1080p
Формат: MKV
Видео кодек: AVC
Аудио кодеk: AC3
Видео: 1920x1080 (16:9), 23.976 fps, AVC, 8 644 Kbps
Аудио: Аудио #1: AC3, 640 Kbps, 48.0 KHz, 2 ch [Rus]

pic
Рейтинг

МедиаИнфо

Код:

General
Unique ID                                : 192193523008463172277716625317220331871 (0x909720489BF0FC34AE80080BBFAC315F)
Complete name                            : Ya.Suka.BoLT.2O16.P.BDRip.1O8Op.mkv
Format                                   : Matroska
Format version                           : Version 2
File size                                : 7.31 GiB
Duration                                 : 1h 50mn
Overall bit rate mode                    : Variable
Overall bit rate                         : 9 473 Kbps
Encoded date                             : UTC 2016-12-03 13:46:29
Writing application                      : mkvmerge v8.3.0 ('Over the Horizon') 64bit
Writing library                          : libebml v1.3.1 + libmatroska v1.4.2
DURATION                                 : 01:50:27.788000000
NUMBER_OF_FRAMES                         : 158908
NUMBER_OF_BYTES                          : 7315896091
_STATISTICS_WRITING_APP                  : mkvmerge v8.3.0 ('Over the Horizon') 64bit
_STATISTICS_WRITING_DATE_UTC             : 2016-12-03 13:46:29
_STATISTICS_TAGS                         : BPS DURATION NUMBER_OF_FRAMES NUMBER_OF_BYTES

Video
ID                                       : 1
Format                                   : AVC
Format/Info                              : Advanced Video Codec
Format profile                           : [email protected]
Format settings, CABAC                   : Yes
Format settings, ReFrames                : 4 frames
Codec ID                                 : V_MPEG4/ISO/AVC
Duration                                 : 1h 50mn
Bit rate mode                            : Variable
Bit rate                                 : 8 644 Kbps
Nominal bit rate                         : 10 000 Kbps
Maximum bit rate                         : 10 000 Kbps
Width                                    : 1 920 pixels
Height                                   : 1 080 pixels
Display aspect ratio                     : 16:9
Frame rate mode                          : Constant
Frame rate                               : 23.976 fps
Standard                                 : Component
Color space                              : YUV
Chroma subsampling                       : 4:2:0
Bit depth                                : 8 bits
Scan type                                : Progressive
Bits/(Pixel*Frame)                       : 0.174
Stream size                              : 6.67 GiB (91%)
Writing library                          : x264 core 144
Encoding settings                        : cabac=1 / ref=4 / deblock=1:0:0 / analyse=0x3:0x3 / me=dia / subme=1 / psy=1 / psy_rd=1.00:0.00 / mixed_ref=0 / me_range=16 / chroma_me=1 / trellis=0 / 8x8dct=1 / cqm=1 / deadzone=21,11 / fast_pskip=1 / chroma_qp_offset=0 / threads=24 / lookahead_threads=4 / sliced_threads=0 / slices=1 / nr=0 / decimate=1 / interlaced=0 / minigop=0 / stitchable=1 / constrained_intra=0 / bframes=3 / b_pyramid=0 / b_adapt=0 / b_bias=0 / direct=1 / weightb=1 / open_gop=1 / weightp=0 / keyint=250 / keyint_min=23 / scenecut=40 / intra_refresh=0 / rc_lookahead=0 / rc=cbr / mbtree=0 / bitrate=10000 / ratetol=1.0 / qcomp=0.60 / qpmin=1 / qpmax=69 / qpstep=4 / vbv_maxrate=10000 / vbv_bufsize=10000 / nal_hrd=vbr / filler=0 / ip_ratio=1.40 / pb_ratio=1.30 / aq=1:1.00
Default                                  : Yes
Forced                                   : No
Color primaries                          : BT.709
Transfer characteristics                 : BT.709
Matrix coefficients                      : BT.709

Audio
ID                                       : 2
Format                                   : AC-3
Format/Info                              : Audio Coding 3
Mode extension                           : CM (complete main)
Format settings, Endianness              : Big
Codec ID                                 : A_AC3
Duration                                 : 1h 50mn
Bit rate mode                            : Constant
Bit rate                                 : 640 Kbps
Channel(s)                               : 2 channels
Channel positions                        : Front: L R
Sampling rate                            : 48.0 KHz
Bit depth                                : 16 bits
Compression mode                         : Lossy
Stream size                              : 506 MiB (7%)
Default                                  : Yes
Forced                                   : No

Доп. информация
Премьера (мир): 28 ноября 2016
Рейтинг MPAA: pic Рекомендуется присутствие родителей

Скриншоты


Время раздачи: 24/7 (до появления первых 3-5 скачавших)

Ya.BoLT.2O16.P.BDRip.1O8Op.mkv.torrent
Трекер: Зарегистрирован

magnet ссылка

 


Скачать .torrent

37 KB

Статус: проверено (by DENZEL519 в 03-Дек-16 19:00)
Зарегистрирован: 03-Дек-16 19:00
Скачан: 499 раз
Размер: 7.31 GB | 
Поблагодарили:
Скачать Я – Болт / I Am Bolt (Бенжамин Тернер, Гейб Тернер) [2016, спорт, BDRip 1080p] MVO торрент
 


Похожие раздачи

ManFromAstral

post 03-Дек-16 20:39 (спустя 1 час 38 минут)

:lol:

Cryostasis2

post 03-Дек-16 21:19 (спустя 40 минут)

Если бы Brazzers это сняла - я бы ещё понял...

deadmau5

post 03-Дек-16 22:04 (спустя 45 минут)

ManFromAstral, Cryostasis2, как смешно то... Вам сколько то лет, молодые люди ? Этот фильм про легендарного спортсмена, если что.

DiaboliK

post 03-Дек-16 22:25 (спустя 20 минут)

deadmau5 Думаешь они не знают ?) Прикалываются проста.

deadmau5

post 04-Дек-16 02:22 (спустя 3 часа)

DiaboliK, ну, тогда понятно, сортирные или как это сейчас модно говорить "шутки за 300" :lol:

Biotris

post 05-Дек-16 17:28 (спустя 1 день 15 часов)

Ц deadmau5 писал(а):

Этот фильм про легендарного спортсмена
Это не отменяет улыбку над смешным названием :)

Текущее время: 13-Дек 23:02

Часовой пояс: GMT + 3



Вы не можете начинать темы
Вы не можете отвечать на сообщения
Вы не можете редактировать свои сообщения
Вы не можете удалять свои сообщения
Вы не можете голосовать в опросах
Вы не можете прикреплять файлы к сообщениям
Вы не можете скачивать файлы