Loading...
Error
 

Концерт Кубанского казачьего хора. Священной победе! [2010, Концерт, SATRip ] скачать торрент

 
Автор Сообщение

centoriuse

post 04-Мар-17 15:03

pic
Концерт Кубанского казачьего хора. Священной победе!

Год выпуска: 2010
Страна: Россия
Жанр: Концерт
Продолжительность: 01:00:00

Описание:
Концерт Кубанского казачьего хора. Запись в Государственном Кремлевском Дворце, 2010 год. Художественный руководитель – Виктор Захарченко. В программе звучат произведения Александра Александрова, Георгия Свиридова, Давида Тухманова, русские и казачьи народные песни и пляски.
Треклист:
01. Священная война - А.Александров, В.Лебедев-Кумач
02. В путь-дорожку дальнюю - М.Блантер, С.Островой
03. Прощай, мий край, дэ я родився - казачья народная песня
04. Ихав козак за Дунай - казачья народная песня
05. Не для меня придет весна - казачья народная песня
06. На солнечной поляночке - М.Блантер, А.Фатьянов
07. Сине море, ой глубоко - казачья народная песня
08. Казаки в Берлине - Дм. и Дан. Покрасс, Ц.Солодарь
09. Встреча кубанских казаков
10. Ой, да вспомним, братцы - казачья народная песня
11. Бандура - украинская народная песня
12. Было дело под Полтавой - русская народная песня
13. Посреди России встану - А.Заволокина
14. Казачья лейб-гвардейская
15. Любо, братцы, любо - казачья народная песня
16. Когда мы были на войне - казачья народная песня
Качество: SATRip
Формат: avi
Видео кодек: XviD,
Аудио кодек: AC3
Видео: MPEG4, XviD, 720x528 (4:3), 25.000 fps, 1 800 Kbps (0.189 bit/pixel)
Аудио: AC-3, 48.0 KHz, 2 ch, 192 Kbps, CBR
MediaInfo

Код:

Общее
Полное имя                               : F:\видео\фильмы\Священной победе! Концерт Кубанского казачьего хора.avi
Формат                                   : AVI
Формат/Информация                        : Audio Video Interleave
Размер файла                             : 871 Мбайт
Продолжительность                        : 1 ч. 0 м.
Общий поток                              : 2001 Кбит/сек
Программа кодирования                    : VirtualDubMod 1.5.10.3 | http://www.virtualdub-fr.org || (build 2550/release)
Библиотека кодирования                   : VirtualDubMod build 2550/release

Видео
Идентификатор                            : 0
Формат                                   : MPEG-4 Visual
Профиль формата                          : Advanced Simple@L5
Параметр BVOP формата                    : 1
Параметр QPel формата                    : Нет
Параметр GMC формата                     : Без точки перехода
Параметр матрицы формата                 : Default (H.263)
Идентификатор кодека                     : XVID
Идентификатор кодека/Подсказка           : XviD
Продолжительность                        : 1 ч. 0 м.
Битрейт                                  : 1800 Кбит/сек
Ширина                                   : 720 пикселей
Высота                                   : 528 пикселей
Соотношение сторон                       : 4:3
Частота кадров                           : 25,000 кадров/сек
Цветовое пространство                    : YUV
Субдискретизация насыщенности            : 4:2:0
Битовая глубина                          : 8 бит
Тип развёртки                            : Прогрессивная
Метод сжатия                             : С потерями
Бит/(Пиксели*Кадры)                      : 0.189
Размер потока                            : 783 Мбайт (90%)
Библиотека кодирования                   : XviD 1.2.1 (UTC 2008-12-04)

Аудио
Идентификатор                            : 1
Формат                                   : AC-3
Формат/Информация                        : Audio Coding 3
Параметр Endianness формата              : Big
Идентификатор кодека                     : 2000
Продолжительность                        : 1 ч. 0 м.
Вид битрейта                             : Постоянный
Битрейт                                  : 192 Кбит/сек
Каналы                                   : 2 канала
Расположение каналов                     : Front: L R
Частота                                  : 48,0 КГц
Частота кадров                           : 31,250 кадров/сек (1536 spf)
Битовая глубина                          : 16 бит
Метод сжатия                             : С потерями
Размер потока                            : 83,5 Мбайт (10%)
Выравнивание                             : Разделение по промежуткам
Продолжительность промежутка             : 40  мс. (1,00 видеокадр)
Время предзагрузки промежутка            : 500  мс.
ServiceKind/String                       : Complete Main

Скриншоты:
! Концерт Кубанского казачьего хора.avi.torrent
Трекер: Зарегистрирован

magnet ссылка

 


Скачать .torrent

17 KB

Статус: проверено (by Арт33 в 25-Май-17 13:29)
Зарегистрирован: 25-Май-17 11:36
Скачан: 3 раза
Размер: 871 MB | 
Поблагодарили:
Скачать Концерт Кубанского казачьего хора. Священной победе! [2010, Концерт, SATRip ] торрент
 

...

Похожие раздачи

Snowden

post 04-Мар-17 15:22 (спустя 18 минут)

 !  Оформить по шаблону http://rustorka.com/forum/viewtopic.php?t=57499

post 04-Мар-17 15:32 (спустя 10 минут)

Топик был перенесен из форума Концерты (Отечественный Рок, Метал, Панк, Альтернатива) в форум Концерты (Other)


Snowden
 

Арт33

post 25-Май-17 12:25 (спустя 2 месяца 20 дней)

SATRip это скорее всего.

Текущее время: 27-Июн 15:09

Часовой пояс: GMT + 3



Вы не можете начинать темы
Вы не можете отвечать на сообщения
Вы не можете редактировать свои сообщения
Вы не можете удалять свои сообщения
Вы не можете голосовать в опросах
Вы не можете прикреплять файлы к сообщениям
Вы не можете скачивать файлы