Loading...
Error
 

Скачать торрент Fullmetal Alchemist Brotherhood Original Sountrack №1 - 2009, FLAC(tracks+.cue), lossless

 
Автор Сообщение

Nao-chan

post 20-Дек-09 05:42

Fullmetal Alchemist Brotherhood
Original Soundtrack №1

pic
Год выпуска: 2009
Жанр: OST
Продолжительность: 01:04:25
Тип издания: album.
Треклист:
01. Main Theme ~The Fullmetal Alchemist~ (03:42)
02. Laws of Alchemy (01:27)
03. again (TV Size) (01:39)
04. Nightfall in Central City (02:35)
05. Fire in the Sky (02:25)
06. Clash of the Alchemists (01:45)
07. Lurking (01:20)
08. Mist (02:29)
09. Spiral of Truth (01:25)
10. Mortal Sin (02:12)
11. One is All, All is One (01:39)
12. Requiem for the Brigadier General (02:28)
13. Uso (01:31)
14. Lullaby of Resembool (02:13)
15. Interlude (01:05)
16. Hologram (01:39)
17. Far East Suite (01:36)
18. Beneath the City (01:41)
19. Fifth Laboratory (02:45)
20. Fanfare for the Brave (01:28)
21. Trisha's Lullaby (03:31)
22. Concerto ~Brotherhood~ (02:13)
23. Hum of the Streets (01:08)
24. Beyond the Walls (03:38)
25. Next Chapter (02:28)
26. Home ~en route to Resembool~ (01:14)
27. Lapis Philosophorum (02:58)
28. Happiness ~Requiem from "The Blind Alchemist"~ (02:04)
29. Home ~a house on the hill~ (02:03)
30. Overture ~Brotherhood~ (02:17)
31. LET IT OUT (TV Size) (01:30)
Аудиокодек: FLAC
Битрейт аудио: lossless
Лог EAC
Exact Audio Copy V0.99 prebeta 5 from 4. May 2009

EAC extraction logfile from 15. October 2009, 13:30

Unknown Artist / Unknown Title

Used drive : PHILIPS DVDR1648P1 Adapter: 4 ID: 0

Read mode : Secure
Utilize accurate stream : Yes
Defeat audio cache : Yes
Make use of C2 pointers : No

Read offset correction : 618
Overread into Lead-In and Lead-Out : No
Fill up missing offset samples with silence : Yes
Delete leading and trailing silent blocks : No
Null samples used in CRC calculations : No
Used interface : Native Win32 interface for Win NT & 2000
Gap handling : Appended to previous track

Used output format : Internal WAV Routines
Sample format : 44.100 Hz; 16 Bit; Stereo

TOC of the extracted CD

Track | Start | Length | Start sector | End sector
---------------------------------------------------------
1 | 0:00.00 | 3:42.39 | 0 | 16688
2 | 3:42.39 | 1:27.11 | 16689 | 23224
3 | 5:09.50 | 1:39.69 | 23225 | 30718
4 | 6:49.44 | 2:35.71 | 30719 | 42414
5 | 9:25.40 | 2:25.41 | 42415 | 53330
6 | 11:51.06 | 1:45.42 | 53331 | 61247
7 | 13:36.48 | 1:20.24 | 61248 | 67271
8 | 14:56.72 | 2:29.36 | 67272 | 78482
9 | 17:26.33 | 1:25.01 | 78483 | 84858
10 | 18:51.34 | 2:12.50 | 84859 | 94808
11 | 21:04.09 | 1:39.62 | 94809 | 102295
12 | 22:43.71 | 2:28.18 | 102296 | 113413
13 | 25:12.14 | 1:31.11 | 113414 | 120249
14 | 26:43.25 | 2:13.58 | 120250 | 130282
15 | 28:57.08 | 1:05.41 | 130283 | 135198
16 | 30:02.49 | 1:39.68 | 135199 | 142691
17 | 31:42.42 | 1:36.60 | 142692 | 149951
18 | 33:19.27 | 1:41.51 | 149952 | 157577
19 | 35:01.03 | 2:45.56 | 157578 | 170008
20 | 37:46.59 | 1:28.32 | 170009 | 176640
21 | 39:15.16 | 3:31.04 | 176641 | 192469
22 | 42:46.20 | 2:13.25 | 192470 | 202469
23 | 44:59.45 | 1:08.58 | 202470 | 207627
24 | 46:08.28 | 3:38.71 | 207628 | 224048
25 | 49:47.24 | 2:28.60 | 224049 | 235208
26 | 52:16.09 | 1:14.45 | 235209 | 240803
27 | 53:30.54 | 2:58.25 | 240804 | 254178
28 | 56:29.04 | 2:04.55 | 254179 | 263533
29 | 58:33.59 | 2:03.00 | 263534 | 272758
30 | 60:36.59 | 2:17.19 | 272759 | 283052
31 | 62:54.03 | 1:30.74 | 283053 | 289876

Track 1

Filename L:\Ripped\Fullmetal Alchemist\Track01.wav

Pre-gap length 0:00:02.00

Peak level 100.0 %
Track quality 100.0 %
Test CRC 86F893CA
Copy CRC 86F893CA
Track not present in AccurateRip database
Copy OK

Track 2

Filename L:\Ripped\Fullmetal Alchemist\Track02.wav

Peak level 100.0 %
Track quality 100.0 %
Test CRC 9AA785CF
Copy CRC 9AA785CF
Track not present in AccurateRip database
Copy OK

Track 3

Filename L:\Ripped\Fullmetal Alchemist\Track03.wav

Peak level 70.7 %
Track quality 99.8 %
Test CRC F7483C27
Copy CRC F7483C27
Track not present in AccurateRip database
Copy OK

Track 4

Filename L:\Ripped\Fullmetal Alchemist\Track04.wav

Peak level 99.9 %
Track quality 100.0 %
Test CRC A9380514
Copy CRC A9380514
Track not present in AccurateRip database
Copy OK

Track 5

Filename L:\Ripped\Fullmetal Alchemist\Track05.wav

Peak level 100.0 %
Track quality 100.0 %
Test CRC 31A0E639
Copy CRC 31A0E639
Track not present in AccurateRip database
Copy OK

Track 6

Filename L:\Ripped\Fullmetal Alchemist\Track06.wav

Peak level 100.0 %
Track quality 99.8 %
Test CRC 11C04BD2
Copy CRC 11C04BD2
Track not present in AccurateRip database
Copy OK

Track 7

Filename L:\Ripped\Fullmetal Alchemist\Track07.wav

Pre-gap length 0:00:01.03

Peak level 41.5 %
Track quality 100.0 %
Test CRC F880ED7B
Copy CRC F880ED7B
Track not present in AccurateRip database
Copy OK

Track 8

Filename L:\Ripped\Fullmetal Alchemist\Track08.wav

Peak level 90.3 %
Track quality 100.0 %
Test CRC A134B13C
Copy CRC A134B13C
Track not present in AccurateRip database
Copy OK

Track 9

Filename L:\Ripped\Fullmetal Alchemist\Track09.wav

Peak level 88.1 %
Track quality 99.8 %
Test CRC 132EE1F8
Copy CRC 132EE1F8
Track not present in AccurateRip database
Copy OK

Track 10

Filename L:\Ripped\Fullmetal Alchemist\Track10.wav

Peak level 100.0 %
Track quality 100.0 %
Test CRC B624308C
Copy CRC B624308C
Track not present in AccurateRip database
Copy OK

Track 11

Filename L:\Ripped\Fullmetal Alchemist\Track11.wav

Peak level 57.3 %
Track quality 100.0 %
Test CRC 83EF2141
Copy CRC 83EF2141
Track not present in AccurateRip database
Copy OK

Track 12

Filename L:\Ripped\Fullmetal Alchemist\Track12.wav

Peak level 86.5 %
Track quality 100.0 %
Test CRC C553CCCC
Copy CRC C553CCCC
Track not present in AccurateRip database
Copy OK

Track 13

Filename L:\Ripped\Fullmetal Alchemist\Track13.wav

Peak level 74.0 %
Track quality 100.0 %
Test CRC 4827DF91
Copy CRC 4827DF91
Track not present in AccurateRip database
Copy OK

Track 14

Filename L:\Ripped\Fullmetal Alchemist\Track14.wav

Pre-gap length 0:00:01.07

Peak level 62.1 %
Track quality 100.0 %
Test CRC E5C54B88
Copy CRC E5C54B88
Track not present in AccurateRip database
Copy OK

Track 15

Filename L:\Ripped\Fullmetal Alchemist\Track15.wav

Peak level 54.7 %
Track quality 100.0 %
Test CRC B2FB6D7E
Copy CRC B2FB6D7E
Track not present in AccurateRip database
Copy OK

Track 16

Filename L:\Ripped\Fullmetal Alchemist\Track16.wav

Pre-gap length 0:00:01.07

Peak level 61.5 %
Track quality 100.0 %
Test CRC 2CF52BAC
Copy CRC 2CF52BAC
Track not present in AccurateRip database
Copy OK

Track 17

Filename L:\Ripped\Fullmetal Alchemist\Track17.wav

Peak level 87.9 %
Track quality 100.0 %
Test CRC 9BBA8D2D
Copy CRC 9BBA8D2D
Track not present in AccurateRip database
Copy OK

Track 18

Filename L:\Ripped\Fullmetal Alchemist\Track18.wav

Peak level 25.0 %
Track quality 100.0 %
Test CRC AC346C90
Copy CRC AC346C90
Track not present in AccurateRip database
Copy OK

Track 19

Filename L:\Ripped\Fullmetal Alchemist\Track19.wav

Peak level 100.0 %
Track quality 100.0 %
Test CRC 40750F64
Copy CRC 40750F64
Track not present in AccurateRip database
Copy OK

Track 20

Filename L:\Ripped\Fullmetal Alchemist\Track20.wav

Peak level 89.0 %
Track quality 100.0 %
Test CRC 3532777D
Copy CRC 3532777D
Track not present in AccurateRip database
Copy OK

Track 21

Filename L:\Ripped\Fullmetal Alchemist\Track21.wav

Peak level 96.3 %
Track quality 100.0 %
Test CRC D919E29C
Copy CRC D919E29C
Track not present in AccurateRip database
Copy OK

Track 22

Filename L:\Ripped\Fullmetal Alchemist\Track22.wav

Peak level 72.7 %
Track quality 100.0 %
Test CRC 34B340D1
Copy CRC 34B340D1
Track not present in AccurateRip database
Copy OK

Track 23

Filename L:\Ripped\Fullmetal Alchemist\Track23.wav

Pre-gap length 0:00:01.37

Peak level 55.6 %
Track quality 100.0 %
Test CRC 057AB344
Copy CRC 057AB344
Track not present in AccurateRip database
Copy OK

Track 24

Filename L:\Ripped\Fullmetal Alchemist\Track24.wav

Peak level 100.0 %
Track quality 100.0 %
Test CRC 1ED2EBE9
Copy CRC 1ED2EBE9
Track not present in AccurateRip database
Copy OK

Track 25

Filename L:\Ripped\Fullmetal Alchemist\Track25.wav

Peak level 94.3 %
Track quality 100.0 %
Test CRC 8C27CF0B
Copy CRC 8C27CF0B
Track not present in AccurateRip database
Copy OK

Track 26

Filename L:\Ripped\Fullmetal Alchemist\Track26.wav

Peak level 58.2 %
Track quality 100.0 %
Test CRC 16CF912F
Copy CRC 16CF912F
Track not present in AccurateRip database
Copy OK

Track 27

Filename L:\Ripped\Fullmetal Alchemist\Track27.wav

Peak level 92.4 %
Track quality 99.9 %
Test CRC 3E3BD3E9
Copy CRC 3E3BD3E9
Track not present in AccurateRip database
Copy OK

Track 28

Filename L:\Ripped\Fullmetal Alchemist\Track28.wav

Peak level 45.9 %
Track quality 100.0 %
Test CRC 78B094A1
Copy CRC 78B094A1
Track not present in AccurateRip database
Copy OK

Track 29

Filename L:\Ripped\Fullmetal Alchemist\Track29.wav

Peak level 67.6 %
Track quality 100.0 %
Test CRC 350D1DCA
Copy CRC 350D1DCA
Track not present in AccurateRip database
Copy OK

Track 30

Filename L:\Ripped\Fullmetal Alchemist\Track30.wav

Peak level 100.0 %
Track quality 100.0 %
Test CRC 8E694AB1
Copy CRC 8E694AB1
Track not present in AccurateRip database
Copy OK

Track 31

Filename L:\Ripped\Fullmetal Alchemist\Track31.wav

Pre-gap length 0:00:01.11

Peak level 67.5 %
Track quality 100.0 %
Test CRC 9D8A62E5
Copy CRC 9D8A62E5
Track not present in AccurateRip database
Copy OK

None of the tracks are present in the AccurateRip database

No errors occurred

End of status report
FMA Brotherhood OST 1[rustorka.com].torrent
Трекер: Зарегистрирован

magnet ссылка

 


Скачать .torrent

31 KB

Статус: проверено (by WebServer в 20-Дек-09 05:45)
Зарегистрирован: 20-Дек-09 05:42
Скачан: 40 раз
Размер: 339 MB | 
Поблагодарили:
Скачать Fullmetal Alchemist Brotherhood Original Sountrack №1 - 2009, FLAC(tracks+.cue), lossless торрент
 


Похожие раздачи

СоВЕрейН 777

post 20-Дек-09 11:04 (спустя 5 часов)

Mikoto
вообщето не правильно,название темы такое:
(OST)Fullmetal Alchemist Brotherhood Original Sountrack №1 - 2009, FLAC(tracks+.cue), lossless

Nao-chan

post 20-Дек-09 11:07 (спустя 3 минуты)

СоВЕрейН 777
Раздел ОСТов, смысл?
Это ненужный и бессмысленный пункт, ибо ничего другого, кроме саундтреков, в разделе, для них же, быть не должно.

pawnee666

post 29-Апр-10 04:59 (спустя 4 месяца 8 дней)

Nao-chan, домо аригато!
Выйдите, пожалуйста, на раздачу.

Текущее время: 02-Июн 00:56

Часовой пояс: GMT + 3



Вы не можете начинать темы
Вы не можете отвечать на сообщения
Вы не можете редактировать свои сообщения
Вы не можете удалять свои сообщения
Вы не можете голосовать в опросах
Вы не можете прикреплять файлы к сообщениям
Вы не можете скачивать файлы