Loading...
Error
 

Скачать торрент Eric Clapton: Live In San Diego with Special Guest JJ Cale [2007, Rock, Blues , BDRip 1080p]

 
Автор Сообщение

brother225

post 12-Апр-17 22:10

pic
Eric Clapton: Live In San Diego with Special Guest JJ Cale

Год выпуска: 2007
Страна: США | Reprise
Жанр: Rock, Blues
Продолжительность: 01:45:30
Описание: On March 15, 2007, Eric Clapton's world tour stopped at San Diego's iPayOne Center (originally the San Diego Sports Arena and now the Valley View Casino Center). The band lineup for the tour continues to be a firm fan-favorite, with Derek Trucks and Doyle Bramhall II on guitars, Chris Stainton and Tim Carmon on keyboards, Willie Weeks on bass, Steve Jordan on drums and backing vocalists Michelle John and Sharon White During the set, EC's long-time musical inspiration, JJ Cale, sat in for five songs, including three from their Grammy-Award winning album, The Road To Escondido, released in 2006.
Треклист
01. Tell The Truth
02. Key To The Highway
03. Got To Get Better In A Little While
04. Anyday
05. Anyway The Wind Blows
06. After Midnight
07. Who Am I Telling You?
08. Don't Cry Sister
09. Cocaine
10. Motherless Children
11. Little Queen Of Spades
12. Further On Up The Road
13. Wonderful Tonight
14. Layla
15. Crossroads

Качество: BDRip 1080p
Формат: mkv
Видео кодек: x264
Аудио кодек: DTS, LPCM
Видео: AVC 1920х1080 pixels 11000 Kb/s 23.976 fps
Аудио: English LPCM 96 kHz, 3072 kb/s, 24-bit, 2 ch
Аудио: English DTS-HD MA 5.1, 48 kHz, 7 082 kb/s, 24-bit
MediaInfo
Complete name : Z:\EricClapton2007.mkv
Format : Matroska
Format version : Version 4 / Version 2
File size : 15.6 GiB
Duration : 1 h 45 min
Overall bit rate : 21.2 Mb/s
Encoded date : UTC 2017-04-12 18:43:33
Writing application : mkvmerge v10.0.0 ('To Drown In You') 64bit
Writing library : libebml v1.3.4 + libmatroska v1.4.5

Video
ID : 1
Format : AVC
Format/Info : Advanced Video Codec
Format profile : [email protected]
Format settings, CABAC : Yes
Format settings, ReFrames : 4 frames
Codec ID : V_MPEG4/ISO/AVC
Duration : 1 h 45 min
Bit rate : 11.0 Mb/s
Width : 1 920 pixels
Height : 1 080 pixels
Display aspect ratio : 16:9
Frame rate mode : Constant
Frame rate : 23.976 (24000/1001) FPS
Color space : YUV
Chroma subsampling : 4:2:0
Bit depth : 8 bits
Scan type : Progressive
Bits/(Pixel*Frame) : 0.221
Stream size : 8.11 GiB (52%)
Writing library : x264 core 148 r2762 90a61ec
Encoding settings : cabac=1 / ref=4 / deblock=1:-3:-2 / analyse=0x3:0x113 / me=umh / subme=10 / psy=1 / psy_rd=1.00:0.00 / mixed_ref=1 / me_range=24 / chroma_me=1 / trellis=2 / 8x8dct=1 / cqm=0 / deadzone=21,11 / fast_pskip=1 / chroma_qp_offset=-2 / threads=12 / lookahead_threads=1 / sliced_threads=0 / nr=0 / decimate=1 / interlaced=0 / bluray_compat=0 / constrained_intra=0 / bframes=6 / b_pyramid=2 / b_adapt=2 / b_bias=0 / direct=3 / weightb=1 / open_gop=0 / weightp=2 / keyint=250 / keyint_min=23 / scenecut=40 / intra_refresh=0 / rc_lookahead=60 / rc=2pass / mbtree=1 / bitrate=11000 / ratetol=1.0 / qcomp=0.60 / qpmin=0 / qpmax=69 / qpstep=4 / cplxblur=20.0 / qblur=0.5 / vbv_maxrate=50000 / vbv_bufsize=62500 / nal_hrd=none / filler=0 / ip_ratio=1.40 / aq=1:1.00
Language : English
Default : Yes
Forced : No

Audio #1
ID : 2
Format : PCM
Codec ID : A_PCM/INT/LIT
Duration : 1 h 45 min
Bit rate mode : Constant
Bit rate : 3 072 kb/s
Channel(s) : 2 channels
Sampling rate : 96.0 kHz
Frame rate : 32.000 FPS (3000 spf)
Bit depth : 16 bits
Stream size : 2.26 GiB (15%)
Default : Yes
Forced : No

Audio #2
ID : 3
Format : DTS
Format/Info : Digital Theater Systems
Format profile : MA / Core
Mode : 16
Format settings, Endianness : Big
Codec ID : A_DTS
Duration : 1 h 45 min
Bit rate mode : Variable / Constant
Bit rate : 7 082 kb/s / 1 509 kb/s
Channel(s) : 6 channels
Channel positions : Front: L C R, Side: L R, LFE
Sampling rate : 96.0 kHz / 48.0 kHz
Frame rate : 93.750 FPS (512 spf)
Bit depth : 24 bits
Compression mode : Lossless / Lossy
Stream size : 5.22 GiB (33%)
Default : No
Forced : No
x264log
x264 [info]: frame I:894 Avg QP:18.15 size:211122
x264 [info]: frame P:41376 Avg QP:21.17 size: 87137
x264 [info]: frame B:109499 Avg QP:22.12 size: 44991
x264 [info]: consecutive B-frames: 3.4% 5.9% 13.3% 44.7% 15.4% 15.1% 2.2%
Скриншоты
EricClapton2007.mkv.torrent
 СЕРЕБРЯНАЯ РАЗДАЧА! СКАЧАННОЕ ЗАСЧИТЫВАЕТСЯ ТОЛЬКО НАПОЛОВИНУ! 
Вечный
Трекер: Зарегистрирован

magnet ссылка

 


Скачать .torrent

78 KB

Статус: проверено (by Арт33 в 12-Апр-17 22:46)
Зарегистрирован: 12-Апр-17 22:10
Скачан: 3 раза
Размер: 15.59 GB | 
Поблагодарили:
Скачать Eric Clapton: Live In San Diego with Special Guest JJ Cale [2007, Rock, Blues , BDRip 1080p] торрент
 


Похожие раздачи

Текущее время: 20-Сен 10:35

Часовой пояс: GMT + 3



Вы не можете начинать темы
Вы не можете отвечать на сообщения
Вы не можете редактировать свои сообщения
Вы не можете удалять свои сообщения
Вы не можете голосовать в опросах
Вы не можете прикреплять файлы к сообщениям
Вы не можете скачивать файлы